<?xml version="1.0" standalone="no"?>
<!DOCTYPE svg PUBLIC "-//W3C//DTD SVG 1.1//EN" "http://www.w3.org/Graphics/SVG/1.1/DTD/svg11.dtd" >
<svg xmlns="http://www.w3.org/2000/svg" xmlns:xlink="http://www.w3.org/1999/xlink" version="1.1">
<metadata>
Created by FontForge 20170731 at Wed Dec 14 14:18:51 2022
 By Aleksey,,,
Copyright (c) 2015 by Kostas Bartsokas. All rights reserved.
</metadata>
<defs>
<font id="Averta-Bold" horiz-adv-x="1200" >
  <font-face 
    font-family="Averta Bold"
    font-weight="700"
    font-stretch="normal"
    units-per-em="2048"
    panose-1="0 0 8 0 0 0 0 0 0 0"
    ascent="1581"
    descent="-467"
    x-height="999"
    cap-height="1454"
    bbox="-494 -526 2929 2025"
    underline-thickness="108"
    underline-position="-294"
    unicode-range="U+0020-2E18"
  />
<missing-glyph horiz-adv-x="919" 
 />
    <glyph glyph-name=".notdef" horiz-adv-x="919" 
 />
    <glyph glyph-name=".null" horiz-adv-x="0" 
 />
    <glyph glyph-name="nonmarkingreturn" horiz-adv-x="682" 
 />
    <glyph glyph-name="space" unicode=" " horiz-adv-x="538" 
 />
    <glyph glyph-name="exclam" unicode="!" horiz-adv-x="575" 
d="M193 477l-48 1030h293l-49 -1030h-196zM287 -16q-69 0 -117.5 47t-48.5 114q0 68 48.5 116t117.5 48q68 0 117 -48.5t49 -115.5t-49 -114t-117 -47z" />
    <glyph glyph-name="quotedbl" unicode="&#x22;" horiz-adv-x="849" 
d="M68 922l61 532h274l-129 -532h-206zM453 922l61 532h277l-132 -532h-206z" />
    <glyph glyph-name="numbersign" unicode="#" horiz-adv-x="1320" 
d="M225 -90l62 385h-217v199h247l43 284h-239v199h270l58 366h182l-58 -366h281l57 366h183l-56 -366h224v-199h-254l-45 -284h247l-2 -199h-276l-58 -385h-184l60 385h-281l-59 -385h-185zM500 494h282l43 284h-280z" />
    <glyph glyph-name="dollar" unicode="$" horiz-adv-x="1171" 
d="M1092 399q0 -163 -101.5 -269.5t-277.5 -131.5v-229h-215v229q-236 36 -412 209l168 201q83 -78 179.5 -118t184.5 -40q77 0 123.5 34.5t46.5 94.5q0 64 -51.5 102t-181.5 76q-58 18 -97.5 32t-89.5 35.5t-82.5 42.5t-67 52t-54.5 66t-32.5 81.5t-12.5 100.5
q0 159 100 266.5t279 128.5v242h215v-254q95 -20 187 -62.5t161 -97.5l-162 -203q-165 115 -315 115q-78 0 -121 -30.5t-43 -86.5q0 -54 50 -89.5t167 -72.5q67 -20 112 -35t97.5 -37.5t85.5 -44t66.5 -52.5t52 -67t30 -83.5t11.5 -104.5z" />
    <glyph glyph-name="percent" unicode="%" horiz-adv-x="2086" 
d="M823 -47l-200 86l645 1446l200 -86zM492 655q-174 0 -293 114.5t-119 295.5q0 171 115.5 288t296.5 117q175 0 294 -112.5t119 -292.5q0 -173 -115.5 -291.5t-297.5 -118.5zM494 846q89 0 145.5 62.5t56.5 154.5q0 95 -58 155t-144 60q-88 0 -144.5 -62t-56.5 -153
q0 -95 58 -156t143 -61zM1591 -16q-173 0 -292 114t-119 293q0 171 115 289.5t296 118.5q175 0 294.5 -114t119.5 -294q0 -171 -115 -289t-299 -118zM1593 174q89 0 146 62t57 153q0 95 -58.5 155t-144.5 60q-89 0 -144.5 -62t-55.5 -153q0 -95 57.5 -155t142.5 -60z" />
    <glyph glyph-name="ampersand" unicode="&#x26;" horiz-adv-x="1366" 
d="M1016 0l-80 102h-4q-142 -118 -371 -118q-203 0 -340 124t-137 320q0 141 72.5 248.5t191.5 177.5l-160 205q19 183 144.5 298.5t308.5 115.5q320 0 463 -302l-221 -81q-73 149 -215 149q-86 1 -134 -46t-59 -112l469 -602h2q47 109 47 217l252 6q0 -255 -127 -444
l201 -258h-303zM352 444q0 -97 66.5 -157t171.5 -60q107 0 198 58v6l-292 377q-71 -38 -107.5 -97.5t-36.5 -126.5z" />
    <glyph glyph-name="quotesingle" unicode="'" horiz-adv-x="464" 
d="M68 922l61 532h274l-129 -532h-206z" />
    <glyph glyph-name="parenleft" unicode="(" horiz-adv-x="636" 
d="M354 -322q-248 389 -248 926q0 265 65 505t187 423l197 -90q-99 -180 -152 -395.5t-53 -442.5q0 -447 203 -837z" />
    <glyph glyph-name="parenright" unicode=")" horiz-adv-x="636" 
d="M283 -322l-199 89q203 390 203 837q0 227 -53 442.5t-152 395.5l197 90q121 -183 186 -422.5t65 -505.5q0 -538 -247 -926z" />
    <glyph glyph-name="asterisk" unicode="*" horiz-adv-x="825" 
d="M332 784l10 211l-176 -110l-82 139l182 94l-184 99l84 141l176 -113l-10 209h162l-11 -209l179 111l81 -139l-186 -97l186 -96l-81 -141l-175 112l7 -211h-162z" />
    <glyph glyph-name="plus" unicode="+" horiz-adv-x="1187" 
d="M475 84v367h-366v233h366v369h238v-369h366v-233h-366v-367h-238z" />
    <glyph glyph-name="comma" unicode="," horiz-adv-x="499" 
d="M51 -272l64 532h274l-141 -532h-197z" />
    <glyph glyph-name="hyphen" unicode="-" horiz-adv-x="819" 
d="M100 508v250h621v-250h-621z" />
    <glyph glyph-name="period" unicode="." horiz-adv-x="552" 
d="M276 -16q-69 0 -117 47t-48 114q0 68 48 116t117 48q68 0 117 -48.5t49 -115.5t-49 -114t-117 -47z" />
    <glyph glyph-name="slash" unicode="/" horiz-adv-x="897" 
d="M135 -229l-201 92l783 1749l198 -92z" />
    <glyph glyph-name="zero" unicode="0" horiz-adv-x="1292" 
d="M645 -16q-247 0 -397 191t-150 527q0 214 65.5 377t189.5 253.5t292 90.5q249 0 399 -192t150 -529q0 -326 -147.5 -522t-401.5 -196zM647 242q124 0 193 119.5t69 340.5q0 215 -69 338t-193 123q-123 0 -193.5 -120t-70.5 -341q0 -213 70 -336.5t194 -123.5z" />
    <glyph glyph-name="one" unicode="1" horiz-adv-x="841" 
d="M397 0v1071l-235 -176l-133 207l426 305h223v-1407h-281z" />
    <glyph glyph-name="two" unicode="2" horiz-adv-x="1087" 
d="M483 254h514v-254h-917l-4 182l438 463q96 103 142 177.5t46 152.5q0 82 -52.5 136t-135.5 54q-154 0 -244 -151l-200 143q66 121 183 193.5t284 72.5q118 0 218.5 -48.5t164 -145.5t63.5 -223q0 -125 -50.5 -231t-182.5 -243l-267 -274v-4z" />
    <glyph glyph-name="three" unicode="3" horiz-adv-x="1112" 
d="M799 727q105 -49 164 -136.5t59 -207.5q0 -180 -134 -289.5t-341 -109.5q-183 0 -317 85.5t-187 223.5l242 100q59 -160 241 -160q88 0 148.5 51.5t60.5 137.5q0 80 -60.5 133t-170.5 53h-103v228h125q90 0 136.5 46t46.5 119q0 75 -54 122.5t-133 47.5q-139 0 -205 -116
l-223 119q51 112 166.5 180.5t267.5 68.5q127 0 228.5 -42.5t163 -129.5t61.5 -204q0 -100 -48 -183t-134 -133v-4z" />
    <glyph glyph-name="four" unicode="4" horiz-adv-x="1175" 
d="M647 0v229h-596v179l645 999h226v-938h188v-240h-188v-229h-275zM354 455h314v503z" />
    <glyph glyph-name="five" unicode="5" horiz-adv-x="1134" 
d="M604 907q185 0 311.5 -124t126.5 -328q0 -207 -143.5 -339t-359.5 -132q-147 0 -273.5 56t-212.5 165l201 162q97 -129 270 -129q101 0 168.5 63.5t67.5 157.5q0 103 -73.5 162t-168.5 59q-119 0 -211 -72l-147 56l43 743h768v-254h-527l-16 -276q99 30 176 30z" />
    <glyph glyph-name="six" unicode="6" 
d="M678 901q120 0 216.5 -51t156 -155.5t59.5 -245.5q0 -205 -144.5 -335t-363.5 -130t-362.5 156t-143.5 407q0 342 206 590.5t538 310.5l80 -223q-195 -56 -319.5 -149t-184.5 -240h2q115 65 260 65zM610 233q99 0 163.5 65.5t64.5 156.5q0 93 -63.5 153t-168.5 60
q-69 0 -134 -35t-110 -90v-21q0 -128 71.5 -208.5t176.5 -80.5z" />
    <glyph glyph-name="seven" unicode="7" horiz-adv-x="999" 
d="M45 1407h875v-182l-490 -1256l-276 51l460 1135h-569v252z" />
    <glyph glyph-name="eight" unicode="8" horiz-adv-x="1173" 
d="M848 760q111 -41 180.5 -137t69.5 -234q0 -123 -68.5 -216t-184 -141t-259.5 -48q-221 0 -364.5 112t-143.5 293q0 138 69 234.5t179 136.5v4q-70 28 -123 110t-53 183q0 173 123 269.5t313 96.5q195 0 316.5 -98t121.5 -268q0 -102 -52.5 -183.5t-123.5 -109.5v-4z
M586 1194q-77 0 -127.5 -48.5t-50.5 -115.5q0 -69 50 -113.5t128 -44.5q79 0 129.5 44.5t50.5 113.5q0 70 -51.5 117t-128.5 47zM586 221q100 0 163.5 59.5t63.5 145.5q0 90 -63 147.5t-164 57.5q-100 0 -164 -58t-64 -147q0 -87 66 -146t162 -59z" />
    <glyph glyph-name="nine" unicode="9" horiz-adv-x="1191" 
d="M588 1423q222 0 365 -157t143 -408q0 -228 -95.5 -421t-266 -319.5t-390.5 -168.5l-82 225q197 54 324.5 149t189.5 244l-2 2q-118 -65 -262 -65q-182 0 -305 121t-123 329q0 207 144 338t360 131zM356 950q0 -95 62 -154t168 -59q69 0 133.5 35t109.5 90v19
q0 130 -67 210t-170 80q-105 0 -170.5 -64.5t-65.5 -156.5z" />
    <glyph glyph-name="colon" unicode=":" horiz-adv-x="555" 
d="M274 690q-69 0 -117 47t-48 115t48 116t117 48q68 0 117 -48.5t49 -115.5t-49 -114.5t-117 -47.5zM274 -16q-69 0 -117 47t-48 114q0 68 48 116t117 48q68 0 117 -48.5t49 -115.5t-49 -114t-117 -47z" />
    <glyph glyph-name="semicolon" unicode=";" horiz-adv-x="516" 
d="M248 688q-69 0 -117.5 47.5t-48.5 114.5q0 68 48.5 116t117.5 48q68 0 117 -48.5t49 -115.5t-49 -114.5t-117 -47.5zM51 -272l64 532h274l-141 -532h-197z" />
    <glyph glyph-name="less" unicode="&#x3c;" horiz-adv-x="1187" 
d="M1059 53l-950 410v192l950 416v-258l-604 -252l604 -256v-252z" />
    <glyph glyph-name="equal" unicode="=" horiz-adv-x="1208" 
d="M131 686v234h971v-234h-971zM131 215v234h971v-234h-971z" />
    <glyph glyph-name="greater" unicode="&#x3e;" horiz-adv-x="1187" 
d="M129 53v252l604 256l-604 252v258l950 -416v-192z" />
    <glyph glyph-name="question" unicode="?" horiz-adv-x="958" 
d="M287 473l-2 102q0 27 4 52t16 49.5t21 42t30 43t31.5 38t36.5 40.5t35 37q63 65 97 118t34 115q0 75 -45 117.5t-119 42.5q-59 0 -114 -29.5t-93 -81.5l-190 178q70 87 182 138t238 51q118 0 214 -43t157 -135.5t61 -221.5q0 -108 -48.5 -190t-132.5 -164
q-11 -10 -40.5 -36.5t-41 -37.5t-32 -33t-29.5 -36t-17.5 -33t-9.5 -37l-6 -86h-237zM410 -16q-69 0 -117.5 47t-48.5 114q0 68 48.5 116t117.5 48q68 0 116.5 -48.5t48.5 -115.5t-48.5 -114t-116.5 -47z" />
    <glyph glyph-name="at" unicode="@" horiz-adv-x="1839" 
d="M1366 954l-57 -528q0 -10 -1 -26t-1 -23q0 -52 17 -73t54 -21q53 0 95 55.5t61.5 126t19.5 133.5q0 116 -40 219.5t-112.5 181.5t-180 124t-234.5 46q-145 0 -265.5 -43t-199.5 -112t-133.5 -159.5t-78 -183t-23.5 -184.5q0 -123 46.5 -235.5t123.5 -193t181 -128
t214 -47.5q206 0 418 107l84 -140q-230 -153 -502 -153q-129 0 -246 38t-210.5 109t-163 167.5t-107 219t-37.5 258.5q0 90 21 184.5t64 193t116 185t169 155t232.5 108t296.5 39.5q174 0 319 -58t242.5 -159t151 -239.5t53.5 -297.5q0 -62 -11.5 -126.5t-43.5 -136.5
t-81 -127t-132 -91.5t-189 -36.5q-119 0 -186 70q-33 27 -47 86h-6q-38 -57 -112 -96.5t-144 -39.5q-152 0 -245 107.5t-93 282.5q0 55 12 116t42 126.5t72.5 117.5t110.5 85.5t150 33.5q155 0 237 -133h3l14 116h262zM881 334q85 0 142.5 67.5t57.5 159.5q0 79 -43 128.5
t-108 49.5q-86 0 -145.5 -65.5t-59.5 -159.5q0 -80 45 -130t111 -50z" />
    <glyph glyph-name="A" unicode="A" horiz-adv-x="1429" 
d="M1096 0l-99 291h-559l-98 -291h-301l539 1454h276l543 -1454h-301zM522 537h391l-194 571h-4z" />
    <glyph glyph-name="B" unicode="B" horiz-adv-x="1318" 
d="M940 772q142 -35 218.5 -131t76.5 -240q0 -180 -121.5 -290.5t-351.5 -110.5h-602v1454h524q232 0 353.5 -90.5t121.5 -263.5q0 -107 -53 -195t-166 -131v-2zM442 1200v-342h207q93 0 156 44t63 128q0 80 -58 125t-179 45h-189zM676 254q120 0 189 46.5t69 137.5
q0 89 -65 139t-191 50h-236v-373h234z" />
    <glyph glyph-name="C" unicode="C" horiz-adv-x="1486" 
d="M842 -14q-150 0 -283.5 48.5t-236 139.5t-162.5 233t-60 316q0 157 50 293t142.5 238t234 160.5t315.5 58.5q159 0 311.5 -69.5t267.5 -209.5l-211 -180q-70 82 -165.5 133t-202.5 51q-192 0 -316.5 -130t-124.5 -345q0 -203 123.5 -334t317.5 -131q109 0 204.5 50
t163.5 134l211 -182q-100 -125 -247.5 -199.5t-331.5 -74.5z" />
    <glyph glyph-name="D" unicode="D" horiz-adv-x="1495" 
d="M160 0v1454h481q170 0 312 -53.5t239.5 -149.5t151 -231t53.5 -295t-52 -294t-147.5 -229.5t-237 -148.5t-313.5 -53h-487zM444 256h185q209 0 339 133t130 336q0 204 -127.5 337.5t-323.5 133.5h-203v-940z" />
    <glyph glyph-name="E" unicode="E" horiz-adv-x="1228" 
d="M160 0v1454h930v-258h-648v-348h519v-254h-519v-338h691v-256h-973z" />
    <glyph glyph-name="F" unicode="F" horiz-adv-x="1204" 
d="M160 0v1454h964v-258h-680v-387h568v-258h-568v-551h-284z" />
    <glyph glyph-name="G" unicode="G" horiz-adv-x="1542" 
d="M844 -14q-158 0 -293.5 50.5t-236 143.5t-157.5 233.5t-57 311.5q0 159 51 296.5t143.5 237.5t231 157t305.5 57q161 0 315.5 -63.5t262.5 -186.5l-205 -172q-156 149 -373 149q-185 0 -307.5 -129t-122.5 -346q0 -133 53 -240.5t154.5 -171t235.5 -63.5q160 0 295 82
v215h-328v246h604v-627q-100 -81 -253.5 -130.5t-317.5 -49.5z" />
    <glyph glyph-name="H" unicode="H" horiz-adv-x="1492" 
d="M160 0v1454h289v-629h595v629h289v-1454h-289v567h-595v-567h-289z" />
    <glyph glyph-name="I" unicode="I" horiz-adv-x="628" 
d="M170 0v1454h289v-1454h-289z" />
    <glyph glyph-name="J" unicode="J" horiz-adv-x="1036" 
d="M449 -14q-114 0 -221.5 48.5t-178.5 141.5l164 203q40 -54 98.5 -89.5t116.5 -35.5q178 0 178 254v946h289v-942q0 -254 -105.5 -390t-340.5 -136z" />
    <glyph glyph-name="K" unicode="K" horiz-adv-x="1363" 
d="M592 584h-2l-144 -170v-414h-286v1454h286v-641h3l503 641h365l-537 -641l553 -813h-354z" />
    <glyph glyph-name="L" unicode="L" horiz-adv-x="1159" 
d="M160 0v1454h289v-1198h647v-256h-936z" />
    <glyph glyph-name="M" unicode="M" horiz-adv-x="1794" 
d="M1346 1454h288v-1454h-284v903h-4l-355 -627h-186l-354 627h-5v-903h-286v1454h291l446 -827h4z" />
    <glyph glyph-name="N" unicode="N" horiz-adv-x="1546" 
d="M1098 1454h288v-1454h-294l-641 965h-5v-965h-286v1454h286l650 -983h2v983z" />
    <glyph glyph-name="O" unicode="O" horiz-adv-x="1681" 
d="M842 -16q-162 0 -301 56t-235.5 154t-151 235.5t-54.5 297.5q0 214 93 384t262.5 266t386.5 96q159 0 296 -54.5t234.5 -151.5t153 -236.5t55.5 -303.5q0 -218 -95 -388t-263.5 -262.5t-380.5 -92.5zM844 252q188 0 313 135.5t125 339.5q0 205 -125 340t-313 135
q-194 0 -319.5 -137t-125.5 -338t125.5 -338t319.5 -137z" />
    <glyph glyph-name="P" unicode="P" horiz-adv-x="1277" 
d="M160 0v1454h538q129 0 227 -36t158.5 -101.5t90.5 -152t30 -193.5q0 -233 -142.5 -353t-389.5 -120h-228v-498h-284zM444 754h191q132 0 201 59.5t69 163.5q0 102 -67 161.5t-191 59.5h-203v-444z" />
    <glyph glyph-name="Q" unicode="Q" horiz-adv-x="1714" 
d="M1622 150l-152 -193l-178 164q-191 -137 -448 -137q-162 0 -301 56t-236 154t-152 236t-55 297q0 214 93.5 384t263.5 266t387 96q158 0 295 -54.5t234.5 -151.5t153.5 -236.5t56 -303.5q0 -246 -123 -434zM844 252q126 0 231 65l-133 121l150 183l139 -125
q51 108 51 231q0 201 -123 338t-315 137q-191 0 -318 -135t-127 -340q0 -204 127 -339.5t318 -135.5z" />
    <glyph glyph-name="R" unicode="R" horiz-adv-x="1345" 
d="M1278 0h-340l-326 498h-168v-498h-284v1454h551q252 0 379 -131.5t127 -351.5q0 -171 -78 -281.5t-221 -157.5zM444 1198v-446h201q131 0 203 61t72 164q0 101 -69.5 161t-193.5 60h-213z" />
    <glyph glyph-name="S" unicode="S" horiz-adv-x="1196" 
d="M598 -16q-146 0 -282.5 57t-247.5 172l172 213q78 -91 174 -136.5t188 -45.5q101 0 155 41.5t54 111.5q0 75 -55.5 116t-198.5 89q-53 19 -93.5 35.5t-88.5 41t-83 49.5t-69 59.5t-55.5 73t-35 89t-13.5 107.5q0 174 135 293.5t332 122.5q266 3 489 -185l-166 -217
q-173 143 -317 143q-77 0 -125.5 -39t-48.5 -106q-1 -63 52 -101.5t192 -93.5q181 -70 241 -103q134 -72 180 -179q29 -69 29 -162q0 -92 -30.5 -168t-81.5 -126.5t-118.5 -85.5t-138.5 -50.5t-145 -15.5z" />
    <glyph glyph-name="T" unicode="T" horiz-adv-x="1210" 
d="M461 0v1196h-402v258h1092v-258h-403v-1196h-287z" />
    <glyph glyph-name="U" unicode="U" horiz-adv-x="1460" 
d="M727 -16q-266 0 -426 163t-160 455v852h289v-833q0 -161 79 -264t218 -103q135 0 219 98.5t84 268.5v833h289v-852q0 -287 -156.5 -452.5t-435.5 -165.5z" />
    <glyph glyph-name="V" unicode="V" horiz-adv-x="1417" 
d="M1069 1454h309l-538 -1454h-254l-541 1454h313l353 -1044h4z" />
    <glyph glyph-name="W" unicode="W" horiz-adv-x="2115" 
d="M1755 1454h307l-458 -1454h-267l-272 1034h-6l-283 -1034h-264l-459 1454h307l283 -983h4l258 983h305l258 -983h2z" />
    <glyph glyph-name="X" unicode="X" horiz-adv-x="1437" 
d="M1049 0l-328 510h-4l-328 -510h-336l475 731l-460 723h329l320 -502h4l319 502h330l-461 -723l475 -731h-335z" />
    <glyph glyph-name="Y" unicode="Y" horiz-adv-x="1294" 
d="M942 1454h334l-485 -815v-639h-291v639l-482 815h330l297 -530h4z" />
    <glyph glyph-name="Z" unicode="Z" horiz-adv-x="1277" 
d="M471 256h696v-256h-1063v225l680 969v2h-651v258h1032v-219l-694 -975v-4z" />
    <glyph glyph-name="bracketleft" unicode="[" horiz-adv-x="706" 
d="M127 -303v1804h485v-198h-256v-1405h256v-201h-485z" />
    <glyph glyph-name="backslash" unicode="\" horiz-adv-x="907" 
d="M762 -229l-780 1749l198 92l783 -1749z" />
    <glyph glyph-name="bracketright" unicode="]" horiz-adv-x="706" 
d="M580 -303h-486v201h256v1405h-256v198h486v-1804z" />
    <glyph glyph-name="asciicircum" unicode="^" horiz-adv-x="956" 
d="M104 1024l279 430h188l283 -430h-219l-158 262l-164 -262h-209z" />
    <glyph glyph-name="underscore" unicode="_" horiz-adv-x="1091" 
d="M-4 -236v181h1100v-181h-1100z" />
    <glyph glyph-name="grave" unicode="`" horiz-adv-x="1019" 
d="M469 1096l-252 303l281 -2l231 -301h-260z" />
    <glyph glyph-name="a" unicode="a" horiz-adv-x="1243" 
d="M850 999h266v-999h-254v121h-6q-106 -137 -299 -137q-209 0 -343 142t-134 372q0 226 134.5 372t336.5 146q185 0 293 -129h6v112zM606 223q107 0 180.5 76.5t73.5 196.5t-71.5 200t-180.5 80q-110 0 -184 -77t-74 -203q0 -121 71.5 -197t184.5 -76z" />
    <glyph glyph-name="b" unicode="b" horiz-adv-x="1263" 
d="M711 1016q202 0 336.5 -146t134.5 -372q0 -230 -134.5 -372t-345.5 -142q-196 0 -305 137h-6v-121h-256v1507h268v-620h7q111 129 301 129zM653 223q114 0 185 75.5t71 197.5q0 126 -73 203t-183 77q-115 0 -188.5 -79.5t-73.5 -200.5t75.5 -197t186.5 -76z" />
    <glyph glyph-name="c" unicode="c" horiz-adv-x="1087" 
d="M596 -16q-224 0 -369 143.5t-145 372.5q0 230 147 373t379 143q124 0 237.5 -49t186.5 -142l-180 -155q-92 106 -234 106q-120 0 -193 -76t-73 -198q0 -123 75 -201t194 -78q74 0 133.5 29t99.5 74l182 -162q-69 -80 -183 -130t-257 -50z" />
    <glyph glyph-name="d" unicode="d" horiz-adv-x="1261" 
d="M858 1507h268v-1507h-256v121h-4q-109 -137 -307 -137q-209 0 -344 142.5t-135 371.5q0 226 134.5 372t336.5 146q190 0 301 -129h6v620zM608 223q112 0 188 76t76 197t-74.5 200.5t-189.5 79.5q-110 0 -183 -77t-73 -203q0 -121 71.5 -197t184.5 -76z" />
    <glyph glyph-name="e" unicode="e" horiz-adv-x="1146" 
d="M1067 510q0 -80 -6 -96h-703q25 -90 92.5 -141.5t163.5 -51.5q146 -3 240 113l174 -162q-68 -86 -178 -137t-254 -51q-146 0 -262.5 63.5t-184 182.5t-67.5 272q0 226 140.5 370t355.5 144q218 0 353.5 -142t135.5 -364zM586 780q-83 0 -143 -44.5t-83 -129.5h441
q-21 81 -75.5 127.5t-139.5 46.5z" />
    <glyph glyph-name="f" unicode="f" horiz-adv-x="712" 
d="M172 0v778h-104v221h104v172q0 173 82 264t233 91t258 -74l-53 -209q-85 43 -149 43q-103 0 -103 -133v-154h224v-221h-224v-778h-268z" />
    <glyph glyph-name="g" unicode="g" horiz-adv-x="1239" 
d="M846 999h266v-884q0 -121 -28 -216t-88 -168.5t-162 -113t-242 -39.5q-232 0 -412 100l64 228q167 -94 323 -94q136 0 210.5 63t74.5 160v100h-6q-108 -117 -291 -117q-208 0 -342.5 137.5t-134.5 354.5q0 221 131 363.5t332 142.5q180 0 299 -119h6v102zM604 260
q110 0 181 73t71 187q0 113 -72 182.5t-180 69.5q-113 0 -183.5 -70t-70.5 -184q0 -116 72 -187t182 -71z" />
    <glyph glyph-name="h" unicode="h" horiz-adv-x="1222" 
d="M733 1016q172 0 270.5 -99t98.5 -317v-600h-268v532q0 133 -48 188.5t-147 55.5q-110 0 -173 -68.5t-63 -199.5v-508h-268v1507h268v-628h5q122 137 325 137z" />
    <glyph glyph-name="i" unicode="i" horiz-adv-x="563" 
d="M283 1141q-68 0 -117 48.5t-49 115.5t49 115t117 48q69 0 118.5 -48t49.5 -115t-49.5 -115.5t-118.5 -48.5zM147 0v999h269v-999h-269z" />
    <glyph glyph-name="j" unicode="j" horiz-adv-x="526" 
d="M264 1147q-68 0 -117 48.5t-49 115.5t49 115.5t117 48.5q69 0 118.5 -48.5t49.5 -115.5t-49.5 -115.5t-118.5 -48.5zM106 -422q-118 0 -208 37l45 221q46 -24 88 -24q48 0 75 35.5t27 103.5v1048h268v-1058q0 -177 -79.5 -270t-215.5 -93z" />
    <glyph glyph-name="k" unicode="k" horiz-adv-x="1103" 
d="M547 397h-4l-140 -157v-240h-268v1507h268v-911h3l358 403h313l-352 -397l358 -602h-299z" />
    <glyph glyph-name="l" unicode="l" horiz-adv-x="563" 
d="M147 0v1507h269v-1507h-269z" />
    <glyph glyph-name="m" unicode="m" horiz-adv-x="1826" 
d="M1354 1016q169 0 260.5 -106t91.5 -328v-582h-268v516q0 260 -174 260q-89 0 -147 -73t-58 -203v-500h-268v516q0 260 -177 260q-94 0 -152.5 -72.5t-58.5 -203.5v-500h-268v999h268v-133h3q58 73 135.5 111.5t163.5 38.5q208 0 296 -160h5q61 78 151 119t197 41z" />
    <glyph glyph-name="n" unicode="n" horiz-adv-x="1212" 
d="M727 1016q171 0 268 -101t97 -321v-594h-269v526q0 137 -47 193.5t-145 56.5q-104 0 -166 -71t-62 -201v-504h-268v999h268v-129h5q125 146 319 146z" />
    <glyph glyph-name="o" unicode="o" horiz-adv-x="1224" 
d="M612 -16q-236 0 -383 145t-147 371t147 371t383 145q234 0 383.5 -143.5t149.5 -372.5t-149.5 -372.5t-383.5 -143.5zM612 223q110 0 185 78.5t75 198.5q0 122 -73.5 199t-186.5 77q-116 0 -188 -78t-72 -198q0 -118 73.5 -197.5t186.5 -79.5z" />
    <glyph glyph-name="p" unicode="p" horiz-adv-x="1263" 
d="M711 1016q202 0 336.5 -146t134.5 -372q0 -230 -134.5 -372t-345.5 -142q-184 0 -294 129h-5v-519h-268v1405h268v-114h5q116 131 303 131zM653 223q114 0 185 75.5t71 197.5q0 126 -73 203t-183 77q-115 0 -187.5 -79.5t-72.5 -200.5t74.5 -197t185.5 -76z" />
    <glyph glyph-name="q" unicode="q" horiz-adv-x="1257" 
d="M860 999h268v-1405h-268v521h-2q-112 -131 -299 -131q-209 0 -343 142t-134 372q0 226 134.5 372t336.5 146q187 0 303 -131h4v114zM608 223q112 0 187 76t75 197t-72.5 200.5t-187.5 79.5q-110 0 -184 -77t-74 -203q0 -121 71.5 -197t184.5 -76z" />
    <glyph glyph-name="r" unicode="r" horiz-adv-x="768" 
d="M709 1016q16 0 20 -2v-291q-27 2 -70 2q-121 0 -188.5 -73t-67.5 -187v-465h-268v999h268v-147h3q57 79 135.5 121.5t167.5 42.5z" />
    <glyph glyph-name="s" unicode="s" horiz-adv-x="917" 
d="M459 -16q-235 0 -406 145l131 186q122 -116 277 -116q58 0 90.5 22.5t32.5 59.5q0 33 -39 55t-144 55q-54 18 -95.5 36.5t-83 46.5t-68 61t-43.5 79.5t-17 102.5q0 133 102.5 216t258.5 83q203 0 364 -125l-129 -197q-113 107 -239 107q-37 0 -68 -19.5t-31 -56.5
q0 -29 36.5 -53t115.5 -54q165 -61 221 -95q97 -60 117 -158q6 -32 6 -70q0 -139 -99.5 -225t-289.5 -86z" />
    <glyph glyph-name="t" unicode="t" horiz-adv-x="763" 
d="M446 -16q-133 0 -208.5 83.5t-75.5 247.5v463h-119v221h119v328l266 29v-357h272v-221h-272v-426q0 -127 88 -127q59 0 127 35l70 -215q-58 -31 -116 -46t-151 -15z" />
    <glyph glyph-name="u" unicode="u" horiz-adv-x="1181" 
d="M786 999h269v-999h-269v123h-4q-56 -68 -133.5 -103.5t-163.5 -35.5q-366 0 -366 413v602h266v-530q0 -135 42 -190.5t138 -55.5q93 0 157 76.5t64 214.5v485z" />
    <glyph glyph-name="v" unicode="v" horiz-adv-x="1105" 
d="M786 999h285l-391 -999h-252l-393 999h282l236 -671h2z" />
    <glyph glyph-name="w" unicode="w" horiz-adv-x="1581" 
d="M1272 999h268l-340 -999h-231l-176 616h-5l-176 -616h-229l-342 999h268l195 -608h4l174 608h215l176 -608h4z" />
    <glyph glyph-name="x" unicode="x" horiz-adv-x="1081" 
d="M745 0l-202 287h-4l-203 -287h-293l346 510l-342 489h305l187 -286h2l188 286h303l-340 -487l346 -512h-293z" />
    <glyph glyph-name="y" unicode="y" horiz-adv-x="1103" 
d="M791 999h278l-539 -1405h-274l176 467l-397 938h278l246 -618h2z" />
    <glyph glyph-name="z" unicode="z" horiz-adv-x="995" 
d="M918 819l-490 -596v-4h479v-219h-831v182l481 596v2h-446v219h807v-180z" />
    <glyph glyph-name="braceleft" unicode="{" horiz-adv-x="733" 
d="M487 817q0 -93 -25 -143.5t-85 -73.5v-4q44 -16 65 -35t33 -62t12 -122v-357q0 -73 24.5 -108t92.5 -35h45v-176h-147q-103 0 -172.5 70.5t-69.5 187.5v379q0 23 -0.5 35.5t-4 32t-9.5 30t-18.5 24t-30.5 20.5t-45 12t-62 6v198q41 1 71 8t48 20.5t29 26t15.5 34
t5.5 34.5t1 37v385q0 110 67 185t175 75h147v-178h-45q-43 0 -70.5 -23t-37 -50.5t-9.5 -57.5v-375z" />
    <glyph glyph-name="bar" unicode="|" horiz-adv-x="649" 
d="M215 -236v1745h219v-1745h-219z" />
    <glyph glyph-name="braceright" unicode="}" horiz-adv-x="733" 
d="M473 856q0 -24 1 -37t5.5 -34.5t15.5 -34t29 -26t48 -20.5t71 -8v-198q-35 -1 -62 -6t-45 -12t-30.5 -20.5t-18.5 -24t-9.5 -30t-4 -32t-0.5 -35.5v-379q0 -117 -69.5 -187.5t-172.5 -70.5h-147v176h45q68 0 92.5 35t24.5 108v357q0 79 12 122t33 62t65 35v4
q-60 23 -85 73.5t-25 143.5v375q0 30 -9.5 57.5t-37 50.5t-70.5 23h-45v178h147q108 0 175 -75t67 -185v-385z" />
    <glyph glyph-name="asciitilde" unicode="~" horiz-adv-x="1167" 
d="M291 399l-185 76q39 116 114 188t175 72q103 0 211 -53q84 -39 133 -39q44 0 80.5 26t59.5 68l184 -61q-38 -122 -113.5 -198.5t-171.5 -76.5q-41 0 -84.5 10t-65.5 19t-63 27q-92 39 -135 39q-83 0 -139 -97z" />
    <glyph glyph-name="exclamdown" unicode="&#xa1;" horiz-adv-x="575" 
d="M287 1014q68 0 117 -47.5t49 -114.5t-49 -115.5t-117 -48.5q-69 0 -117.5 48t-48.5 116q0 67 48.5 114.5t117.5 47.5zM193 520h196l49 -1030h-293z" />
    <glyph glyph-name="cent" unicode="&#xa2;" horiz-adv-x="1112" 
d="M1047 272q-117 -134 -328 -170v-194h-207v190q-191 28 -309.5 168t-118.5 344q0 202 117 340t311 170v187h207v-187q206 -38 323 -184l-180 -156q-93 107 -237 107q-121 0 -196 -76.5t-75 -198.5t76 -199t197 -77q75 0 135.5 28t99.5 72z" />
    <glyph glyph-name="sterling" unicode="&#xa3;" horiz-adv-x="1163" 
d="M90 0v256h135v389h-112v197h112v88q0 130 34.5 227t95.5 153.5t136 83.5t164 27q119 0 228 -52.5t180 -147.5l-141 -185q-47 59 -108 92t-120 33q-182 0 -182 -252v-67h313v-197h-311v-389h592v-256h-1016z" />
    <glyph glyph-name="currency" unicode="&#xa4;" horiz-adv-x="1050" 
d="M899 793q0 -109 -57 -197l162 -164l-119 -123l-166 166q-90 -55 -197 -55q-106 0 -196 55l-164 -164l-123 123l164 164q-53 86 -53 195q0 104 53 196l-164 164l123 123l164 -162q90 55 196 55q109 0 197 -57l166 166l121 -123l-164 -164q57 -93 57 -198zM524 606
q77 2 133.5 57.5t57.5 133.5q-2 78 -58.5 134t-134.5 56q-77 -2 -132.5 -57.5t-55.5 -132.5q0 -78 56 -133.5t134 -57.5z" />
    <glyph glyph-name="yen" unicode="&#xa5;" horiz-adv-x="1220" 
d="M1208 1405l-307 -555h152v-135h-228l-55 -103h283v-135h-297v-477h-291v477h-315v135h301l-56 103h-245v135h169l-307 555h332l266 -535l262 535h336z" />
    <glyph glyph-name="brokenbar" unicode="&#xa6;" horiz-adv-x="649" 
d="M215 788v721h219v-721h-219zM215 -233v720h219v-720h-219z" />
    <glyph glyph-name="section" unicode="&#xa7;" horiz-adv-x="1126" 
d="M874 289q113 -89 113 -246q0 -163 -116 -259.5t-306 -96.5q-271 0 -461 196l156 187q70 -71 149.5 -106.5t151.5 -35.5q61 0 100 30.5t39 80.5t-39 79t-147 70q-57 22 -95 37.5t-85 37.5t-77.5 42t-62 47.5t-49.5 56.5t-29.5 65.5t-11.5 78.5q0 183 152 270
q-109 88 -109 236q0 152 110 251t294 99q107 0 224.5 -45t203.5 -117l-152 -186q-138 100 -262 100q-63 0 -98 -27.5t-35 -70.5q0 -46 35 -72t137 -69q192 -80 239 -105q116 -62 154 -141q27 -56 27 -133q0 -78 -39.5 -144.5t-110.5 -109.5zM369 602q0 -54 47 -91.5
t174 -84.5q66 -26 72 -29q48 11 73 42t25 69q0 54 -44.5 87.5t-185.5 88.5l-61 25q-49 -11 -74.5 -41.5t-25.5 -65.5z" />
    <glyph glyph-name="dieresis" unicode="&#xa8;" horiz-adv-x="1071" 
d="M322 1098q-69 0 -117.5 48t-48.5 116t48.5 115.5t117.5 47.5q68 0 116.5 -48t48.5 -115t-48.5 -115.5t-116.5 -48.5zM752 1100q-69 0 -117.5 48t-48.5 114t48.5 113.5t117.5 47.5q66 0 114.5 -47.5t48.5 -113.5t-48.5 -114t-114.5 -48z" />
    <glyph glyph-name="copyright" unicode="&#xa9;" horiz-adv-x="1470" 
d="M733 0q-177 0 -326 89t-234 238.5t-85 323.5t85.5 323t235 237.5t328.5 88.5q177 0 325.5 -88.5t233 -237.5t84.5 -323q0 -129 -50.5 -249t-136 -208t-206 -141t-254.5 -53zM733 172q131 0 240.5 65t172 175t62.5 239q0 130 -61.5 239.5t-170 173.5t-239.5 64
q-132 0 -241.5 -65t-171.5 -174.5t-62 -239.5t61.5 -239.5t170 -173.5t239.5 -64zM754 313q-144 0 -241 87.5t-97 246.5q0 144 90 240t248 96q72 0 141.5 -31.5t122.5 -95.5l-113 -96q-27 33 -66.5 54.5t-84.5 21.5q-78 0 -128.5 -51t-50.5 -138q0 -83 49 -134.5t130 -51.5
q44 0 85 20.5t66 53.5l113 -97q-102 -125 -264 -125z" />
    <glyph glyph-name="ordfeminine" unicode="&#xaa;" horiz-adv-x="788" 
d="M535 1407h184v-602h-184v65h-5q-68 -77 -188 -77q-129 0 -208 86.5t-79 226.5q0 138 77.5 224.5t199.5 86.5q123 0 200 -92h3v82zM389 969q61 0 100 37.5t39 99.5q0 61 -39 99t-98 38q-62 0 -102.5 -38t-40.5 -99t39.5 -99t101.5 -38z" />
    <glyph glyph-name="guillemotleft" unicode="&#xab;" horiz-adv-x="1048" 
d="M580 80h-261l-241 426l246 432h258l-248 -432zM999 80h-260l-241 426l245 432h261l-250 -432z" />
    <glyph glyph-name="logicalnot" unicode="&#xac;" horiz-adv-x="1130" 
d="M797 299v334h-697v229h930v-563h-233z" />
    <glyph glyph-name="registered" unicode="&#xae;" horiz-adv-x="1480" 
d="M741 1309q180 0 330 -89.5t235 -240t85 -326.5q0 -131 -51 -251t-137.5 -208.5t-208.5 -141t-257 -52.5q-178 0 -327.5 88.5t-235.5 238.5t-86 326q0 175 86 325.5t236.5 240.5t330.5 90zM737 170q133 0 244 65.5t173.5 176t62.5 241.5t-62.5 242.5t-172.5 176.5t-241 65
q-202 0 -340.5 -142.5t-138.5 -343.5q0 -200 137.5 -340.5t337.5 -140.5zM997 764q0 -149 -125 -199l156 -237h-174l-137 217h-62v-217h-149v661h258q117 0 175 -61.5t58 -163.5zM655 854v-176h74q53 0 82 23.5t29 64.5q0 38 -28.5 63t-80.5 25h-76z" />
    <glyph glyph-name="macron" unicode="&#xaf;" horiz-adv-x="907" 
d="M143 1151v215h623v-215h-623z" />
    <glyph glyph-name="degree" unicode="&#xb0;" horiz-adv-x="792" 
d="M395 901q-119 0 -205 83.5t-86 201.5q0 116 88 201.5t203 85.5q118 0 204.5 -85.5t86.5 -203.5q0 -117 -85.5 -200t-205.5 -83zM395 1063q54 0 88.5 35t34.5 88q0 51 -36 88t-87 37q-50 0 -86.5 -37t-36.5 -88q0 -52 36 -87.5t87 -35.5z" />
    <glyph glyph-name="plusminus" unicode="&#xb1;" horiz-adv-x="1239" 
d="M485 362v367h-366v234h366v368h238v-368h367v-234h-367v-367h-238zM147 -6v233h971v-233h-971z" />
    <glyph glyph-name="uni00B2" unicode="&#xb2;" horiz-adv-x="698" 
d="M350 1083h293v-190h-594l-2 139l264 264q60 60 85.5 97.5t25.5 74.5q0 39 -26 62.5t-68 23.5q-33 0 -69.5 -18.5t-63.5 -56.5l-154 110q41 70 121 115t184 45q121 0 206 -69.5t85 -186.5q0 -77 -30.5 -139t-119.5 -142l-137 -125v-4z" />
    <glyph glyph-name="uni00B3" unicode="&#xb3;" horiz-adv-x="712" 
d="M532 1327q132 -63 132 -203q0 -113 -85 -179t-223 -66q-118 0 -206 56t-121 142l188 76q15 -46 45 -68t80 -22q47 0 75.5 25t28.5 65q0 42 -32 67t-90 25h-58v156h72q44 0 71 22t27 56q0 38 -25.5 62t-68.5 24q-79 0 -104 -72l-175 92q28 73 105 118.5t174 45.5
q128 0 211.5 -61t83.5 -170q0 -124 -105 -189v-2z" />
    <glyph glyph-name="acute" unicode="&#xb4;" horiz-adv-x="1021" 
d="M291 1096l231 301l281 2l-254 -303h-258z" />
    <glyph glyph-name="uni00B5" unicode="&#xb5;" horiz-adv-x="1191" 
d="M799 999h268v-999h-248l-14 125h-4q-110 -141 -273 -141q-96 0 -149 47l-2 -2q18 -108 18 -228v-207h-266v1405h266v-512q0 -264 193 -264q92 0 151.5 73.5t59.5 203.5v499z" />
    <glyph glyph-name="paragraph" unicode="&#xb6;" horiz-adv-x="1101" 
d="M776 -311v1513h-129v-1202h-164v610q-185 14 -296 112.5t-111 266.5q0 175 119 280t327 105h412v-1685h-158z" />
    <glyph glyph-name="periodcentered" unicode="&#xb7;" horiz-adv-x="565" 
d="M287 336q-69 0 -117.5 47.5t-48.5 114.5q0 68 48.5 116t117.5 48q68 0 117 -48.5t49 -115.5t-49 -114.5t-117 -47.5z" />
    <glyph glyph-name="cedilla" unicode="&#xb8;" horiz-adv-x="757" 
d="M377 -63q92 -3 141 -45.5t49 -120.5q0 -73 -62.5 -117.5t-189.5 -44.5q-63 0 -125 12v121q38 -14 107 -14q39 0 67.5 13.5t28.5 43.5q0 29 -43.5 47t-124.5 18v76l43 86h148l-41 -73z" />
    <glyph glyph-name="uni00B9" unicode="&#xb9;" horiz-adv-x="581" 
d="M260 893v584l-129 -91l-102 162l278 189h162v-844h-209z" />
    <glyph glyph-name="ordmasculine" unicode="&#xba;" horiz-adv-x="786" 
d="M383 793q-144 0 -236 88t-92 225t91.5 224t236.5 87q143 0 236.5 -87t93.5 -224t-93.5 -225t-236.5 -88zM383 967q56 0 94.5 39t38.5 100q0 63 -37 101t-96 38q-58 0 -94.5 -38.5t-36.5 -100.5q0 -60 36.5 -99.5t94.5 -39.5z" />
    <glyph glyph-name="guillemotright" unicode="&#xbb;" horiz-adv-x="1046" 
d="M49 80l246 426l-250 432h260l246 -432l-242 -426h-260zM469 80l246 426l-248 432h258l246 -432l-242 -426h-260z" />
    <glyph glyph-name="onequarter" unicode="&#xbc;" horiz-adv-x="1673" 
d="M614 -47l-202 86l645 1446l200 -86zM260 612v584l-129 -90l-102 162l278 188h162v-844h-209zM1313 0v129h-344v127l389 588h164v-537h110v-178h-110v-129h-209zM1174 295h155v242z" />
    <glyph glyph-name="onehalf" unicode="&#xbd;" horiz-adv-x="1742" 
d="M1057 1485l200 -86l-643 -1446l-202 86zM469 612h-209v584l-129 -90l-102 162l278 188h162v-844zM1395 190h293v-190h-594l-2 139l264 264q60 60 85 97t25 75q0 39 -26 63t-68 24q-33 0 -69.5 -19t-63.5 -57l-154 110q41 70 121.5 115t184.5 45q121 0 205.5 -69.5
t84.5 -186.5q0 -78 -30 -139.5t-119 -141.5l-137 -124v-5z" />
    <glyph glyph-name="threequarters" unicode="&#xbe;" horiz-adv-x="1759" 
d="M1141 1485l200 -86l-643 -1446l-202 86zM664 844q0 -113 -85 -179.5t-223 -66.5q-118 0 -205.5 56t-121.5 143l188 75q15 -46 45 -68t80 -22q47 0 75.5 25t28.5 65q0 42 -32.5 67.5t-89.5 25.5h-58v155h72q44 0 71 22t27 56q0 38 -25.5 62t-68.5 24q-79 0 -104 -72
l-175 93q28 72 104.5 117.5t174.5 45.5q128 0 211.5 -61t83.5 -170q0 -123 -105 -188v-2q132 -63 132 -203zM1608 307h110v-178h-110v-129h-209v129h-344v127l389 588h164v-537zM1415 295v242l-155 -242h155z" />
    <glyph glyph-name="questiondown" unicode="&#xbf;" horiz-adv-x="925" 
d="M545 1016q69 0 117.5 -47.5t48.5 -114.5q0 -68 -48.5 -116t-117.5 -48q-68 0 -117 48.5t-49 115.5t49 114.5t117 47.5zM668 526l2 -102q0 -31 -8 -62.5t-16.5 -51.5t-32.5 -52.5t-33.5 -43.5t-43.5 -48t-40 -43q-63 -64 -97 -118t-34 -116q0 -75 44.5 -117t118.5 -42
q59 0 114 29t93 81l191 -178q-70 -87 -181.5 -137.5t-238.5 -50.5q-87 0 -164 25t-137.5 73.5t-95.5 126t-35 174.5q0 108 48 190t132 164q11 10 40.5 36.5t41 37.5t32 33t29.5 36t17.5 33t9.5 37l6 86h238z" />
    <glyph glyph-name="Agrave" unicode="&#xc0;" horiz-adv-x="1429" 
d="M834 1606h-261l-251 303l280 -2zM1096 0l-99 291h-559l-98 -291h-301l539 1454h276l543 -1454h-301zM522 537h391l-194 571h-4z" />
    <glyph glyph-name="Aacute" unicode="&#xc1;" horiz-adv-x="1429" 
d="M1112 1909l-254 -303h-258l231 301zM1096 0l-99 291h-559l-98 -291h-301l539 1454h276l543 -1454h-301zM522 537h391l-194 571h-4z" />
    <glyph glyph-name="Acircumflex" unicode="&#xc2;" horiz-adv-x="1429" 
d="M713 1755l-103 -153h-245l227 307h237l240 -307h-248l-104 153h-4zM1096 0l-99 291h-559l-98 -291h-301l539 1454h276l543 -1454h-301zM522 537h391l-194 571h-4z" />
    <glyph glyph-name="Atilde" unicode="&#xc3;" horiz-adv-x="1429" 
d="M594 1702q-71 0 -115 -103l-160 70q32 108 95.5 173t150.5 65q15 0 30 -1.5t26 -3.5t25.5 -6.5t21 -6.5t21 -9.5t17.5 -9t18.5 -10t16.5 -9.5q27 -17 38 -23t32.5 -14t40.5 -8q72 0 117 101l155 -54q-32 -118 -93.5 -187t-145.5 -69t-178 62q-73 43 -113 43zM1096 0
l-99 291h-559l-98 -291h-301l539 1454h276l543 -1454h-301zM522 537h391l-194 571h-4z" />
    <glyph glyph-name="Adieresis" unicode="&#xc4;" horiz-adv-x="1429" 
d="M500 1608q-69 0 -117.5 48t-48.5 116t48.5 115.5t117.5 47.5q68 0 117 -48t49 -115t-49 -115.5t-117 -48.5zM930 1610q-69 0 -117.5 48t-48.5 114t48.5 113.5t117.5 47.5q66 0 115 -47.5t49 -113.5t-49 -114t-115 -48zM1096 0l-99 291h-559l-98 -291h-301l539 1454h276
l543 -1454h-301zM522 537h391l-194 571h-4z" />
    <glyph glyph-name="Aring" unicode="&#xc5;" horiz-adv-x="1429" 
d="M715 1559q-91 0 -155 61t-64 152q0 89 62.5 152t156.5 63q95 0 159 -61t64 -154q0 -90 -62.5 -151.5t-160.5 -61.5zM715 1851q-32 0 -54 -23t-22 -54q0 -32 22 -54t54 -22t55 23t23 55q0 31 -23 53t-55 22zM1096 0l-99 291h-559l-98 -291h-301l539 1454h276l543 -1454
h-301zM522 537h391l-194 571h-4z" />
    <glyph glyph-name="AE" unicode="&#xc6;" horiz-adv-x="1957" 
d="M1171 256h691v-256h-973v291h-430l-144 -291h-303l729 1454h1080v-258h-650v-346h529v-254h-529v-340zM580 537h309v614h-4z" />
    <glyph glyph-name="Ccedilla" unicode="&#xc7;" horiz-adv-x="1486" 
d="M842 258q109 0 204.5 50t163.5 134l211 -182q-99 -122 -242 -196.5t-321 -77.5l-27 -47l3 -2q92 -3 141 -45.5t49 -120.5q0 -73 -62.5 -117.5t-189.5 -44.5q-63 0 -125 12v121q38 -14 107 -14q39 0 67.5 13.5t28.5 43.5q0 29 -43.5 47t-124.5 18v76l31 62v8
q-129 19 -239.5 75.5t-194.5 146t-131.5 219.5t-47.5 286q0 157 50 293t142.5 238t234 160.5t315.5 58.5q159 0 311.5 -69.5t267.5 -209.5l-211 -180q-70 82 -165.5 133t-202.5 51q-192 0 -316.5 -130t-124.5 -345q0 -203 123.5 -334t317.5 -131z" />
    <glyph glyph-name="Egrave" unicode="&#xc8;" horiz-adv-x="1228" 
d="M604 1604l-252 303l281 -2l231 -301h-260zM160 0v1454h930v-258h-648v-348h519v-254h-519v-338h691v-256h-973z" />
    <glyph glyph-name="Eacute" unicode="&#xc9;" horiz-adv-x="1228" 
d="M420 1604l231 301l281 2l-254 -303h-258zM160 0v1454h930v-258h-648v-348h519v-254h-519v-338h691v-256h-973z" />
    <glyph glyph-name="Ecircumflex" unicode="&#xca;" horiz-adv-x="1228" 
d="M633 1753l-103 -154h-245l227 308h238l239 -308h-248l-104 154h-4zM442 256h691v-256h-973v1454h930v-258h-648v-348h519v-254h-519v-338z" />
    <glyph glyph-name="Edieresis" unicode="&#xcb;" horiz-adv-x="1228" 
d="M420 1606q-69 0 -117.5 47.5t-48.5 115.5t48.5 116t117.5 48q68 0 117 -48.5t49 -115.5t-49 -115t-117 -48zM850 1608q-69 0 -117.5 47.5t-48.5 113.5t48.5 114t117.5 48q66 0 115 -48t49 -114t-49 -113.5t-115 -47.5zM160 0v1454h930v-258h-648v-348h519v-254h-519v-338
h691v-256h-973z" />
    <glyph glyph-name="Igrave" unicode="&#xcc;" horiz-adv-x="628" 
d="M186 1604l-252 303l281 -2l231 -301h-260zM170 0v1454h289v-1454h-289z" />
    <glyph glyph-name="Iacute" unicode="&#xcd;" horiz-adv-x="628" 
d="M195 1604l231 301l281 2l-254 -303h-258zM170 0v1454h289v-1454h-289z" />
    <glyph glyph-name="Icircumflex" unicode="&#xce;" horiz-adv-x="628" 
d="M307 1753l-102 -154h-246l227 308h238l240 -308h-248l-105 154h-4zM170 0v1454h289v-1454h-289z" />
    <glyph glyph-name="Idieresis" unicode="&#xcf;" horiz-adv-x="628" 
d="M94 1606q-69 0 -117.5 47.5t-48.5 115.5t48.5 116t117.5 48q68 0 117 -48.5t49 -115.5t-49 -115t-117 -48zM524 1608q-69 0 -117.5 47.5t-48.5 113.5t48.5 114t117.5 48q66 0 115 -48t49 -114t-49 -113.5t-115 -47.5zM170 0v1454h289v-1454h-289z" />
    <glyph glyph-name="Eth" unicode="&#xd0;" horiz-adv-x="1495" 
d="M641 1454q170 0 312 -53.5t239.5 -149.5t151 -231t53.5 -295t-52 -294t-147.5 -229.5t-237 -148.5t-313.5 -53h-487v600h-109v240h109v614h481zM629 256q209 0 339 133t130 336q0 204 -127.5 337.5t-323.5 133.5h-203v-356h228v-240h-228v-344h185z" />
    <glyph glyph-name="Ntilde" unicode="&#xd1;" horiz-adv-x="1546" 
d="M653 1702q-70 0 -114 -103l-160 70q32 108 95.5 173t150.5 65q15 0 30 -1.5t26 -3.5t25.5 -6.5t21 -6.5t21 -9.5t17.5 -9t18.5 -10t16.5 -9.5q3 -2 8 -5q64 -40 102 -40q72 0 117 101l156 -54q-32 -118 -94 -187t-146 -69t-178 62q-73 43 -113 43zM1098 1454h288v-1454
h-294l-641 965h-5v-965h-286v1454h286l650 -983h2v983z" />
    <glyph glyph-name="Ograve" unicode="&#xd2;" horiz-adv-x="1681" 
d="M727 1606l-252 303l281 -2l231 -301h-260zM842 -16q-162 0 -301 56t-235.5 154t-151 235.5t-54.5 297.5q0 214 93 384t262.5 266t386.5 96q159 0 296 -54.5t234.5 -151.5t153 -236.5t55.5 -303.5q0 -218 -95 -388t-263.5 -262.5t-380.5 -92.5zM844 252q188 0 313 135.5
t125 339.5q0 205 -125 340t-313 135q-194 0 -319.5 -137t-125.5 -338t125.5 -338t319.5 -137z" />
    <glyph glyph-name="Oacute" unicode="&#xd3;" horiz-adv-x="1681" 
d="M723 1606l231 301l281 2l-254 -303h-258zM842 -16q-162 0 -301 56t-235.5 154t-151 235.5t-54.5 297.5q0 214 93 384t262.5 266t386.5 96q159 0 296 -54.5t234.5 -151.5t153 -236.5t55.5 -303.5q0 -218 -95 -388t-263.5 -262.5t-380.5 -92.5zM844 252q188 0 313 135.5
t125 339.5q0 205 -125 340t-313 135q-194 0 -319.5 -137t-125.5 -338t125.5 -338t319.5 -137z" />
    <glyph glyph-name="Ocircumflex" unicode="&#xd4;" horiz-adv-x="1681" 
d="M840 1755l-103 -153h-245l227 307h237l240 -307h-248l-104 153h-4zM842 1473q159 0 296 -54.5t234.5 -151.5t153 -236.5t55.5 -303.5q0 -218 -95 -388t-263.5 -262.5t-380.5 -92.5q-162 0 -301 56t-235.5 154t-151 235.5t-54.5 297.5q0 214 93 384t262.5 266t386.5 96z
M844 252q188 0 313 135.5t125 339.5q0 205 -125 340t-313 135q-194 0 -319.5 -137t-125.5 -338t125.5 -338t319.5 -137z" />
    <glyph glyph-name="Otilde" unicode="&#xd5;" horiz-adv-x="1681" 
d="M1012 1597q-84 0 -178 62q-73 43 -113 43q-71 0 -115 -103l-160 70q32 108 95.5 173t150.5 65q15 0 30 -1.5t26 -3.5t25.5 -6.5t21 -6.5t21 -9.5t17.5 -9t18.5 -10t16.5 -9.5q27 -17 38 -23t32.5 -14t40.5 -8q72 0 117 101l155 -54q-32 -118 -93.5 -187t-145.5 -69z
M842 -16q-162 0 -301 56t-235.5 154t-151 235.5t-54.5 297.5q0 214 93 384t262.5 266t386.5 96q159 0 296 -54.5t234.5 -151.5t153 -236.5t55.5 -303.5q0 -218 -95 -388t-263.5 -262.5t-380.5 -92.5zM844 252q188 0 313 135.5t125 339.5q0 205 -125 340t-313 135
q-194 0 -319.5 -137t-125.5 -338t125.5 -338t319.5 -137z" />
    <glyph glyph-name="Odieresis" unicode="&#xd6;" horiz-adv-x="1681" 
d="M627 1608q-69 0 -117.5 48t-48.5 116t48.5 115.5t117.5 47.5q68 0 117 -48t49 -115t-49 -115.5t-117 -48.5zM1057 1610q-69 0 -117.5 48t-48.5 114t48.5 113.5t117.5 47.5q66 0 115 -47.5t49 -113.5t-49 -114t-115 -48zM842 -16q-162 0 -301 56t-235.5 154t-151 235.5
t-54.5 297.5q0 214 93 384t262.5 266t386.5 96q159 0 296 -54.5t234.5 -151.5t153 -236.5t55.5 -303.5q0 -218 -95 -388t-263.5 -262.5t-380.5 -92.5zM844 252q188 0 313 135.5t125 339.5q0 205 -125 340t-313 135q-194 0 -319.5 -137t-125.5 -338t125.5 -338t319.5 -137z
" />
    <glyph glyph-name="multiply" unicode="&#xd7;" horiz-adv-x="1079" 
d="M260 125l-164 164l281 280l-281 279l164 164l279 -281l280 283l164 -166l-281 -283l281 -278l-164 -162l-278 278z" />
    <glyph glyph-name="Oslash" unicode="&#xd8;" horiz-adv-x="1681" 
d="M1593 1386l-166 -182q154 -201 154 -477q0 -218 -95 -388t-263.5 -262.5t-380.5 -92.5q-243 0 -426 120l-160 -176l-137 129l155 170q-174 202 -174 500q0 214 93 384t262.5 266t386.5 96q262 0 450 -140l164 178zM399 727q0 -156 80 -278l619 671q-111 82 -254 82
q-194 0 -319.5 -137t-125.5 -338zM1282 727q0 139 -61 252l-609 -662q100 -65 232 -65q188 0 313 135.5t125 339.5z" />
    <glyph glyph-name="Ugrave" unicode="&#xd9;" horiz-adv-x="1460" 
d="M637 1606l-252 303l281 -2l231 -301h-260zM727 -16q-266 0 -426 163t-160 455v852h289v-833q0 -161 79 -264t218 -103q135 0 219 98.5t84 268.5v833h289v-852q0 -287 -156.5 -452.5t-435.5 -165.5z" />
    <glyph glyph-name="Uacute" unicode="&#xda;" horiz-adv-x="1460" 
d="M567 1606l232 301l280 2l-254 -303h-258zM727 -16q-266 0 -426 163t-160 455v852h289v-833q0 -161 79 -264t218 -103q135 0 219 98.5t84 268.5v833h289v-852q0 -287 -156.5 -452.5t-435.5 -165.5z" />
    <glyph glyph-name="Ucircumflex" unicode="&#xdb;" horiz-adv-x="1460" 
d="M725 1755l-102 -153h-246l227 307h238l239 -307h-247l-105 153h-4zM1030 1454h289v-852q0 -287 -156.5 -452.5t-435.5 -165.5q-266 0 -426 163t-160 455v852h289v-833q0 -161 79 -264t218 -103q135 0 219 98.5t84 268.5v833z" />
    <glyph glyph-name="Udieresis" unicode="&#xdc;" horiz-adv-x="1460" 
d="M512 1608q-69 0 -117.5 48t-48.5 116t48.5 115.5t117.5 47.5q68 0 117 -48t49 -115t-49 -115.5t-117 -48.5zM942 1610q-69 0 -117.5 48t-48.5 114t48.5 113.5t117.5 47.5q66 0 115 -47.5t49 -113.5t-49 -114t-115 -48zM727 -16q-266 0 -426 163t-160 455v852h289v-833
q0 -161 79 -264t218 -103q135 0 219 98.5t84 268.5v833h289v-852q0 -287 -156.5 -452.5t-435.5 -165.5z" />
    <glyph glyph-name="Yacute" unicode="&#xdd;" horiz-adv-x="1294" 
d="M1010 1909l-254 -303h-258l231 301zM942 1454h334l-485 -815v-639h-291v639l-482 815h330l297 -530h4z" />
    <glyph glyph-name="Thorn" unicode="&#xde;" horiz-adv-x="1323" 
d="M160 0v1454h284v-258h297q253 0 378.5 -131.5t125.5 -351.5q0 -229 -143 -348t-389 -119h-269v-246h-284zM444 500h232q131 0 200.5 59.5t69.5 159.5q0 103 -67 162t-191 59h-244v-440z" />
    <glyph glyph-name="germandbls" unicode="&#xdf;" horiz-adv-x="1306" 
d="M993 864q114 -55 179 -165t65 -244q0 -216 -125.5 -343.5t-333.5 -127.5h-196v237h131q109 0 180.5 69t71.5 175t-75.5 180t-199.5 74h-82v215h70q61 1 105 20t65 49.5t30 59t9 57.5q0 70 -57.5 119t-161.5 49q-128 0 -195 -66t-67 -216v-1006h-269v993q0 266 135 399.5
t387 133.5q119 0 214 -30.5t155 -83t91.5 -120.5t31.5 -145q0 -80 -36.5 -155t-121.5 -126v-2z" />
    <glyph glyph-name="agrave" unicode="&#xe0;" horiz-adv-x="1243" 
d="M795 1139h-260l-252 303l280 -2zM850 999h266v-999h-254v121h-6q-106 -137 -299 -137q-209 0 -343 142t-134 372q0 226 134.5 372t336.5 146q185 0 293 -129h6v112zM606 223q107 0 180.5 76.5t73.5 196.5t-71.5 200t-180.5 80q-110 0 -184 -77t-74 -203q0 -121 71.5 -197
t184.5 -76z" />
    <glyph glyph-name="aacute" unicode="&#xe1;" horiz-adv-x="1243" 
d="M969 1442l-254 -303h-258l231 301zM850 999h266v-999h-254v121h-6q-106 -137 -299 -137q-209 0 -343 142t-134 372q0 226 134.5 372t336.5 146q185 0 293 -129h6v112zM606 223q107 0 180.5 76.5t73.5 196.5t-71.5 200t-180.5 80q-110 0 -184 -77t-74 -203
q0 -121 71.5 -197t184.5 -76z" />
    <glyph glyph-name="acircumflex" unicode="&#xe2;" horiz-adv-x="1243" 
d="M614 1288l-102 -153h-246l228 307h237l240 -307h-248l-105 153h-4zM850 999h266v-999h-254v121h-6q-106 -137 -299 -137q-209 0 -343 142t-134 372q0 226 134.5 372t336.5 146q185 0 293 -129h6v112zM606 223q107 0 180.5 76.5t73.5 196.5t-71.5 200t-180.5 80
q-110 0 -184 -77t-74 -203q0 -121 71.5 -197t184.5 -76z" />
    <glyph glyph-name="atilde" unicode="&#xe3;" horiz-adv-x="1243" 
d="M496 1235q-71 0 -115 -102l-160 69q32 108 95.5 173t150.5 65q15 0 30 -1.5t26 -3.5t25.5 -6.5t21 -6.5t21 -9.5t17.5 -9t18.5 -10t16.5 -9.5q27 -17 38 -23t32.5 -14t40.5 -8q71 0 116 101l156 -54q-32 -118 -94 -187t-146 -69t-178 62q-73 43 -112 43zM850 999h266
v-999h-254v121h-6q-106 -137 -299 -137q-209 0 -343 142t-134 372q0 226 134.5 372t336.5 146q185 0 293 -129h6v112zM606 223q107 0 180.5 76.5t73.5 196.5t-71.5 200t-180.5 80q-110 0 -184 -77t-74 -203q0 -121 71.5 -197t184.5 -76z" />
    <glyph glyph-name="adieresis" unicode="&#xe4;" horiz-adv-x="1243" 
d="M401 1141q-69 0 -117 48t-48 116t48 115.5t117 47.5q68 0 117 -48t49 -115t-49 -115.5t-117 -48.5zM831 1143q-69 0 -117 48t-48 114t48 113.5t117 47.5q66 0 115 -47.5t49 -113.5t-49 -114t-115 -48zM850 999h266v-999h-254v121h-6q-106 -137 -299 -137q-209 0 -343 142
t-134 372q0 226 134.5 372t336.5 146q185 0 293 -129h6v112zM606 223q107 0 180.5 76.5t73.5 196.5t-71.5 200t-180.5 80q-110 0 -184 -77t-74 -203q0 -121 71.5 -197t184.5 -76z" />
    <glyph glyph-name="aring" unicode="&#xe5;" horiz-adv-x="1243" 
d="M616 1092q-91 0 -155 61t-64 152q0 89 62.5 152t156.5 63q95 0 159.5 -61t64.5 -154q0 -89 -63 -151t-161 -62zM616 1384q-32 0 -53.5 -23t-21.5 -54q0 -32 21.5 -54t53.5 -22t55 23t23 55q0 31 -23 53t-55 22zM850 999h266v-999h-254v121h-6q-106 -137 -299 -137
q-209 0 -343 142t-134 372q0 226 134.5 372t336.5 146q185 0 293 -129h6v112zM606 223q107 0 180.5 76.5t73.5 196.5t-71.5 200t-180.5 80q-110 0 -184 -77t-74 -203q0 -121 71.5 -197t184.5 -76z" />
    <glyph glyph-name="ae" unicode="&#xe6;" horiz-adv-x="1624" 
d="M1569 510q0 -80 -8 -96l-656 -2q24 -88 86.5 -139.5t153.5 -51.5q110 0 198 107l187 -156q-67 -86 -171.5 -137t-230.5 -51q-206 0 -335 145h-7q-55 -63 -147 -104t-207 -41q-184 0 -277.5 84.5t-93.5 222.5q0 148 101 231t301 84h178v15q0 94 -35.5 132t-109.5 38
q-130 0 -256 -66l-109 199q57 31 162.5 61.5t218.5 30.5q213 0 293 -135h6q119 135 315 135q193 0 318 -143t125 -363zM1114 780q-76 0 -131 -45t-76 -129h398q-21 80 -71.5 127t-119.5 47zM461 195q75 0 127.5 48.5t52.5 98.5v78l-149 -2q-81 0 -124.5 -28t-43.5 -83
q0 -49 36 -80.5t101 -31.5z" />
    <glyph glyph-name="ccedilla" unicode="&#xe7;" horiz-adv-x="1087" 
d="M629 -16l-27 -45l2 -2q92 -3 141.5 -45.5t49.5 -120.5q0 -73 -62.5 -117.5t-189.5 -44.5q-63 0 -125 12v121q38 -14 106 -14q39 0 68 13.5t29 43.5q0 29 -43.5 47t-124.5 18v76l32 66v2q-182 34 -292.5 170.5t-110.5 335.5q0 230 147 373t379 143q124 0 237.5 -49
t186.5 -142l-180 -155q-92 106 -234 106q-120 0 -193 -76t-73 -198q0 -123 75 -201t194 -78q74 0 133.5 29t99.5 74l182 -162q-66 -75 -171 -124.5t-236 -55.5z" />
    <glyph glyph-name="egrave" unicode="&#xe8;" horiz-adv-x="1146" 
d="M772 1139h-260l-252 303l281 -2zM1067 510q0 -80 -6 -96h-703q25 -90 92.5 -141.5t163.5 -51.5q146 -3 240 113l174 -162q-68 -86 -178 -137t-254 -51q-146 0 -262.5 63.5t-184 182.5t-67.5 272q0 226 140.5 370t355.5 144q218 0 353.5 -142t135.5 -364zM586 780
q-83 0 -143 -44.5t-83 -129.5h441q-21 81 -75.5 127.5t-139.5 46.5z" />
    <glyph glyph-name="eacute" unicode="&#xe9;" horiz-adv-x="1146" 
d="M967 1442l-254 -303h-258l231 301zM1067 510q0 -80 -6 -96h-703q25 -90 92.5 -141.5t163.5 -51.5q146 -3 240 113l174 -162q-68 -86 -178 -137t-254 -51q-146 0 -262.5 63.5t-184 182.5t-67.5 272q0 226 140.5 370t355.5 144q218 0 353.5 -142t135.5 -364zM586 780
q-83 0 -143 -44.5t-83 -129.5h441q-21 81 -75.5 127.5t-139.5 46.5z" />
    <glyph glyph-name="ecircumflex" unicode="&#xea;" horiz-adv-x="1146" 
d="M588 1288l-103 -153h-245l227 307h238l239 -307h-248l-104 153h-4zM1067 510q0 -80 -6 -96h-703q25 -90 92.5 -141.5t163.5 -51.5q146 -3 240 113l174 -162q-68 -86 -178 -137t-254 -51q-146 0 -262.5 63.5t-184 182.5t-67.5 272q0 226 140.5 370t355.5 144
q218 0 353.5 -142t135.5 -364zM586 780q-83 0 -143 -44.5t-83 -129.5h441q-21 81 -75.5 127.5t-139.5 46.5z" />
    <glyph glyph-name="edieresis" unicode="&#xeb;" horiz-adv-x="1146" 
d="M375 1141q-69 0 -117.5 48t-48.5 116t48.5 115.5t117.5 47.5q68 0 117 -48t49 -115t-49 -115.5t-117 -48.5zM805 1143q-69 0 -117.5 48t-48.5 114t48.5 113.5t117.5 47.5q66 0 115 -47.5t49 -113.5t-49 -114t-115 -48zM1067 510q0 -80 -6 -96h-703q25 -90 92.5 -141.5
t163.5 -51.5q146 -3 240 113l174 -162q-68 -86 -178 -137t-254 -51q-146 0 -262.5 63.5t-184 182.5t-67.5 272q0 226 140.5 370t355.5 144q218 0 353.5 -142t135.5 -364zM586 780q-83 0 -143 -44.5t-83 -129.5h441q-21 81 -75.5 127.5t-139.5 46.5z" />
    <glyph glyph-name="igrave" unicode="&#xec;" horiz-adv-x="563" 
d="M152 1139l-177 303l281 -2l154 -301h-258zM147 0v999h269v-999h-269z" />
    <glyph glyph-name="iacute" unicode="&#xed;" horiz-adv-x="563" 
d="M162 1139l231 301l281 2l-254 -303h-258zM147 0v999h269v-999h-269z" />
    <glyph glyph-name="icircumflex" unicode="&#xee;" horiz-adv-x="563" 
d="M279 1288l-103 -153h-246l228 307h237l240 -307h-248l-104 153h-4zM147 0v999h269v-999h-269z" />
    <glyph glyph-name="idieresis" unicode="&#xef;" horiz-adv-x="563" 
d="M92 1141q-66 0 -114 48.5t-48 115.5t48 115t114 48q68 0 117 -48t49 -115t-49 -115.5t-117 -48.5zM469 1143q-68 0 -117 48t-49 114t49 113.5t117 47.5q63 0 110.5 -47.5t47.5 -113.5t-47.5 -114t-110.5 -48zM147 0v999h269v-999h-269z" />
    <glyph glyph-name="eth" unicode="&#xf0;" horiz-adv-x="1212" 
d="M1130 522v-4q0 -237 -148.5 -385.5t-383.5 -148.5q-219 0 -367.5 138.5t-148.5 346.5q0 220 136.5 353.5t340.5 133.5q100 0 205 -43v2q-79 140 -215 248l-135 -104l-115 131l94 74q-82 40 -155 65l116 189q121 -40 232 -103l141 113l115 -139l-99 -76
q184 -145 285.5 -346.5t101.5 -444.5zM604 223q110 0 181 75t71 189q0 108 -71 179t-183 71q-105 0 -176.5 -73t-71.5 -177q0 -114 71.5 -189t178.5 -75z" />
    <glyph glyph-name="ntilde" unicode="&#xf1;" horiz-adv-x="1212" 
d="M492 1235q-71 0 -115 -102l-160 69q32 108 95.5 173t150.5 65q15 0 30 -1.5t26 -3.5t25.5 -6.5t21 -6.5t21 -9.5t17.5 -9t18.5 -10t16.5 -9.5q27 -17 38 -23t32.5 -14t40.5 -8q71 0 116 101l156 -54q-32 -118 -94 -187t-146 -69t-178 62q-73 43 -112 43zM727 1016
q171 0 268 -101t97 -321v-594h-269v526q0 137 -47 193.5t-145 56.5q-104 0 -166 -71t-62 -201v-504h-268v999h268v-129h5q125 146 319 146z" />
    <glyph glyph-name="ograve" unicode="&#xf2;" horiz-adv-x="1224" 
d="M514 1139l-252 303l281 -2l231 -301h-260zM612 -16q-236 0 -383 145t-147 371t147 371t383 145q234 0 383.5 -143.5t149.5 -372.5t-149.5 -372.5t-383.5 -143.5zM612 223q110 0 185 78.5t75 198.5q0 122 -73.5 199t-186.5 77q-116 0 -188 -78t-72 -198
q0 -118 73.5 -197.5t186.5 -79.5z" />
    <glyph glyph-name="oacute" unicode="&#xf3;" horiz-adv-x="1224" 
d="M481 1139l232 301l280 2l-254 -303h-258zM612 -16q-236 0 -383 145t-147 371t147 371t383 145q234 0 383.5 -143.5t149.5 -372.5t-149.5 -372.5t-383.5 -143.5zM612 223q110 0 185 78.5t75 198.5q0 122 -73.5 199t-186.5 77q-116 0 -188 -78t-72 -198q0 -118 73.5 -197.5
t186.5 -79.5z" />
    <glyph glyph-name="ocircumflex" unicode="&#xf4;" horiz-adv-x="1224" 
d="M610 1288l-102 -153h-246l227 307h238l240 -307h-248l-105 153h-4zM612 1016q234 0 383.5 -143.5t149.5 -372.5t-149.5 -372.5t-383.5 -143.5q-236 0 -383 145t-147 371t147 371t383 145zM612 223q110 0 185 78.5t75 198.5q0 122 -73.5 199t-186.5 77q-116 0 -188 -78
t-72 -198q0 -118 73.5 -197.5t186.5 -79.5z" />
    <glyph glyph-name="otilde" unicode="&#xf5;" horiz-adv-x="1224" 
d="M782 1130q-84 0 -178 62q-73 43 -112 43q-71 0 -115 -102l-160 69q32 108 95.5 173t150.5 65q15 0 30 -1.5t26 -3.5t25.5 -6.5t21 -6.5t21 -9.5t17.5 -9t18.5 -10t16.5 -9.5q27 -17 38 -23t32.5 -14t40.5 -8q71 0 116 101l156 -54q-32 -118 -94 -187t-146 -69zM612 -16
q-236 0 -383 145t-147 371t147 371t383 145q234 0 383.5 -143.5t149.5 -372.5t-149.5 -372.5t-383.5 -143.5zM612 223q110 0 185 78.5t75 198.5q0 122 -73.5 199t-186.5 77q-116 0 -188 -78t-72 -198q0 -118 73.5 -197.5t186.5 -79.5z" />
    <glyph glyph-name="odieresis" unicode="&#xf6;" horiz-adv-x="1224" 
d="M397 1141q-69 0 -117.5 48t-48.5 116t48.5 115.5t117.5 47.5q68 0 117 -48t49 -115t-49 -115.5t-117 -48.5zM827 1143q-69 0 -117 48t-48 114t48 113.5t117 47.5q66 0 115 -47.5t49 -113.5t-49 -114t-115 -48zM612 -16q-236 0 -383 145t-147 371t147 371t383 145
q234 0 383.5 -143.5t149.5 -372.5t-149.5 -372.5t-383.5 -143.5zM612 223q110 0 185 78.5t75 198.5q0 122 -73.5 199t-186.5 77q-116 0 -188 -78t-72 -198q0 -118 73.5 -197.5t186.5 -79.5z" />
    <glyph glyph-name="divide" unicode="&#xf7;" horiz-adv-x="1169" 
d="M586 809q-65 0 -112.5 47t-47.5 113q0 65 47.5 111t112.5 46q68 0 116 -45.5t48 -111.5t-48 -113t-116 -47zM111 451v233h970v-233h-970zM586 -8q-65 0 -112.5 47t-47.5 113q0 65 47.5 111t112.5 46q68 0 116 -45.5t48 -111.5t-48 -113t-116 -47z" />
    <glyph glyph-name="oslash" unicode="&#xf8;" horiz-adv-x="1224" 
d="M1147 944l-109 -117q107 -138 107 -327q0 -229 -149.5 -372.5t-383.5 -143.5q-164 0 -288 73l-107 -114l-117 110l101 107q-119 141 -119 340q0 226 147 371t383 145q177 0 308 -84l110 121zM352 500q0 -72 33 -140l356 383q-61 33 -129 33q-116 0 -188 -78t-72 -198z
M872 500q0 68 -24 123l-348 -375q55 -25 112 -25q110 0 185 78.5t75 198.5z" />
    <glyph glyph-name="ugrave" unicode="&#xf9;" horiz-adv-x="1181" 
d="M764 1139h-260l-252 303l280 -2zM786 999h269v-999h-269v123h-4q-56 -68 -133.5 -103.5t-163.5 -35.5q-366 0 -366 413v602h266v-530q0 -135 42 -190.5t138 -55.5q93 0 157 76.5t64 214.5v485z" />
    <glyph glyph-name="uacute" unicode="&#xfa;" horiz-adv-x="1181" 
d="M965 1442l-254 -303h-258l231 301zM786 999h269v-999h-269v123h-4q-56 -68 -133.5 -103.5t-163.5 -35.5q-366 0 -366 413v602h266v-530q0 -135 42 -190.5t138 -55.5q93 0 157 76.5t64 214.5v485z" />
    <glyph glyph-name="ucircumflex" unicode="&#xfb;" horiz-adv-x="1181" 
d="M586 1288l-103 -153h-245l227 307h237l240 -307h-248l-104 153h-4zM786 999h269v-999h-269v123h-4q-56 -68 -133.5 -103.5t-163.5 -35.5q-366 0 -366 413v602h266v-530q0 -135 42 -190.5t138 -55.5q93 0 157 76.5t64 214.5v485z" />
    <glyph glyph-name="udieresis" unicode="&#xfc;" horiz-adv-x="1181" 
d="M373 1141q-69 0 -117.5 48t-48.5 116t48.5 115.5t117.5 47.5q68 0 117 -48t49 -115t-49 -115.5t-117 -48.5zM803 1143q-69 0 -117.5 48t-48.5 114t48.5 113.5t117.5 47.5q66 0 115 -47.5t49 -113.5t-49 -114t-115 -48zM786 999h269v-999h-269v123h-4
q-56 -68 -133.5 -103.5t-163.5 -35.5q-366 0 -366 413v602h266v-530q0 -135 42 -190.5t138 -55.5q93 0 157 76.5t64 214.5v485z" />
    <glyph glyph-name="yacute" unicode="&#xfd;" horiz-adv-x="1103" 
d="M905 1442l-254 -303h-258l232 301zM791 999h278l-539 -1405h-274l176 467l-397 938h278l246 -618h2z" />
    <glyph glyph-name="thorn" unicode="&#xfe;" horiz-adv-x="1263" 
d="M711 1016q202 0 336.5 -146t134.5 -372q0 -230 -134.5 -372t-345.5 -142q-184 0 -294 129h-5v-519h-268v1913h268v-622h5q116 131 303 131zM653 223q114 0 185 75.5t71 197.5q0 126 -73 203t-183 77q-115 0 -187.5 -79.5t-72.5 -200.5t74.5 -197t185.5 -76z" />
    <glyph glyph-name="ydieresis" unicode="&#xff;" horiz-adv-x="1103" 
d="M338 1141q-69 0 -117.5 48t-48.5 116t48.5 115.5t117.5 47.5q68 0 117 -48t49 -115t-49 -115.5t-117 -48.5zM768 1143q-69 0 -117.5 48t-48.5 114t48.5 113.5t117.5 47.5q66 0 115 -47.5t49 -113.5t-49 -114t-115 -48zM791 999h278l-539 -1405h-274l176 467l-397 938h278
l246 -618h2z" />
    <glyph glyph-name="Amacron" unicode="&#x100;" horiz-adv-x="1429" 
d="M1028 1876v-215h-622v215h622zM1096 0l-99 291h-559l-98 -291h-301l539 1454h276l543 -1454h-301zM522 537h391l-194 571h-4z" />
    <glyph glyph-name="amacron" unicode="&#x101;" horiz-adv-x="1243" 
d="M930 1409v-215h-623v215h623zM850 999h266v-999h-254v121h-6q-106 -137 -299 -137q-209 0 -343 142t-134 372q0 226 134.5 372t336.5 146q185 0 293 -129h6v112zM606 223q107 0 180.5 76.5t73.5 196.5t-71.5 200t-180.5 80q-110 0 -184 -77t-74 -203q0 -121 71.5 -197
t184.5 -76z" />
    <glyph glyph-name="Abreve" unicode="&#x102;" horiz-adv-x="1429" 
d="M717 1595q-133 0 -227.5 82t-106.5 226h203q3 -56 38 -92.5t93 -36.5q56 0 92 35t39 94h205q-11 -135 -101.5 -221.5t-234.5 -86.5zM1096 0l-99 291h-559l-98 -291h-301l539 1454h276l543 -1454h-301zM522 537h391l-194 571h-4z" />
    <glyph glyph-name="abreve" unicode="&#x103;" horiz-adv-x="1243" 
d="M618 1128q-133 0 -227 82t-106 226h202q3 -56 38 -92.5t93 -36.5q56 0 92.5 35t39.5 94h204q-11 -135 -101.5 -221.5t-234.5 -86.5zM850 999h266v-999h-254v121h-6q-106 -137 -299 -137q-209 0 -343 142t-134 372q0 226 134.5 372t336.5 146q185 0 293 -129h6v112z
M606 223q107 0 180.5 76.5t73.5 196.5t-71.5 200t-180.5 80q-110 0 -184 -77t-74 -203q0 -121 71.5 -197t184.5 -76z" />
    <glyph glyph-name="Aogonek" unicode="&#x104;" horiz-adv-x="1429" 
d="M1255 -231q45 0 80 14l15 -145q-57 -25 -150 -25q-106 0 -168.5 51t-62.5 135q0 52 33 107t94 96l-99 289h-559l-98 -291h-301l539 1454h276l543 -1454h-60q-75 -13 -120.5 -56t-45.5 -91q0 -39 21.5 -61.5t62.5 -22.5zM522 537h391l-194 571h-4z" />
    <glyph glyph-name="aogonek" unicode="&#x105;" horiz-adv-x="1243" 
d="M1087 0q-75 -13 -120 -56t-45 -91q0 -39 21.5 -61.5t62.5 -22.5q44 0 79 14l15 -145q-57 -25 -150 -25q-106 0 -168.5 51t-62.5 135q0 56 37 115t106 98v109h-6q-106 -137 -299 -137q-209 0 -343 142t-134 372q0 226 134.5 372t336.5 146q185 0 293 -129h6v112h266v-999
h-29zM606 223q107 0 180.5 76.5t73.5 196.5t-71.5 200t-180.5 80q-110 0 -184 -77t-74 -203q0 -121 71.5 -197t184.5 -76z" />
    <glyph glyph-name="Cacute" unicode="&#x106;" horiz-adv-x="1486" 
d="M696 1606l232 301l280 2l-254 -303h-258zM842 -14q-150 0 -283.5 48.5t-236 139.5t-162.5 233t-60 316q0 157 50 293t142.5 238t234 160.5t315.5 58.5q159 0 311.5 -69.5t267.5 -209.5l-211 -180q-70 82 -165.5 133t-202.5 51q-192 0 -316.5 -130t-124.5 -345
q0 -203 123.5 -334t317.5 -131q109 0 204.5 50t163.5 134l211 -182q-100 -125 -247.5 -199.5t-331.5 -74.5z" />
    <glyph glyph-name="cacute" unicode="&#x107;" horiz-adv-x="1087" 
d="M459 1139l231 301l281 2l-254 -303h-258zM596 -16q-224 0 -369 143.5t-145 372.5q0 230 147 373t379 143q124 0 237.5 -49t186.5 -142l-180 -155q-92 106 -234 106q-120 0 -193 -76t-73 -198q0 -123 75 -201t194 -78q74 0 133.5 29t99.5 74l182 -162q-69 -80 -183 -130
t-257 -50z" />
    <glyph glyph-name="Ccircumflex" unicode="&#x108;" horiz-adv-x="1486" 
d="M836 1755l-103 -153h-246l228 307h237l240 -307h-248l-104 153h-4zM842 258q109 0 204.5 50t163.5 134l211 -182q-100 -125 -247.5 -199.5t-331.5 -74.5q-150 0 -283.5 48.5t-236 139.5t-162.5 233t-60 316q0 157 50 293t142.5 238t234 160.5t315.5 58.5
q159 0 311.5 -69.5t267.5 -209.5l-211 -180q-70 82 -165.5 133t-202.5 51q-192 0 -316.5 -130t-124.5 -345q0 -203 123.5 -334t317.5 -131z" />
    <glyph glyph-name="ccircumflex" unicode="&#x109;" horiz-adv-x="1087" 
d="M604 1288l-102 -153h-246l227 307h238l240 -307h-248l-105 153h-4zM854 326l182 -162q-69 -80 -183 -130t-257 -50q-224 0 -369 143.5t-145 372.5q0 230 147 373t379 143q124 0 237.5 -49t186.5 -142l-180 -155q-92 106 -234 106q-120 0 -193 -76t-73 -198
q0 -123 75 -201t194 -78q74 0 133.5 29t99.5 74z" />
    <glyph glyph-name="Cdotaccent" unicode="&#x10a;" horiz-adv-x="1486" 
d="M840 1608q-68 0 -117 48.5t-49 115.5t49 115t117 48q69 0 118.5 -48t49.5 -115t-49.5 -115.5t-118.5 -48.5zM842 -14q-150 0 -283.5 48.5t-236 139.5t-162.5 233t-60 316q0 157 50 293t142.5 238t234 160.5t315.5 58.5q159 0 311.5 -69.5t267.5 -209.5l-211 -180
q-70 82 -165.5 133t-202.5 51q-192 0 -316.5 -130t-124.5 -345q0 -203 123.5 -334t317.5 -131q109 0 204.5 50t163.5 134l211 -182q-100 -125 -247.5 -199.5t-331.5 -74.5z" />
    <glyph glyph-name="cdotaccent" unicode="&#x10b;" horiz-adv-x="1087" 
d="M608 1141q-68 0 -117 48.5t-49 115.5t49 115t117 48q69 0 118.5 -48t49.5 -115t-49.5 -115.5t-118.5 -48.5zM596 -16q-224 0 -369 143.5t-145 372.5q0 230 147 373t379 143q124 0 237.5 -49t186.5 -142l-180 -155q-92 106 -234 106q-120 0 -193 -76t-73 -198
q0 -123 75 -201t194 -78q74 0 133.5 29t99.5 74l182 -162q-69 -80 -183 -130t-257 -50z" />
    <glyph glyph-name="Ccaron" unicode="&#x10c;" horiz-adv-x="1486" 
d="M956 1602h-235l-234 307h248l103 -156h4l104 156h246zM842 258q109 0 204.5 50t163.5 134l211 -182q-100 -125 -247.5 -199.5t-331.5 -74.5q-150 0 -283.5 48.5t-236 139.5t-162.5 233t-60 316q0 157 50 293t142.5 238t234 160.5t315.5 58.5q159 0 311.5 -69.5
t267.5 -209.5l-211 -180q-70 82 -165.5 133t-202.5 51q-192 0 -316.5 -130t-124.5 -345q0 -203 123.5 -334t317.5 -131z" />
    <glyph glyph-name="ccaron" unicode="&#x10d;" horiz-adv-x="1087" 
d="M725 1135h-236l-233 307h248l102 -156h4l105 156h246zM854 326l182 -162q-69 -80 -183 -130t-257 -50q-224 0 -369 143.5t-145 372.5q0 230 147 373t379 143q124 0 237.5 -49t186.5 -142l-180 -155q-92 106 -234 106q-120 0 -193 -76t-73 -198q0 -123 75 -201t194 -78
q74 0 133.5 29t99.5 74z" />
    <glyph glyph-name="Dcaron" unicode="&#x10e;" horiz-adv-x="1495" 
d="M850 1599h-236l-233 308h248l102 -156h4l105 156h245zM641 1454q170 0 312 -53.5t239.5 -149.5t151 -231t53.5 -295t-52 -294t-147.5 -229.5t-237 -148.5t-313.5 -53h-487v1454h481zM629 256q209 0 339 133t130 336q0 204 -127.5 337.5t-323.5 133.5h-203v-940h185z" />
    <glyph glyph-name="dcaron" unicode="&#x10f;" horiz-adv-x="1368" 
d="M1305 1612h256l-131 -424h-189zM858 887v620h268v-1507h-256v121h-4q-109 -137 -307 -137q-209 0 -344 142.5t-135 371.5q0 226 134.5 372t336.5 146q190 0 301 -129h6zM608 223q112 0 188 76t76 197t-74.5 200.5t-189.5 79.5q-110 0 -183 -77t-73 -203q0 -121 71.5 -197
t184.5 -76z" />
    <glyph glyph-name="Dcroat" unicode="&#x110;" horiz-adv-x="1495" 
d="M641 1454q170 0 312 -53.5t239.5 -149.5t151 -231t53.5 -295t-52 -294t-147.5 -229.5t-237 -148.5t-313.5 -53h-487v600h-109v240h109v614h481zM629 256q209 0 339 133t130 336q0 204 -127.5 337.5t-323.5 133.5h-203v-356h228v-240h-228v-344h185z" />
    <glyph glyph-name="dcroat" unicode="&#x111;" horiz-adv-x="1247" 
d="M1247 1307v-172h-121v-1135h-256v121h-4q-109 -137 -307 -137q-209 0 -344 142.5t-135 371.5q0 226 134.5 372t336.5 146q190 0 301 -129h6v248h-203v172h203v200h268v-200h121zM608 223q112 0 188 76t76 197t-74.5 200.5t-189.5 79.5q-110 0 -183 -77t-73 -203
q0 -121 71.5 -197t184.5 -76z" />
    <glyph glyph-name="Emacron" unicode="&#x112;" horiz-adv-x="1228" 
d="M326 1659v215h622v-215h-622zM160 0v1454h930v-258h-648v-348h519v-254h-519v-338h691v-256h-973z" />
    <glyph glyph-name="emacron" unicode="&#x113;" horiz-adv-x="1146" 
d="M903 1409v-215h-622v215h622zM1067 510q0 -80 -6 -96h-703q25 -90 92.5 -141.5t163.5 -51.5q146 -3 240 113l174 -162q-68 -86 -178 -137t-254 -51q-146 0 -262.5 63.5t-184 182.5t-67.5 272q0 226 140.5 370t355.5 144q218 0 353.5 -142t135.5 -364zM586 780
q-83 0 -143 -44.5t-83 -129.5h441q-21 81 -75.5 127.5t-139.5 46.5z" />
    <glyph glyph-name="Ebreve" unicode="&#x114;" horiz-adv-x="1228" 
d="M637 1593q-133 0 -227.5 82t-106.5 226h203q3 -56 38 -92.5t93 -36.5q56 0 92 35t39 94h205q-11 -135 -101.5 -221.5t-234.5 -86.5zM160 0v1454h930v-258h-648v-348h519v-254h-519v-338h691v-256h-973z" />
    <glyph glyph-name="ebreve" unicode="&#x115;" horiz-adv-x="1146" 
d="M592 1128q-133 0 -227.5 82t-106.5 226h203q3 -56 38 -92.5t93 -36.5q56 0 92 35t39 94h205q-11 -135 -101.5 -221.5t-234.5 -86.5zM1067 510q0 -80 -6 -96h-703q25 -90 92.5 -141.5t163.5 -51.5q146 -3 240 113l174 -162q-68 -86 -178 -137t-254 -51q-146 0 -262.5 63.5
t-184 182.5t-67.5 272q0 226 140.5 370t355.5 144q218 0 353.5 -142t135.5 -364zM586 780q-83 0 -143 -44.5t-83 -129.5h441q-21 81 -75.5 127.5t-139.5 46.5z" />
    <glyph glyph-name="Edotaccent" unicode="&#x116;" horiz-adv-x="1228" 
d="M637 1606q-68 0 -117 48t-49 115t49 115.5t117 48.5q69 0 118.5 -48.5t49.5 -115.5t-49.5 -115t-118.5 -48zM160 0v1454h930v-258h-648v-348h519v-254h-519v-338h691v-256h-973z" />
    <glyph glyph-name="edotaccent" unicode="&#x117;" horiz-adv-x="1146" 
d="M592 1141q-68 0 -117 48.5t-49 115.5t49 115t117 48q69 0 118.5 -48t49.5 -115t-49.5 -115.5t-118.5 -48.5zM1067 510q0 -80 -6 -96h-703q25 -90 92.5 -141.5t163.5 -51.5q146 -3 240 113l174 -162q-68 -86 -178 -137t-254 -51q-146 0 -262.5 63.5t-184 182.5t-67.5 272
q0 226 140.5 370t355.5 144q218 0 353.5 -142t135.5 -364zM586 780q-83 0 -143 -44.5t-83 -129.5h441q-21 81 -75.5 127.5t-139.5 46.5z" />
    <glyph glyph-name="Eogonek" unicode="&#x118;" horiz-adv-x="1228" 
d="M1108 0q-75 -13 -120.5 -56t-45.5 -91q0 -39 21.5 -61.5t62.5 -22.5q45 0 80 14l14 -145q-57 -25 -149 -25q-106 0 -169 51t-63 135q0 50 30.5 104t88.5 95v2h-698v1454h930v-258h-648v-348h519v-254h-519v-338h691v-256h-25z" />
    <glyph glyph-name="eogonek" unicode="&#x119;" horiz-adv-x="1146" 
d="M1067 510q0 -80 -6 -96h-703q25 -90 92.5 -141.5t163.5 -51.5q146 -3 240 113l174 -162q-98 -123 -256 -166q-166 -61 -166 -149q0 -35 22.5 -56.5t61.5 -21.5q42 0 82 14l12 -149q-59 -27 -147 -27q-116 0 -181 51.5t-65 136.5q0 44 26.5 94t76.5 91v2q-184 33 -298 170
t-114 340q0 226 140.5 370t355.5 144q218 0 353.5 -142t135.5 -364zM586 780q-83 0 -143 -44.5t-83 -129.5h441q-21 81 -75.5 127.5t-139.5 46.5z" />
    <glyph glyph-name="Ecaron" unicode="&#x11a;" horiz-adv-x="1228" 
d="M754 1599h-236l-233 308h247l103 -156h4l104 156h246zM442 256h691v-256h-973v1454h930v-258h-648v-348h519v-254h-519v-338z" />
    <glyph glyph-name="ecaron" unicode="&#x11b;" horiz-adv-x="1146" 
d="M709 1135h-236l-233 307h247l103 -156h4l104 156h246zM1067 510q0 -80 -6 -96h-703q25 -90 92.5 -141.5t163.5 -51.5q146 -3 240 113l174 -162q-68 -86 -178 -137t-254 -51q-146 0 -262.5 63.5t-184 182.5t-67.5 272q0 226 140.5 370t355.5 144q218 0 353.5 -142
t135.5 -364zM586 780q-83 0 -143 -44.5t-83 -129.5h441q-21 81 -75.5 127.5t-139.5 46.5z" />
    <glyph glyph-name="Gcircumflex" unicode="&#x11c;" horiz-adv-x="1542" 
d="M813 1753l-102 -154h-246l227 308h238l239 -308h-247l-105 154h-4zM811 793h604v-627q-100 -81 -253.5 -130.5t-317.5 -49.5q-158 0 -293.5 50.5t-236 143.5t-157.5 233.5t-57 311.5q0 159 51 296.5t143.5 237.5t231 157t305.5 57q161 0 315.5 -63.5t262.5 -186.5
l-205 -172q-156 149 -373 149q-185 0 -307.5 -129t-122.5 -346q0 -133 53 -240.5t154.5 -171t235.5 -63.5q160 0 295 82v215h-328v246z" />
    <glyph glyph-name="gcircumflex" unicode="&#x11d;" horiz-adv-x="1239" 
d="M604 1288l-102 -153h-246l227 307h238l240 -307h-248l-105 153h-4zM846 999h266v-884q0 -121 -28 -216t-88 -168.5t-162 -113t-242 -39.5q-232 0 -412 100l64 228q167 -94 323 -94q136 0 210.5 63t74.5 160v100h-6q-108 -117 -291 -117q-208 0 -342.5 137.5t-134.5 354.5
q0 221 131 363.5t332 142.5q180 0 299 -119h6v102zM604 260q110 0 181 73t71 187q0 113 -72 182.5t-180 69.5q-113 0 -183.5 -70t-70.5 -184q0 -116 72 -187t182 -71z" />
    <glyph glyph-name="Gbreve" unicode="&#x11e;" horiz-adv-x="1542" 
d="M817 1593q-133 0 -227.5 82t-106.5 226h203q3 -56 38 -92.5t93 -36.5q56 0 92 35t39 94h205q-11 -135 -101.5 -221.5t-234.5 -86.5zM844 -14q-158 0 -293.5 50.5t-236 143.5t-157.5 233.5t-57 311.5q0 159 51 296.5t143.5 237.5t231 157t305.5 57q161 0 315.5 -63.5
t262.5 -186.5l-205 -172q-156 149 -373 149q-185 0 -307.5 -129t-122.5 -346q0 -133 53 -240.5t154.5 -171t235.5 -63.5q160 0 295 82v215h-328v246h604v-627q-100 -81 -253.5 -130.5t-317.5 -49.5z" />
    <glyph glyph-name="gbreve" unicode="&#x11f;" horiz-adv-x="1239" 
d="M608 1128q-133 0 -227.5 82t-106.5 226h203q3 -56 38 -92.5t93 -36.5q56 0 92 35t39 94h205q-11 -135 -101.5 -221.5t-234.5 -86.5zM846 999h266v-884q0 -121 -28 -216t-88 -168.5t-162 -113t-242 -39.5q-232 0 -412 100l64 228q167 -94 323 -94q136 0 210.5 63t74.5 160
v100h-6q-108 -117 -291 -117q-208 0 -342.5 137.5t-134.5 354.5q0 221 131 363.5t332 142.5q180 0 299 -119h6v102zM604 260q110 0 181 73t71 187q0 113 -72 182.5t-180 69.5q-113 0 -183.5 -70t-70.5 -184q0 -116 72 -187t182 -71z" />
    <glyph glyph-name="Gdotaccent" unicode="&#x120;" horiz-adv-x="1542" 
d="M817 1606q-68 0 -117 48t-49 115t49 115.5t117 48.5q69 0 118.5 -48.5t49.5 -115.5t-49.5 -115t-118.5 -48zM844 -14q-158 0 -293.5 50.5t-236 143.5t-157.5 233.5t-57 311.5q0 159 51 296.5t143.5 237.5t231 157t305.5 57q161 0 315.5 -63.5t262.5 -186.5l-205 -172
q-156 149 -373 149q-185 0 -307.5 -129t-122.5 -346q0 -133 53 -240.5t154.5 -171t235.5 -63.5q160 0 295 82v215h-328v246h604v-627q-100 -81 -253.5 -130.5t-317.5 -49.5z" />
    <glyph glyph-name="gdotaccent" unicode="&#x121;" horiz-adv-x="1239" 
d="M608 1141q-68 0 -117 48.5t-49 115.5t49 115t117 48q69 0 118.5 -48t49.5 -115t-49.5 -115.5t-118.5 -48.5zM846 999h266v-884q0 -121 -28 -216t-88 -168.5t-162 -113t-242 -39.5q-232 0 -412 100l64 228q167 -94 323 -94q136 0 210.5 63t74.5 160v100h-6
q-108 -117 -291 -117q-208 0 -342.5 137.5t-134.5 354.5q0 221 131 363.5t332 142.5q180 0 299 -119h6v102zM604 260q110 0 181 73t71 187q0 113 -72 182.5t-180 69.5q-113 0 -183.5 -70t-70.5 -184q0 -116 72 -187t182 -71z" />
    <glyph glyph-name="Gcommaaccent" unicode="&#x122;" horiz-adv-x="1542" 
d="M844 -14q-158 0 -293.5 50.5t-236 143.5t-157.5 233.5t-57 311.5q0 159 51 296.5t143.5 237.5t231 157t305.5 57q161 0 315.5 -63.5t262.5 -186.5l-205 -172q-156 149 -373 149q-185 0 -307.5 -129t-122.5 -346q0 -133 53 -240.5t154.5 -171t235.5 -63.5q160 0 295 82
v215h-328v246h604v-627q-100 -81 -253.5 -130.5t-317.5 -49.5zM655 -451l-55 152q62 17 87.5 43t25.5 70q0 23 -13 77h232q8 -39 8 -92q0 -123 -79 -189.5t-206 -60.5z" />
    <glyph glyph-name="gcommaaccent" unicode="&#x123;" horiz-adv-x="1239" 
d="M731 1151h-231q-8 39 -8 92q0 124 78.5 190t205.5 60l55 -152q-61 -17 -86.5 -42.5t-25.5 -69.5q0 -29 12 -78zM846 999h266v-884q0 -121 -28 -216t-88 -168.5t-162 -113t-242 -39.5q-232 0 -412 100l64 228q167 -94 323 -94q136 0 210.5 63t74.5 160v100h-6
q-108 -117 -291 -117q-208 0 -342.5 137.5t-134.5 354.5q0 221 131 363.5t332 142.5q180 0 299 -119h6v102zM604 260q110 0 181 73t71 187q0 113 -72 182.5t-180 69.5q-113 0 -183.5 -70t-70.5 -184q0 -116 72 -187t182 -71z" />
    <glyph glyph-name="Hcircumflex" unicode="&#x124;" horiz-adv-x="1492" 
d="M750 1755l-103 -153h-246l228 307h237l240 -307h-248l-104 153h-4zM1044 1454h289v-1454h-289v567h-595v-567h-289v1454h289v-629h595v629z" />
    <glyph glyph-name="hcircumflex" unicode="&#x125;" horiz-adv-x="1222" 
d="M512 1778l-102 -154h-246l227 307h238l239 -307h-247l-105 154h-4zM733 1016q172 0 270.5 -99t98.5 -317v-600h-268v532q0 133 -48 188.5t-147 55.5q-110 0 -173 -68.5t-63 -199.5v-508h-268v1507h268v-628h5q122 137 325 137z" />
    <glyph glyph-name="Hbar" unicode="&#x126;" horiz-adv-x="1497" 
d="M1436 1229v-170h-101v-1059h-288v567h-596v-567h-289v1059h-99v170h99v225h289v-225h596v225h288v-225h101zM1047 825v234h-596v-234h596z" />
    <glyph glyph-name="hbar" unicode="&#x127;" horiz-adv-x="1222" 
d="M733 1016q172 0 270.5 -99t98.5 -317v-600h-268v532q0 133 -48 188.5t-147 55.5q-110 0 -173 -68.5t-63 -199.5v-508h-268v1135h-123v172h123v200h268v-200h201v-172h-201v-256h5q122 137 325 137z" />
    <glyph glyph-name="Itilde" unicode="&#x128;" horiz-adv-x="628" 
d="M479 1595q-84 0 -178 62q-73 43 -113 43q-70 0 -114 -103l-160 70q32 108 95.5 173t150.5 65q15 0 30 -1.5t26 -3.5t25.5 -6.5t21 -6.5t21 -9.5t17.5 -9t18.5 -10t16.5 -9.5q3 -2 8 -5q64 -40 102 -40q72 0 117 101l156 -54q-32 -118 -94 -187t-146 -69zM170 0v1454h289
v-1454h-289z" />
    <glyph glyph-name="itilde" unicode="&#x129;" horiz-adv-x="563" 
d="M453 1130q-83 0 -181 62q-8 5 -25 16t-24.5 15t-21 8t-27.5 4q-52 0 -96 -102l-160 69q32 106 91 172t132 66q25 0 45 -2.5t40 -11t27 -11.5t30 -16.5t24 -14.5q27 -17 38 -23.5t33 -14t42 -7.5q70 0 115 101l157 -54q-32 -117 -94 -186.5t-145 -69.5zM147 0v999h269
v-999h-269z" />
    <glyph glyph-name="Imacron" unicode="&#x12a;" horiz-adv-x="628" 
d="M0 1659v215h623v-215h-623zM170 0v1454h289v-1454h-289z" />
    <glyph glyph-name="imacron" unicode="&#x12b;" horiz-adv-x="563" 
d="M-29 1194v215h623v-215h-623zM147 0v999h269v-999h-269z" />
    <glyph glyph-name="Ibreve" unicode="&#x12c;" horiz-adv-x="628" 
d="M311 1593q-133 0 -227.5 82t-106.5 226h203q3 -56 38 -92.5t93 -36.5q56 0 92 35t39 94h205q-11 -135 -101.5 -221.5t-234.5 -86.5zM170 0v1454h289v-1454h-289z" />
    <glyph glyph-name="ibreve" unicode="&#x12d;" horiz-adv-x="563" 
d="M283 1128q-122 0 -204.5 81.5t-92.5 226.5h198q5 -58 29.5 -93.5t69.5 -35.5q43 0 69 34.5t29 94.5h199q-9 -137 -87 -222.5t-210 -85.5zM147 0v999h269v-999h-269z" />
    <glyph glyph-name="Iogonek" unicode="&#x12e;" horiz-adv-x="628" 
d="M412 0q-75 -13 -120.5 -56t-45.5 -91q0 -39 21.5 -61.5t62.5 -22.5q45 0 80 14l14 -145q-57 -25 -150 -25q-106 0 -168.5 51t-62.5 135q0 52 33 107.5t94 95.5v1452h289v-1454h-47z" />
    <glyph glyph-name="iogonek" unicode="&#x12f;" horiz-adv-x="563" 
d="M283 1141q-68 0 -117 48.5t-49 115.5t49 115t117 48q69 0 118.5 -48t49.5 -115t-49.5 -115.5t-118.5 -48.5zM147 2v997h269v-999h-27q-75 -13 -120.5 -56t-45.5 -91q0 -39 21.5 -61.5t62.5 -22.5q45 0 80 14l14 -145q-57 -25 -149 -25q-106 0 -169 51t-63 135
q0 52 33 107.5t94 95.5z" />
    <glyph glyph-name="Idotaccent" unicode="&#x130;" horiz-adv-x="628" 
d="M311 1606q-68 0 -117 48t-49 115t49 115.5t117 48.5q69 0 118.5 -48.5t49.5 -115.5t-49.5 -115t-118.5 -48zM170 0v1454h289v-1454h-289z" />
    <glyph glyph-name="dotlessi" unicode="&#x131;" horiz-adv-x="563" 
d="M147 0v999h269v-999h-269z" />
    <glyph glyph-name="IJ" unicode="&#x132;" horiz-adv-x="1665" 
d="M170 0v1454h289v-1454h-289zM1077 -14q-114 0 -221 48.5t-178 141.5l164 203q40 -54 98.5 -89.5t116.5 -35.5q178 0 178 254v946h289v-942q0 -254 -106 -390t-341 -136z" />
    <glyph glyph-name="ij" unicode="&#x133;" horiz-adv-x="1089" 
d="M827 1147q-68 0 -116.5 48.5t-48.5 115.5t48.5 115.5t116.5 48.5q69 0 118.5 -48.5t49.5 -115.5t-49.5 -115.5t-118.5 -48.5zM283 1141q-68 0 -117 48.5t-49 115.5t49 115t117 48q69 0 118.5 -48t49.5 -115t-49.5 -115.5t-118.5 -48.5zM147 0v999h269v-999h-269z
M670 -422q-119 0 -209 37l45 221q46 -24 88 -24q48 0 75 35.5t27 103.5v1048h269v-1058q0 -177 -79.5 -270t-215.5 -93z" />
    <glyph glyph-name="Jcircumflex" unicode="&#x134;" horiz-adv-x="1036" 
d="M748 1755l-103 -153h-246l228 307h237l240 -307h-248l-104 153h-4zM606 508v946h289v-942q0 -254 -105.5 -390t-340.5 -136q-114 0 -221.5 48.5t-178.5 141.5l164 203q40 -54 98.5 -89.5t116.5 -35.5q178 0 178 254z" />
    <glyph glyph-name="jcircumflex" unicode="&#x135;" horiz-adv-x="526" 
d="M260 1294l-102 -153h-246l227 307h238l239 -307h-247l-105 153h-4zM133 -49v1048h268v-1058q0 -177 -79.5 -270t-215.5 -93q-118 0 -208 37l45 221q46 -24 88 -24q48 0 75 35.5t27 103.5z" />
    <glyph glyph-name="Kcommaaccent" unicode="&#x136;" horiz-adv-x="1363" 
d="M780 813l553 -813h-354l-387 584h-2l-144 -170v-414h-286v1454h286v-641h3l503 641h365zM578 -109h231q8 -39 8 -92q0 -123 -79 -189.5t-206 -60.5l-55 152q61 17 87 43t26 70q0 28 -12 77z" />
    <glyph glyph-name="kcommaaccent" unicode="&#x137;" horiz-adv-x="1103" 
d="M725 602l358 -602h-299l-237 397h-4l-140 -157v-240h-268v1507h268v-911h3l358 403h313zM459 -109h231q8 -39 8 -92q0 -124 -78.5 -190t-205.5 -60l-56 152q62 17 87.5 43t25.5 70q0 28 -12 77z" />
    <glyph glyph-name="kgreenlandic" unicode="&#x138;" horiz-adv-x="1105" 
d="M547 397h-2l-142 -157v-240h-268v999h268v-405h3l358 405h315l-354 -399l360 -600h-299z" />
    <glyph glyph-name="Lacute" unicode="&#x139;" horiz-adv-x="1159" 
d="M381 1606l231 301l281 2l-254 -303h-258zM160 0v1454h289v-1198h647v-256h-936z" />
    <glyph glyph-name="lacute" unicode="&#x13a;" horiz-adv-x="563" 
d="M152 1632l231 301l281 2l-254 -303h-258zM147 0v1507h269v-1507h-269z" />
    <glyph glyph-name="Lcommaaccent" unicode="&#x13b;" horiz-adv-x="1159" 
d="M160 0v1454h289v-1198h647v-256h-936zM459 -451l-56 152q61 17 87 43t26 70q0 28 -12 77h231q8 -39 8 -92q0 -124 -78.5 -190t-205.5 -60z" />
    <glyph glyph-name="lcommaaccent" unicode="&#x13c;" horiz-adv-x="563" 
d="M147 0v1507h269v-1507h-269zM117 -451l-56 152q61 17 87 43t26 70q0 28 -12 77h231q8 -39 8 -92q0 -124 -78.5 -190t-205.5 -60z" />
    <glyph glyph-name="Lcaron" unicode="&#x13d;" horiz-adv-x="1159" 
d="M674 1188l63 424h256l-131 -424h-188zM160 0v1454h289v-1198h647v-256h-936z" />
    <glyph glyph-name="lcaron" unicode="&#x13e;" horiz-adv-x="655" 
d="M528 1188l66 424h254l-129 -424h-191zM147 0v1507h269v-1507h-269z" />
    <glyph glyph-name="Ldot" unicode="&#x13f;" horiz-adv-x="1159" 
d="M160 0v1454h289v-1198h647v-256h-936zM883 535q-69 0 -117.5 47t-48.5 114q0 68 48.5 116t117.5 48q68 0 117 -48.5t49 -115.5t-49 -114t-117 -47z" />
    <glyph glyph-name="ldot" unicode="&#x140;" horiz-adv-x="952" 
d="M147 0v1507h269v-1507h-269zM760 362q-69 0 -117.5 47.5t-48.5 114.5q0 68 48.5 116t117.5 48q68 0 117 -48.5t49 -115.5t-49 -114.5t-117 -47.5z" />
    <glyph glyph-name="Lslash" unicode="&#x141;" horiz-adv-x="1177" 
d="M467 256h647v-256h-936v545l-141 -68v236l141 67v674h289v-536l162 75v-235l-162 -76v-426z" />
    <glyph glyph-name="lslash" unicode="&#x142;" horiz-adv-x="618" 
d="M565 905v-241l-114 -54v-610h-269v483l-121 -57v240l121 57v784h269v-657z" />
    <glyph glyph-name="Nacute" unicode="&#x143;" horiz-adv-x="1546" 
d="M1071 1909l-254 -303h-258l232 301zM1098 1454h288v-1454h-294l-641 965h-5v-965h-286v1454h286l650 -983h2v983z" />
    <glyph glyph-name="nacute" unicode="&#x144;" horiz-adv-x="1212" 
d="M942 1442l-254 -303h-258l232 301zM727 1016q171 0 268 -101t97 -321v-594h-269v526q0 137 -47 193.5t-145 56.5q-104 0 -166 -71t-62 -201v-504h-268v999h268v-129h5q125 146 319 146z" />
    <glyph glyph-name="Ncommaaccent" unicode="&#x145;" horiz-adv-x="1546" 
d="M1098 1454h288v-1454h-294l-641 965h-5v-965h-286v1454h286l650 -983h2v983zM651 -109h232q8 -39 8 -92q0 -123 -79 -189.5t-206 -60.5l-55 152q61 17 87 43t26 70q0 23 -13 77z" />
    <glyph glyph-name="ncommaaccent" unicode="&#x146;" horiz-adv-x="1212" 
d="M727 1016q171 0 268 -101t97 -321v-594h-269v526q0 137 -47 193.5t-145 56.5q-104 0 -166 -71t-62 -201v-504h-268v999h268v-129h5q125 146 319 146zM483 -109h232q8 -39 8 -92q0 -123 -79 -189.5t-206 -60.5l-55 152q61 17 87 43t26 70q0 23 -13 77z" />
    <glyph glyph-name="Ncaron" unicode="&#x147;" horiz-adv-x="1546" 
d="M893 1602h-236l-233 307h248l102 -156h4l105 156h245zM1098 1454h288v-1454h-294l-641 965h-5v-965h-286v1454h286l650 -983h2v983z" />
    <glyph glyph-name="ncaron" unicode="&#x148;" horiz-adv-x="1212" 
d="M731 1135h-235l-234 307h248l102 -156h4l105 156h246zM727 1016q171 0 268 -101t97 -321v-594h-269v526q0 137 -47 193.5t-145 56.5q-104 0 -166 -71t-62 -201v-504h-268v999h268v-129h5q125 146 319 146z" />
    <glyph glyph-name="napostrophe" unicode="&#x149;" horiz-adv-x="1421" 
d="M-31 1012l66 442h254l-129 -442h-191zM938 1016q171 0 268 -101t97 -321v-594h-269v526q0 137 -47 193.5t-145 56.5q-104 0 -166 -71t-62 -201v-504h-268v999h268v-129h4q125 146 320 146z" />
    <glyph glyph-name="Eng" unicode="&#x14a;" horiz-adv-x="1546" 
d="M1100 1454h286v-1350v-159q0 -178 -83 -272.5t-230 -94.5q-113 0 -211 37l45 213q49 -27 90 -27q47 0 75 39t28 101v45l-649 979h-5v-965h-286v1454h284l652 -983h4v983z" />
    <glyph glyph-name="eng" unicode="&#x14b;" horiz-adv-x="1175" 
d="M715 1016q161 0 251.5 -102.5t90.5 -321.5v-647q0 -176 -80 -271.5t-215 -95.5q-119 0 -209 37l45 213q46 -27 88 -27q47 0 74.5 39t27.5 101v583q0 138 -39 195t-133 57q-90 0 -151.5 -73.5t-61.5 -202.5v-500h-268v999h268v-129h3q60 69 144.5 107.5t164.5 38.5z" />
    <glyph glyph-name="Omacron" unicode="&#x14c;" horiz-adv-x="1681" 
d="M532 1661v215h623v-215h-623zM842 -16q-162 0 -301 56t-235.5 154t-151 235.5t-54.5 297.5q0 214 93 384t262.5 266t386.5 96q159 0 296 -54.5t234.5 -151.5t153 -236.5t55.5 -303.5q0 -218 -95 -388t-263.5 -262.5t-380.5 -92.5zM844 252q188 0 313 135.5t125 339.5
q0 205 -125 340t-313 135q-194 0 -319.5 -137t-125.5 -338t125.5 -338t319.5 -137z" />
    <glyph glyph-name="omacron" unicode="&#x14d;" horiz-adv-x="1224" 
d="M303 1194v215h623v-215h-623zM612 -16q-236 0 -383 145t-147 371t147 371t383 145q234 0 383.5 -143.5t149.5 -372.5t-149.5 -372.5t-383.5 -143.5zM612 223q110 0 185 78.5t75 198.5q0 122 -73.5 199t-186.5 77q-116 0 -188 -78t-72 -198q0 -118 73.5 -197.5
t186.5 -79.5z" />
    <glyph glyph-name="Obreve" unicode="&#x14e;" horiz-adv-x="1681" 
d="M844 1595q-133 0 -227.5 82t-106.5 226h203q3 -56 38 -92.5t93 -36.5q56 0 92 35t39 94h205q-11 -135 -101.5 -221.5t-234.5 -86.5zM842 -16q-162 0 -301 56t-235.5 154t-151 235.5t-54.5 297.5q0 214 93 384t262.5 266t386.5 96q159 0 296 -54.5t234.5 -151.5
t153 -236.5t55.5 -303.5q0 -218 -95 -388t-263.5 -262.5t-380.5 -92.5zM844 252q188 0 313 135.5t125 339.5q0 205 -125 340t-313 135q-194 0 -319.5 -137t-125.5 -338t125.5 -338t319.5 -137z" />
    <glyph glyph-name="obreve" unicode="&#x14f;" horiz-adv-x="1224" 
d="M614 1128q-133 0 -227 82t-106 226h202q3 -56 38 -92.5t93 -36.5q56 0 92 35t39 94h205q-11 -135 -101.5 -221.5t-234.5 -86.5zM612 -16q-236 0 -383 145t-147 371t147 371t383 145q234 0 383.5 -143.5t149.5 -372.5t-149.5 -372.5t-383.5 -143.5zM612 223
q110 0 185 78.5t75 198.5q0 122 -73.5 199t-186.5 77q-116 0 -188 -78t-72 -198q0 -118 73.5 -197.5t186.5 -79.5z" />
    <glyph glyph-name="Ohungarumlaut" unicode="&#x150;" horiz-adv-x="1681" 
d="M512 1606l231 301l271 2l-254 -303h-248zM930 1606l231 301l271 2l-254 -303h-248zM842 -16q-162 0 -301 56t-235.5 154t-151 235.5t-54.5 297.5q0 214 93 384t262.5 266t386.5 96q159 0 296 -54.5t234.5 -151.5t153 -236.5t55.5 -303.5q0 -218 -95 -388t-263.5 -262.5
t-380.5 -92.5zM844 252q188 0 313 135.5t125 339.5q0 205 -125 340t-313 135q-194 0 -319.5 -137t-125.5 -338t125.5 -338t319.5 -137z" />
    <glyph glyph-name="ohungarumlaut" unicode="&#x151;" horiz-adv-x="1224" 
d="M254 1139l231 301l271 2l-254 -303h-248zM672 1139l231 301l271 2l-254 -303h-248zM612 -16q-236 0 -383 145t-147 371t147 371t383 145q234 0 383.5 -143.5t149.5 -372.5t-149.5 -372.5t-383.5 -143.5zM612 223q110 0 185 78.5t75 198.5q0 122 -73.5 199t-186.5 77
q-116 0 -188 -78t-72 -198q0 -118 73.5 -197.5t186.5 -79.5z" />
    <glyph glyph-name="OE" unicode="&#x152;" horiz-adv-x="1968" 
d="M1186 256h688v-256h-965h-65q-163 0 -302.5 56t-236 153t-151 231t-54.5 287q0 155 54.5 289.5t151 231t236 152t302.5 54.5h149h840v-256h-647v-352h524v-250h-524v-340zM844 268h65v920h-65q-189 0 -317 -132.5t-128 -328.5q0 -127 58 -233t160.5 -167t226.5 -59z" />
    <glyph glyph-name="oe" unicode="&#x153;" horiz-adv-x="1658" 
d="M1604 510q0 -57 -9 -98h-602q18 -89 70 -140t133 -51q56 0 103.5 30t78.5 77l185 -156q-61 -85 -161.5 -136.5t-221.5 -51.5q-209 0 -336 149h-4q-127 -149 -324 -149q-202 0 -328.5 144.5t-126.5 371.5q0 224 133 370t332 146q188 0 314 -148h2q132 148 334 148
q186 0 307 -143t121 -363zM1169 780q-138 0 -174 -172h346q-18 81 -62 126.5t-110 45.5zM518 223q83 0 140 78.5t57 198.5q0 123 -53 199.5t-136 76.5q-79 0 -135.5 -79t-56.5 -197q0 -120 51 -198.5t133 -78.5z" />
    <glyph glyph-name="Racute" unicode="&#x154;" horiz-adv-x="1345" 
d="M954 1909l-254 -303h-258l232 301zM1278 0h-340l-326 498h-168v-498h-284v1454h551q252 0 379 -131.5t127 -351.5q0 -171 -78 -281.5t-221 -157.5zM444 1198v-446h201q131 0 203 61t72 164q0 101 -69.5 161t-193.5 60h-213z" />
    <glyph glyph-name="racute" unicode="&#x155;" horiz-adv-x="768" 
d="M754 1442l-254 -303h-258l231 301zM406 852q57 79 135.5 121.5t167.5 42.5q16 0 20 -2v-291q-27 2 -70 2q-121 0 -188.5 -73t-67.5 -187v-465h-268v999h268v-147h3z" />
    <glyph glyph-name="Rcommaaccent" unicode="&#x156;" horiz-adv-x="1345" 
d="M918 532l360 -532h-340l-326 498h-168v-498h-284v1454h551q252 0 379 -131.5t127 -351.5q0 -171 -78 -281.5t-221 -157.5zM444 1198v-446h201q131 0 203 61t72 164q0 101 -69.5 161t-193.5 60h-213zM553 -109h231q9 -44 9 -92q0 -123 -79 -189.5t-206 -60.5l-55 152
q61 17 86.5 43t25.5 70q0 28 -12 77z" />
    <glyph glyph-name="rcommaaccent" unicode="&#x157;" horiz-adv-x="768" 
d="M709 1016q16 0 20 -2v-291q-27 2 -70 2q-121 0 -188.5 -73t-67.5 -187v-465h-268v999h268v-147h3q57 79 135.5 121.5t167.5 42.5zM154 -109h231q8 -39 8 -92q0 -124 -78.5 -190t-205.5 -60l-56 152q61 17 87 43t26 70q0 28 -12 77z" />
    <glyph glyph-name="Rcaron" unicode="&#x158;" horiz-adv-x="1345" 
d="M776 1602h-235l-234 307h248l102 -156h5l104 156h246zM1278 0h-340l-326 498h-168v-498h-284v1454h551q252 0 379 -131.5t127 -351.5q0 -171 -78 -281.5t-221 -157.5zM444 1198v-446h201q131 0 203 61t72 164q0 101 -69.5 161t-193.5 60h-213z" />
    <glyph glyph-name="rcaron" unicode="&#x159;" horiz-adv-x="768" 
d="M575 1135h-235l-234 307h248l103 -156h4l104 156h246zM406 852q57 79 135.5 121.5t167.5 42.5q16 0 20 -2v-291q-27 2 -70 2q-121 0 -188.5 -73t-67.5 -187v-465h-268v999h268v-147h3z" />
    <glyph glyph-name="Sacute" unicode="&#x15a;" horiz-adv-x="1196" 
d="M451 1606l231 301l281 2l-254 -303h-258zM598 -16q-146 0 -282.5 57t-247.5 172l172 213q78 -91 174 -136.5t188 -45.5q101 0 155 41.5t54 111.5q0 75 -55.5 116t-198.5 89q-53 19 -93.5 35.5t-88.5 41t-83 49.5t-69 59.5t-55.5 73t-35 89t-13.5 107.5q0 174 135 293.5
t332 122.5q266 3 489 -185l-166 -217q-173 143 -317 143q-77 0 -125.5 -39t-48.5 -106q-1 -63 52 -101.5t192 -93.5q181 -70 241 -103q134 -72 180 -179q29 -69 29 -162q0 -92 -30.5 -168t-81.5 -126.5t-118.5 -85.5t-138.5 -50.5t-145 -15.5z" />
    <glyph glyph-name="sacute" unicode="&#x15b;" horiz-adv-x="917" 
d="M299 1139l231 301l281 2l-254 -303h-258zM459 -16q-235 0 -406 145l131 186q122 -116 277 -116q58 0 90.5 22.5t32.5 59.5q0 33 -39 55t-144 55q-54 18 -95.5 36.5t-83 46.5t-68 61t-43.5 79.5t-17 102.5q0 133 102.5 216t258.5 83q203 0 364 -125l-129 -197
q-113 107 -239 107q-37 0 -68 -19.5t-31 -56.5q0 -29 36.5 -53t115.5 -54q165 -61 221 -95q97 -60 117 -158q6 -32 6 -70q0 -139 -99.5 -225t-289.5 -86z" />
    <glyph glyph-name="Scircumflex" unicode="&#x15c;" horiz-adv-x="1196" 
d="M592 1755l-103 -153h-245l227 307h238l239 -307h-248l-104 153h-4zM662 874q181 -70 241 -103q134 -72 180 -179q29 -69 29 -162q0 -92 -30.5 -168t-81.5 -126.5t-118.5 -85.5t-138.5 -50.5t-145 -15.5q-146 0 -282.5 57t-247.5 172l172 213q78 -91 174 -136.5t188 -45.5
q101 0 155 41.5t54 111.5q0 75 -55.5 116t-198.5 89q-53 19 -93.5 35.5t-88.5 41t-83 49.5t-69 59.5t-55.5 73t-35 89t-13.5 107.5q0 174 135 293.5t332 122.5q266 3 489 -185l-166 -217q-173 143 -317 143q-77 0 -125.5 -39t-48.5 -106q-1 -63 52 -101.5t192 -93.5z" />
    <glyph glyph-name="scircumflex" unicode="&#x15d;" horiz-adv-x="917" 
d="M465 1288l-103 -153h-245l227 307h238l239 -307h-248l-104 153h-4zM504 618q165 -61 221 -95q97 -60 117 -158q6 -32 6 -70q0 -139 -99.5 -225t-289.5 -86q-235 0 -406 145l131 186q122 -116 277 -116q58 0 90.5 22.5t32.5 59.5q0 33 -39 55t-144 55q-54 18 -95.5 36.5
t-83 46.5t-68 61t-43.5 79.5t-17 102.5q0 133 102.5 216t258.5 83q203 0 364 -125l-129 -197q-113 107 -239 107q-37 0 -68 -19.5t-31 -56.5q0 -29 36.5 -53t115.5 -54z" />
    <glyph glyph-name="Scedilla" unicode="&#x15e;" horiz-adv-x="1196" 
d="M629 -16l-27 -45l2 -2q92 -3 141.5 -45.5t49.5 -120.5q0 -73 -62.5 -117.5t-189.5 -44.5q-63 0 -125 12v121q38 -14 106 -14q39 0 68 13.5t29 43.5q0 29 -43.5 47t-124.5 18v76l32 66q-245 41 -417 221l172 213q78 -91 174 -136.5t188 -45.5q101 0 155 41.5t54 111.5
q0 75 -55.5 116t-198.5 89q-53 19 -93.5 35.5t-88.5 41t-83 49.5t-69 59.5t-55.5 73t-35 89t-13.5 107.5q0 174 135 293.5t332 122.5q266 3 489 -185l-166 -217q-173 143 -317 143q-77 0 -125.5 -39t-48.5 -106q-1 -63 52 -101.5t192 -93.5q181 -70 241 -103
q134 -72 180 -179q29 -69 29 -162q0 -88 -28.5 -162t-75.5 -124t-110 -86t-130.5 -53.5t-138.5 -20.5z" />
    <glyph glyph-name="scedilla" unicode="&#x15f;" horiz-adv-x="917" 
d="M481 -16l-26 -45l2 -2q92 -3 141 -45.5t49 -120.5q0 -73 -62.5 -117.5t-189.5 -44.5q-63 0 -125 12v121q38 -14 107 -14q39 0 67.5 13.5t28.5 43.5q0 29 -43.5 47t-124.5 18v76l35 68q-159 26 -287 135l131 186q122 -116 277 -116q58 0 90.5 22.5t32.5 59.5q0 33 -39 55
t-144 55q-54 18 -95.5 36.5t-83 46.5t-68 61t-43.5 79.5t-17 102.5q0 133 102.5 216t258.5 83q203 0 364 -125l-129 -197q-113 107 -239 107q-37 0 -68 -19.5t-31 -56.5q0 -29 36.5 -53t115.5 -54q165 -61 221 -95q97 -60 117 -158q6 -32 6 -70q0 -135 -94 -220t-273 -91z
" />
    <glyph glyph-name="Scaron" unicode="&#x160;" horiz-adv-x="1196" 
d="M713 1602h-236l-233 307h248l102 -156h4l104 156h246zM662 874q181 -70 241 -103q134 -72 180 -179q29 -69 29 -162q0 -92 -30.5 -168t-81.5 -126.5t-118.5 -85.5t-138.5 -50.5t-145 -15.5q-146 0 -282.5 57t-247.5 172l172 213q78 -91 174 -136.5t188 -45.5
q101 0 155 41.5t54 111.5q0 75 -55.5 116t-198.5 89q-53 19 -93.5 35.5t-88.5 41t-83 49.5t-69 59.5t-55.5 73t-35 89t-13.5 107.5q0 174 135 293.5t332 122.5q266 3 489 -185l-166 -217q-173 143 -317 143q-77 0 -125.5 -39t-48.5 -106q-1 -63 52 -101.5t192 -93.5z" />
    <glyph glyph-name="scaron" unicode="&#x161;" horiz-adv-x="917" 
d="M586 1135h-236l-233 307h248l102 -156h4l104 156h246zM504 618q165 -61 221 -95q97 -60 117 -158q6 -32 6 -70q0 -139 -99.5 -225t-289.5 -86q-235 0 -406 145l131 186q122 -116 277 -116q58 0 90.5 22.5t32.5 59.5q0 33 -39 55t-144 55q-54 18 -95.5 36.5t-83 46.5
t-68 61t-43.5 79.5t-17 102.5q0 133 102.5 216t258.5 83q203 0 364 -125l-129 -197q-113 107 -239 107q-37 0 -68 -19.5t-31 -56.5q0 -29 36.5 -53t115.5 -54z" />
    <glyph glyph-name="uni0162" unicode="&#x162;" horiz-adv-x="1210" 
d="M633 0l-35 -61l2 -2q92 -3 141.5 -45.5t49.5 -120.5q0 -73 -62.5 -117.5t-189.5 -44.5q-63 0 -125 12v121q38 -14 106 -14q39 0 67.5 13.5t28.5 43.5q0 29 -43.5 47t-123.5 18v76l36 74h-24v1196h-402v258h1092v-258h-403v-1196h-115z" />
    <glyph glyph-name="uni0163" unicode="&#x163;" horiz-adv-x="763" 
d="M430 -63q92 -3 141.5 -45.5t49.5 -120.5q0 -73 -62.5 -117.5t-189.5 -44.5q-63 0 -125 12v121q38 -14 106 -14q39 0 67.5 13.5t28.5 43.5q0 29 -43.5 47t-123.5 18v76l40 82q-157 69 -157 307v463h-119v221h119v328l266 29v-357h272v-221h-272v-426q0 -127 88 -127
q59 0 127 35l70 -215q-55 -30 -112.5 -45.5t-147.5 -15.5l-25 -45z" />
    <glyph glyph-name="Tcaron" unicode="&#x164;" horiz-adv-x="1210" 
d="M719 1602h-236l-233 307h248l102 -156h4l105 156h245zM59 1454h1092v-258h-403v-1196h-287v1196h-402v258z" />
    <glyph glyph-name="tcaron" unicode="&#x165;" horiz-adv-x="763" 
d="M522 1188l64 424h256l-131 -424h-189zM446 -16q-133 0 -208.5 83.5t-75.5 247.5v463h-119v221h119v328l266 29v-357h272v-221h-272v-426q0 -127 88 -127q59 0 127 35l70 -215q-58 -31 -116 -46t-151 -15z" />
    <glyph glyph-name="Tbar" unicode="&#x166;" horiz-adv-x="1210" 
d="M1151 1196h-403v-354h239v-228h-239v-614h-287v614h-230v228h230v354h-402v258h1092v-258z" />
    <glyph glyph-name="tbar" unicode="&#x167;" horiz-adv-x="763" 
d="M643 260l70 -215q-58 -31 -116 -46t-151 -15q-133 0 -208.5 83.5t-75.5 247.5v138h-103v170h103v155h-119v221h119v328l266 29v-357h272v-221h-272v-155h223v-170h-223v-101q0 -127 88 -127q59 0 127 35z" />
    <glyph glyph-name="Utilde" unicode="&#x168;" horiz-adv-x="1460" 
d="M897 1597q-84 0 -178 62q-73 43 -113 43q-70 0 -114 -103l-160 70q32 108 95.5 173t150.5 65q15 0 30 -1.5t26 -3.5t25.5 -6.5t21 -6.5t21 -9.5t17.5 -9t18.5 -10t16.5 -9.5q3 -2 8 -5q64 -40 102 -40q72 0 117 101l156 -54q-32 -118 -94 -187t-146 -69zM727 -16
q-266 0 -426 163t-160 455v852h289v-833q0 -161 79 -264t218 -103q135 0 219 98.5t84 268.5v833h289v-852q0 -287 -156.5 -452.5t-435.5 -165.5z" />
    <glyph glyph-name="utilde" unicode="&#x169;" horiz-adv-x="1181" 
d="M467 1235q-71 0 -115 -102l-159 69q32 108 95 173t150 65q15 0 30 -1.5t26 -3.5t25.5 -6.5t21 -6.5t21 -9.5t17.5 -9t18.5 -10t16.5 -9.5q27 -17 38 -23t32.5 -14t40.5 -8q72 0 117 101l155 -54q-32 -118 -93.5 -187t-145.5 -69t-178 62q-73 43 -113 43zM786 999h269
v-999h-269v123h-4q-56 -68 -133.5 -103.5t-163.5 -35.5q-366 0 -366 413v602h266v-530q0 -135 42 -190.5t138 -55.5q93 0 157 76.5t64 214.5v485z" />
    <glyph glyph-name="Umacron" unicode="&#x16a;" horiz-adv-x="1460" 
d="M418 1661v215h622v-215h-622zM727 -16q-266 0 -426 163t-160 455v852h289v-833q0 -161 79 -264t218 -103q135 0 219 98.5t84 268.5v833h289v-852q0 -287 -156.5 -452.5t-435.5 -165.5z" />
    <glyph glyph-name="umacron" unicode="&#x16b;" horiz-adv-x="1181" 
d="M901 1409v-215h-622v215h622zM786 999h269v-999h-269v123h-4q-56 -68 -133.5 -103.5t-163.5 -35.5q-366 0 -366 413v602h266v-530q0 -135 42 -190.5t138 -55.5q93 0 157 76.5t64 214.5v485z" />
    <glyph glyph-name="Ubreve" unicode="&#x16c;" horiz-adv-x="1460" 
d="M729 1595q-133 0 -227.5 82t-106.5 226h203q3 -56 38 -92.5t93 -36.5q56 0 92 35t39 94h205q-11 -135 -101.5 -221.5t-234.5 -86.5zM727 -16q-266 0 -426 163t-160 455v852h289v-833q0 -161 79 -264t218 -103q135 0 219 98.5t84 268.5v833h289v-852q0 -287 -156.5 -452.5
t-435.5 -165.5z" />
    <glyph glyph-name="ubreve" unicode="&#x16d;" horiz-adv-x="1181" 
d="M590 1128q-133 0 -227.5 82t-106.5 226h203q3 -56 38 -92.5t93 -36.5q56 0 92 35t39 94h205q-11 -135 -101.5 -221.5t-234.5 -86.5zM786 999h269v-999h-269v123h-4q-56 -68 -133.5 -103.5t-163.5 -35.5q-366 0 -366 413v602h266v-530q0 -135 42 -190.5t138 -55.5
q93 0 157 76.5t64 214.5v485z" />
    <glyph glyph-name="Uring" unicode="&#x16e;" horiz-adv-x="1460" 
d="M727 1559q-91 0 -155 61t-64 152q0 89 62.5 152t156.5 63q95 0 159 -61t64 -154q0 -90 -62.5 -151.5t-160.5 -61.5zM727 1698q32 0 55 23t23 55q0 31 -23 53t-55 22t-54 -23t-22 -54q0 -32 22 -54t54 -22zM727 -16q-266 0 -426 163t-160 455v852h289v-833q0 -161 79 -264
t218 -103q135 0 219 98.5t84 268.5v833h289v-852q0 -287 -156.5 -452.5t-435.5 -165.5z" />
    <glyph glyph-name="uring" unicode="&#x16f;" horiz-adv-x="1181" 
d="M588 1092q-91 0 -155 61t-64 152q0 89 62.5 152t156.5 63q95 0 159 -61t64 -154q0 -90 -62.5 -151.5t-160.5 -61.5zM588 1384q-32 0 -54 -23t-22 -54q0 -32 22 -54t54 -22t55 23t23 55q0 31 -23 53t-55 22zM786 999h269v-999h-269v123h-4q-56 -68 -133.5 -103.5
t-163.5 -35.5q-366 0 -366 413v602h266v-530q0 -135 42 -190.5t138 -55.5q93 0 157 76.5t64 214.5v485z" />
    <glyph glyph-name="Uhungarumlaut" unicode="&#x170;" horiz-adv-x="1460" 
d="M377 1606l231 301l271 2l-254 -303h-248zM795 1606l231 301l270 2l-254 -303h-247zM727 -16q-266 0 -426 163t-160 455v852h289v-833q0 -161 79 -264t218 -103q135 0 219 98.5t84 268.5v833h289v-852q0 -287 -156.5 -452.5t-435.5 -165.5z" />
    <glyph glyph-name="uhungarumlaut" unicode="&#x171;" horiz-adv-x="1181" 
d="M741 1442l-254 -303h-247l231 301zM905 1139h-248l232 301l270 2zM786 514v485h269v-999h-269v123h-4q-56 -68 -133.5 -103.5t-163.5 -35.5q-366 0 -366 413v602h266v-530q0 -135 42 -190.5t138 -55.5q93 0 157 76.5t64 214.5z" />
    <glyph glyph-name="Uogonek" unicode="&#x172;" horiz-adv-x="1460" 
d="M1030 1454h289v-852q0 -231 -103.5 -386.5t-293.5 -207.5h2q-86 -23 -134.5 -63.5t-48.5 -89.5q0 -38 22 -59t62 -21q42 0 82 12l13 -143q-58 -27 -150 -27q-106 0 -168.5 52t-62.5 136q0 43 25.5 92t72.5 89v4q-229 27 -362.5 186.5t-133.5 425.5v852h289v-833
q0 -161 79 -264t218 -103q135 0 219 98.5t84 268.5v833z" />
    <glyph glyph-name="uogonek" unicode="&#x173;" horiz-adv-x="1181" 
d="M1028 0q-75 -13 -120.5 -56t-45.5 -91q0 -39 21.5 -61.5t62.5 -22.5q45 0 80 14l14 -145q-57 -25 -149 -25q-106 0 -169 51t-63 135q0 52 33 107.5t94 95.5v121h-4q-56 -68 -133.5 -103.5t-163.5 -35.5q-366 0 -366 413v602h266v-530q0 -135 42 -190.5t138 -55.5
q93 0 157 76.5t64 214.5v485h269v-999h-27z" />
    <glyph glyph-name="Wcircumflex" unicode="&#x174;" horiz-adv-x="2115" 
d="M1057 1755l-103 -153h-245l227 307h238l239 -307h-248l-104 153h-4zM1755 1454h307l-458 -1454h-267l-272 1034h-6l-283 -1034h-264l-459 1454h307l283 -983h4l258 983h305l258 -983h2z" />
    <glyph glyph-name="wcircumflex" unicode="&#x175;" horiz-adv-x="1581" 
d="M786 1288l-102 -153h-246l228 307h237l240 -307h-248l-104 153h-5zM1272 999h268l-340 -999h-231l-176 616h-5l-176 -616h-229l-342 999h268l195 -608h4l174 608h215l176 -608h4z" />
    <glyph glyph-name="Ycircumflex" unicode="&#x176;" horiz-adv-x="1294" 
d="M645 1755l-102 -153h-246l227 307h238l239 -307h-247l-105 153h-4zM942 1454h334l-485 -815v-639h-291v639l-482 815h330l297 -530h4z" />
    <glyph glyph-name="ycircumflex" unicode="&#x177;" horiz-adv-x="1103" 
d="M551 1288l-102 -153h-246l227 307h238l239 -307h-248l-104 153h-4zM791 999h278l-539 -1405h-274l176 467l-397 938h278l246 -618h2z" />
    <glyph glyph-name="Ydieresis" unicode="&#x178;" horiz-adv-x="1294" 
d="M432 1608q-69 0 -117.5 48t-48.5 116t48.5 115.5t117.5 47.5q68 0 117 -48t49 -115t-49 -115.5t-117 -48.5zM862 1610q-69 0 -117.5 48t-48.5 114t48.5 113.5t117.5 47.5q66 0 115 -47.5t49 -113.5t-49 -114t-115 -48zM942 1454h334l-485 -815v-639h-291v639l-482 815
h330l297 -530h4z" />
    <glyph glyph-name="Zacute" unicode="&#x179;" horiz-adv-x="1277" 
d="M930 1909l-254 -303h-258l231 301zM471 256h696v-256h-1063v225l680 969v2h-651v258h1032v-219l-694 -975v-4z" />
    <glyph glyph-name="zacute" unicode="&#x17a;" horiz-adv-x="995" 
d="M797 1442l-254 -303h-258l231 301zM918 819l-490 -596v-4h479v-219h-831v182l481 596v2h-446v219h807v-180z" />
    <glyph glyph-name="Zdotaccent" unicode="&#x17b;" horiz-adv-x="1277" 
d="M635 1608q-68 0 -117 48.5t-49 115.5t49 115t117 48q69 0 118.5 -48t49.5 -115t-49.5 -115.5t-118.5 -48.5zM471 256h696v-256h-1063v225l680 969v2h-651v258h1032v-219l-694 -975v-4z" />
    <glyph glyph-name="zdotaccent" unicode="&#x17c;" horiz-adv-x="995" 
d="M502 1141q-68 0 -117 48.5t-49 115.5t49 115t117 48q69 0 118.5 -48t49.5 -115t-49.5 -115.5t-118.5 -48.5zM918 819l-490 -596v-4h479v-219h-831v182l481 596v2h-446v219h807v-180z" />
    <glyph glyph-name="Zcaron" unicode="&#x17d;" horiz-adv-x="1277" 
d="M752 1602h-236l-233 307h247l103 -156h4l104 156h246zM471 256h696v-256h-1063v225l680 969v2h-651v258h1032v-219l-694 -975v-4z" />
    <glyph glyph-name="zcaron" unicode="&#x17e;" horiz-adv-x="995" 
d="M618 1135h-235l-233 307h247l103 -156h4l104 156h246zM918 819l-490 -596v-4h479v-219h-831v182l481 596v2h-446v219h807v-180z" />
    <glyph glyph-name="longs" unicode="&#x17f;" horiz-adv-x="704" 
d="M172 0v778h-104v221h104v172q0 173 82 264t233 91t258 -74l-53 -209q-85 43 -149 43q-103 0 -103 -133v-1153h-268z" />
    <glyph glyph-name="uni018F" unicode="&#x18f;" horiz-adv-x="1484" 
d="M702 1473q302 0 492 -207t190 -543q0 -215 -84 -384t-232 -262t-335 -93q-136 0 -252.5 48.5t-202.5 138.5t-135 225.5t-49 301.5q0 71 8 103h983q-20 187 -121 295t-257 108q-166 0 -308 -80l-135 238q199 111 438 111zM723 254q128 0 220.5 80t127.5 221h-688
q23 -135 116.5 -218t223.5 -83z" />
    <glyph glyph-name="florin" unicode="&#x192;" horiz-adv-x="1124" 
d="M217 -315q-111 0 -187 27t-112 61l94 182q78 -35 156 -35q66 0 105.5 41t52.5 137l82 639h-154l31 224h153l29 215q47 350 375 350q109 0 186 -28t113 -60l-94 -183q-84 33 -156 33q-66 0 -105.5 -41t-52.5 -137l-16 -149h270l-31 -224h-272l-90 -702
q-25 -176 -117.5 -263t-259.5 -87z" />
    <glyph glyph-name="uni019D" unicode="&#x19d;" horiz-adv-x="1546" 
d="M1098 1454h288v-1454h-294l-641 965h-5v-965v-55q0 -178 -82.5 -272.5t-230.5 -94.5q-111 0 -209 37l45 213q49 -27 88 -27q48 0 75.5 38.5t27.5 101.5v454v1059h286l650 -983h2v983z" />
    <glyph glyph-name="Ohorn" unicode="&#x1a0;" horiz-adv-x="1765" 
d="M1489 1585h250v-149q0 -141 -59.5 -233.5t-172.5 -129.5q74 -161 74 -346q0 -218 -95 -388t-263.5 -262.5t-380.5 -92.5q-162 0 -301 56t-235.5 154t-151 235.5t-54.5 297.5q0 214 93 384t262.5 266t386.5 96q178 0 325 -66t248 -188q34 18 51 54.5t20 70t3 98.5v143z
M844 252q188 0 313 135.5t125 339.5q0 205 -125 340t-313 135q-194 0 -319.5 -137t-125.5 -338t125.5 -338t319.5 -137z" />
    <glyph glyph-name="ohorn" unicode="&#x1a1;" horiz-adv-x="1398" 
d="M1128 1157h250v-149q0 -147 -64 -241t-184 -126l-2 -2q17 -77 17 -139q0 -229 -149.5 -372.5t-383.5 -143.5q-236 0 -383 145t-147 371t147 371t383 145q146 0 262.5 -58.5t186.5 -162.5q31 18 46.5 54.5t18 69t2.5 95.5v143zM612 223q110 0 185 78.5t75 198.5
q0 122 -73.5 199t-186.5 77q-116 0 -188 -78t-72 -198q0 -118 73.5 -197.5t186.5 -79.5z" />
    <glyph glyph-name="Uhorn" unicode="&#x1af;" horiz-adv-x="1671" 
d="M1448 1585h250v-149q0 -183 -99.5 -283t-279.5 -100v-451q0 -287 -156.5 -452.5t-435.5 -165.5q-266 0 -426 163t-160 455v852h289v-833q0 -161 79 -264t218 -103q135 0 219 98.5t84 268.5v833h289v-254q37 7 61.5 23.5t38 35t20 51.5t8 59.5t1.5 72.5v143z" />
    <glyph glyph-name="uhorn" unicode="&#x1b0;" horiz-adv-x="1437" 
d="M1167 1157h250v-149q0 -179 -95 -278.5t-267 -104.5v-625h-269v123h-4q-56 -68 -133.5 -103.5t-163.5 -35.5q-366 0 -366 413v602h266v-530q0 -135 42 -190.5t138 -55.5q93 0 157 76.5t64 214.5v485h269v-223q32 8 53.5 25t33 35.5t17.5 51t7 57t1 69.5v143z" />
    <glyph glyph-name="Gcaron" unicode="&#x1e6;" horiz-adv-x="1542" 
d="M934 1599h-236l-233 308h248l102 -156h4l105 156h245zM811 793h604v-627q-100 -81 -253.5 -130.5t-317.5 -49.5q-158 0 -293.5 50.5t-236 143.5t-157.5 233.5t-57 311.5q0 159 51 296.5t143.5 237.5t231 157t305.5 57q161 0 315.5 -63.5t262.5 -186.5l-205 -172
q-156 149 -373 149q-185 0 -307.5 -129t-122.5 -346q0 -133 53 -240.5t154.5 -171t235.5 -63.5q160 0 295 82v215h-328v246z" />
    <glyph glyph-name="gcaron" unicode="&#x1e7;" horiz-adv-x="1239" 
d="M725 1135h-236l-233 307h248l102 -156h4l105 156h246zM846 999h266v-884q0 -121 -28 -216t-88 -168.5t-162 -113t-242 -39.5q-232 0 -412 100l64 228q167 -94 323 -94q136 0 210.5 63t74.5 160v100h-6q-108 -117 -291 -117q-208 0 -342.5 137.5t-134.5 354.5
q0 221 131 363.5t332 142.5q180 0 299 -119h6v102zM604 260q110 0 181 73t71 187q0 113 -72 182.5t-180 69.5q-113 0 -183.5 -70t-70.5 -184q0 -116 72 -187t182 -71z" />
    <glyph glyph-name="uni01EA" unicode="&#x1ea;" horiz-adv-x="1681" 
d="M973 -6q-63 -18 -100 -58t-37 -83q0 -39 21.5 -61.5t62.5 -22.5q44 0 79 14l15 -145q-57 -25 -150 -25q-106 0 -168.5 51t-62.5 135q0 46 27 96.5t77 90.5v4q-287 34 -462 237t-175 500q0 214 93 384t262.5 266t386.5 96q159 0 296 -54.5t234.5 -151.5t153 -236.5
t55.5 -303.5q0 -294 -168 -492.5t-440 -240.5zM399 727q0 -201 125.5 -338t319.5 -137q188 0 313 135.5t125 339.5q0 205 -125 340t-313 135q-194 0 -319.5 -137t-125.5 -338z" />
    <glyph glyph-name="uni01EB" unicode="&#x1eb;" horiz-adv-x="1224" 
d="M694 -12q-57 -20 -90 -57.5t-33 -77.5q0 -39 21.5 -61.5t62.5 -22.5q45 0 80 14l15 -145q-57 -25 -150 -25q-106 0 -168.5 51t-62.5 135q0 49 29 101.5t83 91.5v4q-183 40 -291 176t-108 328q0 226 147 371t383 145q234 0 383.5 -143.5t149.5 -372.5
q0 -208 -124.5 -346.5t-326.5 -165.5zM352 500q0 -118 73.5 -197.5t186.5 -79.5q110 0 185 78.5t75 198.5q0 122 -73.5 199t-186.5 77q-116 0 -188 -78t-72 -198z" />
    <glyph glyph-name="Aringacute" unicode="&#x1fa;" horiz-adv-x="1429" 
d="M715 1559q-91 0 -155 61t-64 152q0 89 62.5 152t156.5 63q92 0 153 -58l123 94l287 2l-340 -270q-6 -85 -67.5 -140.5t-155.5 -55.5zM715 1851q-32 0 -54 -23t-22 -54q0 -32 22 -54t54 -22t55 23t23 55q0 31 -23 53t-55 22zM1096 0l-99 291h-559l-98 -291h-301l539 1454
h276l543 -1454h-301zM522 537h391l-194 571h-4z" />
    <glyph glyph-name="aringacute" unicode="&#x1fb;" horiz-adv-x="1243" 
d="M616 1094q-91 0 -155 61t-64 152q0 89 62.5 152t156.5 63q90 0 150 -54l131 99l285 2l-342 -271q-3 -86 -66 -145t-158 -59zM616 1386q-32 0 -53.5 -23t-21.5 -54q0 -32 21.5 -54t53.5 -22t55 23t23 55q0 31 -23 53t-55 22zM850 887v112h266v-999h-254v121h-6
q-106 -137 -299 -137q-209 0 -343 142t-134 372q0 226 134.5 372t336.5 146q185 0 293 -129h6zM606 223q107 0 180.5 76.5t73.5 196.5t-71.5 200t-180.5 80q-110 0 -184 -77t-74 -203q0 -121 71.5 -197t184.5 -76z" />
    <glyph glyph-name="AEacute" unicode="&#x1fc;" horiz-adv-x="1957" 
d="M1329 1909l-254 -303h-258l232 301zM1171 256h691v-256h-973v291h-430l-144 -291h-303l729 1454h1080v-258h-650v-346h529v-254h-529v-340zM580 537h309v614h-4z" />
    <glyph glyph-name="aeacute" unicode="&#x1fd;" horiz-adv-x="1624" 
d="M1192 1423l-254 -303h-258l231 301zM1569 510q0 -80 -8 -96l-656 -2q24 -88 86.5 -139.5t153.5 -51.5q110 0 198 107l187 -156q-67 -86 -171.5 -137t-230.5 -51q-206 0 -335 145h-7q-55 -63 -147 -104t-207 -41q-184 0 -277.5 84.5t-93.5 222.5q0 148 101 231t301 84h178
v15q0 94 -35.5 132t-109.5 38q-130 0 -256 -66l-109 199q57 31 162.5 61.5t218.5 30.5q213 0 293 -135h6q119 135 315 135q193 0 318 -143t125 -363zM1114 780q-76 0 -131 -45t-76 -129h398q-21 80 -71.5 127t-119.5 47zM461 195q75 0 127.5 48.5t52.5 98.5v78l-149 -2
q-81 0 -124.5 -28t-43.5 -83q0 -49 36 -80.5t101 -31.5z" />
    <glyph glyph-name="Oslashacute" unicode="&#x1fe;" horiz-adv-x="1681" 
d="M1217 1907l-254 -303h-258l231 301zM1593 1386l-166 -182q154 -201 154 -477q0 -218 -95 -388t-263.5 -262.5t-380.5 -92.5q-243 0 -426 120l-160 -176l-137 129l155 170q-174 202 -174 500q0 214 93 384t262.5 266t386.5 96q262 0 450 -140l164 178zM399 727
q0 -156 80 -278l619 671q-111 82 -254 82q-194 0 -319.5 -137t-125.5 -338zM1282 727q0 139 -61 252l-609 -662q100 -65 232 -65q188 0 313 135.5t125 339.5z" />
    <glyph glyph-name="oslashacute" unicode="&#x1ff;" horiz-adv-x="1224" 
d="M987 1442l-254 -303h-258l232 301zM1147 944l-109 -117q107 -138 107 -327q0 -229 -149.5 -372.5t-383.5 -143.5q-164 0 -288 73l-107 -114l-117 110l101 107q-119 141 -119 340q0 226 147 371t383 145q177 0 308 -84l110 121zM352 500q0 -72 33 -140l356 383
q-61 33 -129 33q-116 0 -188 -78t-72 -198zM872 500q0 68 -24 123l-348 -375q55 -25 112 -25q110 0 185 78.5t75 198.5z" />
    <glyph glyph-name="Scommaaccent" unicode="&#x218;" horiz-adv-x="1196" 
d="M598 -16q-146 0 -282.5 57t-247.5 172l172 213q78 -91 174 -136.5t188 -45.5q101 0 155 41.5t54 111.5q0 75 -55.5 116t-198.5 89q-53 19 -93.5 35.5t-88.5 41t-83 49.5t-69 59.5t-55.5 73t-35 89t-13.5 107.5q0 174 135 293.5t332 122.5q266 3 489 -185l-166 -217
q-173 143 -317 143q-77 0 -125.5 -39t-48.5 -106q-1 -63 52 -101.5t192 -93.5q181 -70 241 -103q134 -72 180 -179q29 -69 29 -162q0 -92 -30.5 -168t-81.5 -126.5t-118.5 -85.5t-138.5 -50.5t-145 -15.5zM444 -451l-55 152q61 17 87 43t26 70q0 23 -13 77h232q8 -39 8 -92
q0 -123 -79 -189.5t-206 -60.5z" />
    <glyph glyph-name="scommaaccent" unicode="&#x219;" horiz-adv-x="917" 
d="M459 -16q-235 0 -406 145l131 186q122 -116 277 -116q58 0 90.5 22.5t32.5 59.5q0 33 -39 55t-144 55q-54 18 -95.5 36.5t-83 46.5t-68 61t-43.5 79.5t-17 102.5q0 133 102.5 216t258.5 83q203 0 364 -125l-129 -197q-113 107 -239 107q-37 0 -68 -19.5t-31 -56.5
q0 -29 36.5 -53t115.5 -54q165 -61 221 -95q97 -60 117 -158q6 -32 6 -70q0 -139 -99.5 -225t-289.5 -86zM297 -451l-55 152q61 17 86.5 43t25.5 70q0 28 -12 77h231q9 -44 9 -92q0 -123 -79 -189.5t-206 -60.5z" />
    <glyph glyph-name="uni021A" unicode="&#x21a;" horiz-adv-x="1210" 
d="M461 0v1196h-402v258h1092v-258h-403v-1196h-287zM440 -451l-55 152q61 17 87 43t26 70q0 23 -13 77h232q8 -39 8 -92q0 -123 -79 -189.5t-206 -60.5z" />
    <glyph glyph-name="uni021B" unicode="&#x21b;" horiz-adv-x="763" 
d="M446 -16q-133 0 -208.5 83.5t-75.5 247.5v463h-119v221h119v328l266 29v-357h272v-221h-272v-426q0 -127 88 -127q59 0 127 35l70 -215q-58 -31 -116 -46t-151 -15zM270 -451l-55 152q61 17 87 43t26 70q0 23 -13 77h232q8 -39 8 -92q0 -123 -79 -189.5t-206 -60.5z" />
    <glyph glyph-name="uni0232" unicode="&#x232;" horiz-adv-x="1294" 
d="M963 1876v-215h-623v215h623zM942 1454h334l-485 -815v-639h-291v639l-482 815h330l297 -530h4z" />
    <glyph glyph-name="uni0233" unicode="&#x233;" horiz-adv-x="1103" 
d="M868 1409v-215h-622v215h622zM791 999h278l-539 -1405h-274l176 467l-397 938h278l246 -618h2z" />
    <glyph glyph-name="uni0237" unicode="&#x237;" horiz-adv-x="526" 
d="M106 -422q-118 0 -208 37l45 221q46 -24 88 -24q48 0 75 35.5t27 103.5v1048h268v-1058q0 -177 -79.5 -270t-215.5 -93z" />
    <glyph glyph-name="uni0259" unicode="&#x259;" horiz-adv-x="1146" 
d="M535 1016q149 0 269 -61t191.5 -180t71.5 -277q0 -226 -141.5 -370t-356.5 -144q-218 0 -353.5 142t-135.5 363q0 75 6 99h709q-24 95 -97 145.5t-178 50.5q-124 0 -252 -61l-104 201q177 92 371 92zM561 219q88 0 148.5 43.5t83.5 128.5h-447q17 -82 74.5 -127
t140.5 -45z" />
    <glyph glyph-name="uni0272" unicode="&#x272;" horiz-adv-x="1212" 
d="M727 1016q171 0 268 -101t97 -321v-594h-269v526q0 137 -47 193.5t-145 56.5q-104 0 -166 -71t-62 -201v-504v-55q0 -176 -79.5 -271.5t-214.5 -95.5q-119 0 -209 37l45 213q49 -27 88 -27q48 0 75 38.5t27 101.5v454v604h268v-129h5q125 146 319 146z" />
    <glyph glyph-name="circumflex" unicode="&#x2c6;" horiz-adv-x="966" 
d="M588 1092l-105 153h-4l-102 -153h-246l227 307h238l240 -307h-248z" />
    <glyph glyph-name="caron" unicode="&#x2c7;" horiz-adv-x="966" 
d="M590 1399h246l-236 -307h-235l-234 307h248l102 -156h4z" />
    <glyph glyph-name="breve" unicode="&#x2d8;" horiz-adv-x="944" 
d="M471 1085q-133 0 -227.5 82t-106.5 226h203q3 -56 38 -92.5t93 -36.5q56 0 92 35t39 94h205q-11 -135 -101.5 -221.5t-234.5 -86.5z" />
    <glyph glyph-name="dotaccent" unicode="&#x2d9;" horiz-adv-x="1026" 
d="M512 1098q-68 0 -117 48.5t-49 115.5t49 115t117 48q69 0 118.5 -48t49.5 -115t-49.5 -115.5t-118.5 -48.5z" />
    <glyph glyph-name="ring" unicode="&#x2da;" horiz-adv-x="942" 
d="M469 1051q-91 0 -155 61t-64 152q0 89 62.5 152t156.5 63q95 0 159 -61t64 -154q0 -90 -62.5 -151.5t-160.5 -61.5zM469 1190q32 0 55 23t23 55q0 31 -23 53t-55 22t-54 -23t-22 -54q0 -32 22 -54t54 -22z" />
    <glyph glyph-name="ogonek" unicode="&#x2db;" horiz-adv-x="968" 
d="M559 -387q-106 0 -168.5 51t-62.5 135q0 61 45 126t127 104l211 -27q-81 -10 -131 -54.5t-50 -94.5q0 -39 21.5 -61.5t62.5 -22.5q45 0 80 14l15 -145q-57 -25 -150 -25z" />
    <glyph glyph-name="tilde" unicode="&#x2dc;" horiz-adv-x="1019" 
d="M672 1087q-84 0 -178 62q-73 43 -113 43q-71 0 -115 -102l-160 69q32 108 95.5 173t150.5 65q15 0 30 -1.5t26 -3.5t25.5 -6.5t21 -6.5t21 -9.5t17.5 -9t18.5 -10t16.5 -9.5q27 -17 38 -23t32.5 -14t40.5 -8q72 0 117 101l155 -54q-32 -118 -93.5 -187t-145.5 -69z" />
    <glyph glyph-name="hungarumlaut" unicode="&#x2dd;" horiz-adv-x="1093" 
d="M94 1096l232 301l270 2l-254 -303h-248zM512 1096l231 301l271 2l-254 -303h-248z" />
    <glyph glyph-name="gravecomb" unicode="&#x300;" horiz-adv-x="0" 
d="M-31 1096l-252 303l281 -2l231 -301h-260z" />
    <glyph glyph-name="acutecomb" unicode="&#x301;" horiz-adv-x="0" 
d="M-215 1096l231 301l281 2l-254 -303h-258z" />
    <glyph glyph-name="uni0302" unicode="&#x302;" horiz-adv-x="0" 
d="M104 1092l-104 153h-4l-102 -153h-246l227 307h238l239 -307h-248z" />
    <glyph glyph-name="tildecomb" unicode="&#x303;" horiz-adv-x="0" 
d="M170 1087q-84 0 -178 62q-73 43 -113 43q-71 0 -115 -102l-159 69q32 108 95 173t150 65q14 0 26.5 -1t25 -3.5t21.5 -4t21 -6.5t18 -7t18.5 -8.5t15.5 -8t16.5 -9t14.5 -8.5q3 -2 8 -5q64 -40 102 -40q72 0 117 101l156 -54q-32 -118 -94 -187t-146 -69z" />
    <glyph glyph-name="uni0304" unicode="&#x304;" horiz-adv-x="0" 
d="M-309 1151v215h622v-215h-622z" />
    <glyph glyph-name="uni0306" unicode="&#x306;" horiz-adv-x="0" 
d="M0 1085q-133 0 -227.5 82t-106.5 226h203q3 -56 38 -92.5t93 -36.5q56 0 92 35t39 94h205q-11 -135 -101.5 -221.5t-234.5 -86.5z" />
    <glyph glyph-name="uni0307" unicode="&#x307;" horiz-adv-x="0" 
d="M0 1098q-68 0 -117 48.5t-49 115.5t49 115t117 48q69 0 118.5 -48t49.5 -115t-49.5 -115.5t-118.5 -48.5z" />
    <glyph glyph-name="uni0308" unicode="&#x308;" horiz-adv-x="0" 
d="M-217 1098q-69 0 -117.5 48t-48.5 116t48.5 115.5t117.5 47.5q68 0 117 -48t49 -115t-49 -115.5t-117 -48.5zM213 1100q-69 0 -117.5 48t-48.5 114t48.5 113.5t117.5 47.5q66 0 115 -47.5t49 -113.5t-49 -114t-115 -48z" />
    <glyph glyph-name="hookabovecomb" unicode="&#x309;" horiz-adv-x="0" 
d="M-72 1053q-37 37 -37 61q0 21 26.5 41t57.5 34t57.5 36t26.5 45q0 39 -59 39q-71 0 -137 -62l-92 88q42 42 110.5 70.5t138.5 28.5q100 0 155.5 -45.5t55.5 -116.5q0 -64 -47.5 -106.5t-136.5 -59.5l-14 -49z" />
    <glyph glyph-name="uni030A" unicode="&#x30a;" horiz-adv-x="0" 
d="M-4 1051q-91 0 -155 61t-64 152q0 89 62.5 152t156.5 63q95 0 159 -61t64 -154q0 -90 -62.5 -151.5t-160.5 -61.5zM-4 1190q32 0 55 23t23 55q0 31 -23 53t-55 22t-54 -23t-22 -54q0 -32 22 -54t54 -22z" />
    <glyph glyph-name="uni030B" unicode="&#x30b;" horiz-adv-x="0" 
d="M-330 1096l232 301l270 2l-254 -303h-248zM88 1096l231 301l271 2l-254 -303h-248z" />
    <glyph glyph-name="uni030C" unicode="&#x30c;" horiz-adv-x="0" 
d="M106 1399h246l-235 -307h-236l-233 307h248l102 -156h4z" />
    <glyph glyph-name="uni0312" unicode="&#x312;" horiz-adv-x="0" 
d="M168 1450l55 -150q-62 -19 -87 -44.5t-25 -69.5q0 -28 12 -78h-232q-8 41 -8 92q0 123 79 189.5t206 60.5z" />
    <glyph glyph-name="uni031B" unicode="&#x31b;" horiz-adv-x="0" 
d="M-45 922l-6 143q34 3 59.5 11t43 18.5t29.5 29.5t18 35.5t9.5 45.5t4 49.5t0.5 56.5v143h249v-149q0 -190 -106.5 -290.5t-300.5 -92.5z" />
    <glyph glyph-name="dotbelowcomb" unicode="&#x323;" horiz-adv-x="0" 
d="M0 -184q68 0 117 -48.5t49 -115.5t-49 -115.5t-117 -48.5q-69 0 -118.5 48.5t-49.5 115.5t49.5 115.5t118.5 48.5z" />
    <glyph glyph-name="uni0326" unicode="&#x326;" horiz-adv-x="0" 
d="M-168 -451l-55 152q61 17 86.5 43t25.5 70q0 28 -12 77h232q8 -39 8 -92q0 -123 -79 -189.5t-206 -60.5z" />
    <glyph glyph-name="uni0327" unicode="&#x327;" horiz-adv-x="0" 
d="M-10 -63q92 -3 141 -45.5t49 -120.5q0 -73 -62.5 -117.5t-189.5 -44.5q-63 0 -125 12v121q38 -14 107 -14q39 0 67.5 13.5t28.5 43.5q0 29 -43.5 47t-124.5 18v76l43 86h148l-41 -73z" />
    <glyph glyph-name="uni0328" unicode="&#x328;" horiz-adv-x="0" 
d="M-160 -387q-106 0 -168.5 51t-62.5 135q0 61 45 126t127 104l211 -27q-81 -10 -130.5 -54.5t-49.5 -94.5q0 -39 21.5 -61.5t62.5 -22.5q44 0 79 14l15 -145q-57 -25 -150 -25z" />
    <glyph glyph-name="uni0335" unicode="&#x335;" horiz-adv-x="0" 
d="M-293 451v172h592v-172h-592z" />
    <glyph glyph-name="uni0374" unicode="&#x374;" horiz-adv-x="579" 
d="M70 965l100 530h268l-149 -530h-219z" />
    <glyph glyph-name="uni0375" unicode="&#x375;" horiz-adv-x="569" 
d="M129 -317l100 530h269l-150 -530h-219z" />
    <glyph glyph-name="uni037E" unicode="&#x37e;" horiz-adv-x="516" 
d="M248 688q-69 0 -117.5 47.5t-48.5 114.5q0 68 48.5 116t117.5 48q68 0 117 -48.5t49 -115.5t-49 -114.5t-117 -47.5zM51 -272l64 532h274l-141 -532h-197z" />
    <glyph glyph-name="tonos" unicode="&#x384;" horiz-adv-x="952" 
d="M289 1096l112 354h297l-166 -354h-243z" />
    <glyph glyph-name="dieresistonos" unicode="&#x385;" horiz-adv-x="1159" 
d="M424 1096l10 354h228l-58 -354h-180zM207 1098q-69 0 -117.5 48t-48.5 116t48.5 115.5t117.5 47.5t117.5 -47.5t48.5 -115.5t-48.5 -116t-117.5 -48zM856 1100q-67 0 -115.5 48t-48.5 114q0 65 48.5 113t115.5 48q68 0 117 -47.5t49 -113.5t-49 -114t-117 -48z" />
    <glyph glyph-name="Alphatonos" unicode="&#x386;" horiz-adv-x="1429" 
d="M1096 0l-99 291h-559l-98 -291h-301l539 1454h276l543 -1454h-301zM385 1452l-201 -354h-239l143 354h297zM522 537h391l-194 571h-4z" />
    <glyph glyph-name="anoteleia" unicode="&#x387;" horiz-adv-x="550" 
d="M276 688q-69 0 -117 47t-48 115t48 116t117 48q68 0 117 -48.5t49 -115.5t-49 -114.5t-117 -47.5z" />
    <glyph glyph-name="Epsilontonos" unicode="&#x388;" horiz-adv-x="1228" 
d="M-393 1100l143 354h297l-201 -354h-239zM160 0v1454h930v-258h-648v-348h519v-254h-519v-338h691v-256h-973z" />
    <glyph glyph-name="Etatonos" unicode="&#x389;" horiz-adv-x="1492" 
d="M-393 1100l143 354h297l-201 -354h-239zM160 0v1454h289v-629h595v629h289v-1454h-289v567h-595v-567h-289z" />
    <glyph glyph-name="Iotatonos" unicode="&#x38a;" horiz-adv-x="628" 
d="M-391 1100l143 354h297l-201 -354h-239zM170 0v1454h289v-1454h-289z" />
    <glyph glyph-name="Omicrontonos" unicode="&#x38c;" horiz-adv-x="1681" 
d="M842 -16q-162 0 -301 56t-235.5 154t-151 235.5t-54.5 297.5q0 214 93 384t262.5 266t386.5 96q159 0 296 -54.5t234.5 -151.5t153 -236.5t55.5 -303.5q0 -218 -95 -388t-263.5 -262.5t-380.5 -92.5zM-238 1100l144 354h297l-201 -354h-240zM844 252q188 0 313 135.5
t125 339.5q0 205 -125 340t-313 135q-194 0 -319.5 -137t-125.5 -338t125.5 -338t319.5 -137z" />
    <glyph glyph-name="Upsilontonos" unicode="&#x38e;" horiz-adv-x="1294" 
d="M-494 1100l144 354h297l-201 -354h-240zM942 1454h334l-485 -815v-639h-291v639l-482 815h330l297 -530h4z" />
    <glyph glyph-name="Omegatonos" unicode="&#x38f;" horiz-adv-x="1564" 
d="M1208 260v-4h240v-256h-569v256q286 219 286 530q0 184 -106 302t-277 118q-171 -1 -277 -118.5t-106 -301.5q0 -310 287 -530v-256h-569v256h239v2q-123 105 -190.5 243.5t-67.5 297.5q0 144 49.5 268.5t138 214t217 140.5t279.5 51t279 -51t216 -140.5t137.5 -214
t49.5 -268.5q0 -159 -67 -297.5t-189 -241.5zM-133 1454h297l-201 -354h-239z" />
    <glyph glyph-name="iotadieresistonos" unicode="&#x390;" horiz-adv-x="606" 
d="M182 1139l11 354h227l-58 -354h-180zM-35 1141q-69 0 -117.5 48t-48.5 116t48.5 115.5t117.5 47.5t117.5 -47.5t48.5 -115.5t-48.5 -116t-117.5 -48zM614 1143q-67 0 -115 48t-48 114q0 65 48 113t115 48q68 0 117 -47.5t49 -113.5t-49 -114t-117 -48zM399 -16
q-258 0 -258 282v733h269v-677q0 -61 13 -80t50 -19q41 0 90 15l31 -215q-103 -39 -195 -39z" />
    <glyph glyph-name="Alpha" unicode="&#x391;" horiz-adv-x="1429" 
d="M1096 0l-99 291h-559l-98 -291h-301l539 1454h276l543 -1454h-301zM522 537h391l-194 571h-4z" />
    <glyph glyph-name="Beta" unicode="&#x392;" horiz-adv-x="1318" 
d="M940 772q142 -35 218.5 -131t76.5 -240q0 -180 -121.5 -290.5t-351.5 -110.5h-602v1454h524q232 0 353.5 -90.5t121.5 -263.5q0 -107 -53 -195t-166 -131v-2zM442 1200v-342h207q93 0 156 44t63 128q0 80 -58 125t-179 45h-189zM676 254q120 0 189 46.5t69 137.5
q0 89 -65 139t-191 50h-236v-373h234z" />
    <glyph glyph-name="Gamma" unicode="&#x393;" horiz-adv-x="1177" 
d="M160 0v1454h956v-256h-667v-1198h-289z" />
    <glyph glyph-name="uni0394" unicode="&#x394;" horiz-adv-x="1404" 
d="M846 1454l485 -1233v-221h-233h-996h-30v219l485 1235h289zM393 256h613l-301 838h-5z" />
    <glyph glyph-name="Epsilon" unicode="&#x395;" horiz-adv-x="1228" 
d="M160 0v1454h930v-258h-648v-348h519v-254h-519v-338h691v-256h-973z" />
    <glyph glyph-name="Zeta" unicode="&#x396;" horiz-adv-x="1277" 
d="M471 256h696v-256h-1063v225l680 969v2h-651v258h1032v-219l-694 -975v-4z" />
    <glyph glyph-name="Eta" unicode="&#x397;" horiz-adv-x="1492" 
d="M160 0v1454h289v-629h595v629h289v-1454h-289v567h-595v-567h-289z" />
    <glyph glyph-name="Theta" unicode="&#x398;" horiz-adv-x="1697" 
d="M842 -16q-162 0 -301 56t-235.5 154t-151 235.5t-54.5 297.5q0 214 93 384t262.5 266t386.5 96q159 0 296 -54.5t234.5 -151.5t153 -236.5t55.5 -303.5q0 -218 -95 -388t-263.5 -262.5t-380.5 -92.5zM844 252q188 0 313 135.5t125 339.5q0 205 -125 340t-313 135
q-194 0 -319.5 -137t-125.5 -338t125.5 -338t319.5 -137zM575 594v250h547v-250h-547z" />
    <glyph glyph-name="Iota" unicode="&#x399;" horiz-adv-x="628" 
d="M170 0v1454h289v-1454h-289z" />
    <glyph glyph-name="Kappa" unicode="&#x39a;" horiz-adv-x="1363" 
d="M592 584h-2l-144 -170v-414h-286v1454h286v-641h3l503 641h365l-537 -641l553 -813h-354z" />
    <glyph glyph-name="Lambda" unicode="&#x39b;" horiz-adv-x="1392" 
d="M1042 0l-346 1051h-4l-346 -1051h-307l514 1454h283l516 -1454h-310z" />
    <glyph glyph-name="Mu" unicode="&#x39c;" horiz-adv-x="1794" 
d="M1346 1454h288v-1454h-284v903h-4l-355 -627h-186l-354 627h-5v-903h-286v1454h291l446 -827h4z" />
    <glyph glyph-name="Nu" unicode="&#x39d;" horiz-adv-x="1546" 
d="M1098 1454h288v-1454h-294l-641 965h-5v-965h-286v1454h286l650 -983h2v983z" />
    <glyph glyph-name="Xi" unicode="&#x39e;" horiz-adv-x="1302" 
d="M125 1192v262h1053v-262h-1053zM238 594v252h821v-252h-821zM111 0v262h1081v-262h-1081z" />
    <glyph glyph-name="Omicron" unicode="&#x39f;" horiz-adv-x="1681" 
d="M842 -16q-162 0 -301 56t-235.5 154t-151 235.5t-54.5 297.5q0 214 93 384t262.5 266t386.5 96q159 0 296 -54.5t234.5 -151.5t153 -236.5t55.5 -303.5q0 -218 -95 -388t-263.5 -262.5t-380.5 -92.5zM844 252q188 0 313 135.5t125 339.5q0 205 -125 340t-313 135
q-194 0 -319.5 -137t-125.5 -338t125.5 -338t319.5 -137z" />
    <glyph glyph-name="Pi" unicode="&#x3a0;" horiz-adv-x="1433" 
d="M160 0v1454h1116v-1454h-291v1196h-536v-1196h-289z" />
    <glyph glyph-name="Rho" unicode="&#x3a1;" horiz-adv-x="1277" 
d="M160 0v1454h538q129 0 227 -36t158.5 -101.5t90.5 -152t30 -193.5q0 -233 -142.5 -353t-389.5 -120h-228v-498h-284zM444 754h191q132 0 201 59.5t69 163.5q0 102 -67 161.5t-191 59.5h-203v-444z" />
    <glyph glyph-name="Sigma" unicode="&#x3a3;" horiz-adv-x="1208" 
d="M1128 1198h-643v-4l340 -465l-342 -471v-2h645v-256h-1032v201l383 528l-383 516v209h1032v-256z" />
    <glyph glyph-name="Tau" unicode="&#x3a4;" horiz-adv-x="1210" 
d="M461 0v1196h-402v258h1092v-258h-403v-1196h-287z" />
    <glyph glyph-name="Upsilon" unicode="&#x3a5;" horiz-adv-x="1294" 
d="M942 1454h334l-485 -815v-639h-291v639l-482 815h330l297 -530h4z" />
    <glyph glyph-name="Phi" unicode="&#x3a6;" horiz-adv-x="1683" 
d="M1602 731q0 -247 -162 -405.5t-451 -190.5v-135h-287v135q-293 31 -455.5 189t-162.5 407q0 254 163.5 422t454.5 203v123h287v-123q288 -36 450.5 -204t162.5 -421zM377 733q0 -138 88 -230.5t246 -121.5v723q-158 -31 -246 -129.5t-88 -241.5zM981 383q154 29 240 121
t86 229q0 141 -86.5 240t-239.5 131v-721z" />
    <glyph glyph-name="Chi" unicode="&#x3a7;" horiz-adv-x="1437" 
d="M1049 0l-328 510h-4l-328 -510h-336l475 731l-460 723h329l320 -502h4l319 502h330l-461 -723l475 -731h-335z" />
    <glyph glyph-name="Psi" unicode="&#x3a8;" horiz-adv-x="1634" 
d="M1239 1454h281l-2 -526q0 -290 -143 -446.5t-417 -159.5v-322h-284v322q-270 3 -414 158.5t-143 447.5v526h280v-493q-1 -197 64.5 -288.5t212.5 -97.5v879h284v-879q143 6 211 97t68 289z" />
    <glyph glyph-name="uni03A9" unicode="&#x3a9;" horiz-adv-x="1564" 
d="M1208 260v-4h240v-256h-569v256q286 219 286 530q0 184 -106 302t-277 118q-171 -1 -277 -118.5t-106 -301.5q0 -310 287 -530v-256h-569v256h239v2q-123 105 -190.5 243.5t-67.5 297.5q0 144 49.5 268.5t138 214t217 140.5t279.5 51t279 -51t216 -140.5t137.5 -214
t49.5 -268.5q0 -159 -67 -297.5t-189 -241.5z" />
    <glyph glyph-name="Iotadieresis" unicode="&#x3aa;" horiz-adv-x="628" 
d="M94 1608q-70 0 -119 48t-49 116t49 115.5t119 47.5q68 0 117 -48t49 -115t-49 -115.5t-117 -48.5zM539 1610q-69 0 -117.5 48t-48.5 114q0 65 49 113t117 48q66 0 114.5 -47.5t48.5 -113.5t-48.5 -114t-114.5 -48zM170 0v1454h289v-1454h-289z" />
    <glyph glyph-name="Upsilondieresis" unicode="&#x3ab;" horiz-adv-x="1294" 
d="M422 1608q-70 0 -119 48t-49 116t49 115.5t119 47.5q68 0 117 -48t49 -115t-49 -115.5t-117 -48.5zM866 1610q-69 0 -117.5 48t-48.5 114q0 65 49 113t117 48q66 0 115 -47.5t49 -113.5t-49 -114t-115 -48zM942 1454h334l-485 -815v-639h-291v639l-482 815h330l297 -530
h4z" />
    <glyph glyph-name="alphatonos" unicode="&#x3ac;" horiz-adv-x="1224" 
d="M901 1493l-166 -354h-243l112 354h297zM1174 231l28 -211q-86 -36 -176 -36q-167 0 -203 149h-4q-98 -149 -295 -149q-204 0 -325 141.5t-121 372.5q0 227 128.5 372.5t328.5 145.5q203 0 305 -166h4l8 149h252l-55 -442v-227q0 -59 13.5 -84t49.5 -25q31 0 62 10z
M569 223q101 0 167.5 73.5t80.5 195.5v12q-1 127 -63.5 199.5t-167.5 72.5q-102 0 -169 -76.5t-67 -203.5q0 -121 59 -197t160 -76z" />
    <glyph glyph-name="epsilontonos" unicode="&#x3ad;" horiz-adv-x="1034" 
d="M809 1493l-166 -354h-244l113 354h297zM874 291l113 -189q-113 -71 -224.5 -94.5t-264.5 -23.5q-189 0 -299.5 75.5t-110.5 214.5q0 175 166 248q-66 37 -100.5 93t-34.5 116q0 130 101.5 206t291.5 79q285 0 457 -103l-101 -188q-154 62 -315 59q-168 0 -168 -84
q0 -34 38.5 -60.5t117.5 -27.5h168v-204h-185q-81 0 -120 -31t-39 -68q0 -94 204 -94q178 0 305 76z" />
    <glyph glyph-name="etatonos" unicode="&#x3ae;" horiz-adv-x="1204" 
d="M893 1493l-166 -354h-244l113 354h297zM721 1016q360 0 360 -426v-996h-268v928q0 132 -47.5 193t-140.5 61q-99 0 -159 -72t-60 -204v-500h-269v999h269v-129h2q61 70 143 108t170 38z" />
    <glyph glyph-name="iotatonos" unicode="&#x3af;" horiz-adv-x="606" 
d="M158 1139l112 354h297l-166 -354h-243zM399 -16q-258 0 -258 282v733h269v-677q0 -61 13 -80t50 -19q41 0 90 15l31 -215q-103 -39 -195 -39z" />
    <glyph glyph-name="upsilondieresistonos" unicode="&#x3b0;" horiz-adv-x="1155" 
d="M475 1139l10 354h228l-58 -354h-180zM258 1141q-69 0 -117.5 48t-48.5 116t48.5 115.5t117.5 47.5t117.5 -47.5t48.5 -115.5t-48.5 -116t-117.5 -48zM907 1143q-67 0 -115.5 48t-48.5 114q0 65 48.5 113t115.5 48q68 0 117 -47.5t49 -113.5t-49 -114t-117 -48zM578 -16
q-214 0 -337.5 127.5t-123.5 375.5v512h268v-493q0 -142 52 -212.5t141 -70.5q92 0 143 69.5t51 213.5v493h268v-512q0 -249 -122 -376t-340 -127z" />
    <glyph glyph-name="alpha" unicode="&#x3b1;" horiz-adv-x="1224" 
d="M1174 231l28 -211q-86 -36 -176 -36q-167 0 -203 149h-4q-98 -149 -295 -149q-204 0 -325 141.5t-121 372.5q0 227 128.5 372.5t328.5 145.5q203 0 305 -166h4l8 149h252l-55 -442v-227q0 -59 13.5 -84t49.5 -25q31 0 62 10zM569 223q101 0 167.5 73.5t80.5 195.5v12
q-1 127 -63.5 199.5t-167.5 72.5q-102 0 -169 -76.5t-67 -203.5q0 -121 59 -197t160 -76z" />
    <glyph glyph-name="beta" unicode="&#x3b2;" horiz-adv-x="1226" 
d="M915 819q110 -54 174 -152.5t64 -215.5q0 -216 -127 -341.5t-340 -125.5q-173 0 -278 102h-2v-492h-269v1407q0 257 130.5 391t348.5 134q214 0 337.5 -110.5t123.5 -276.5q0 -224 -162 -318v-2zM647 211q106 0 171 63t65 166q0 98 -72.5 166t-198.5 68h-73v217h59
q53 1 94 16t64 37t37.5 52t19 56t4.5 54q0 78 -50 130t-142 52q-45 0 -82.5 -14t-69 -43.5t-49.5 -82.5t-18 -124v-561q0 -102 69 -177t172 -75z" />
    <glyph glyph-name="gamma" unicode="&#x3b3;" horiz-adv-x="1103" 
d="M1069 999l-385 -1003q10 -36 16.5 -75t9 -86.5t3.5 -77t1.5 -87t0.5 -76.5h-262q0 14 -0.5 65.5t-1 73.5t-4 70.5t-9.5 82t-18 80t-29 91.5l-356 942h284l234 -686h4l227 686h285z" />
    <glyph glyph-name="delta" unicode="&#x3b4;" horiz-adv-x="1181" 
d="M813 954q45 -26 84.5 -56t79.5 -73.5t68.5 -92t46.5 -113t18 -134.5q0 -227 -144.5 -364t-365.5 -137q-231 0 -376.5 140t-145.5 365q0 150 75.5 265.5t202.5 185.5q-145 119 -145 277q0 132 104.5 220t286.5 89q268 0 453 -107l-103 -205q-151 80 -325 80
q-68 0 -110 -20.5t-42 -65.5q0 -43 38.5 -76.5t137.5 -87.5q111 -59 162 -90zM600 223q101 0 169.5 69t68.5 189q0 193 -234 307q-16 7 -51 29q-94 -51 -148.5 -136t-54.5 -192q0 -117 69 -191.5t181 -74.5z" />
    <glyph glyph-name="epsilon" unicode="&#x3b5;" horiz-adv-x="1034" 
d="M874 291l113 -189q-113 -71 -224.5 -94.5t-264.5 -23.5q-189 0 -299.5 75.5t-110.5 214.5q0 175 166 248q-66 37 -100.5 93t-34.5 116q0 130 101.5 206t291.5 79q285 0 457 -103l-101 -188q-154 62 -315 59q-168 0 -168 -84q0 -34 38.5 -60.5t117.5 -27.5h168v-204h-185
q-81 0 -120 -31t-39 -68q0 -94 204 -94q178 0 305 76z" />
    <glyph glyph-name="zeta" unicode="&#x3b6;" horiz-adv-x="966" 
d="M965 1309q-267 -207 -441.5 -429.5t-177.5 -398.5q0 -25 4.5 -47.5t11 -40t22 -34t27 -28t36.5 -25.5t40 -21.5t49 -20.5t51.5 -19t57.5 -20q95 -31 158 -65t98 -73.5t48.5 -81t13.5 -95.5q0 -182 -175 -361l-223 115q43 46 62.5 69t41 63.5t21.5 74.5q0 49 -45.5 85
t-177.5 73q-66 19 -115.5 39t-104.5 56t-90 81.5t-58 115.5t-23 158q5 356 522 801h-446v227h813v-198z" />
    <glyph glyph-name="eta" unicode="&#x3b7;" horiz-adv-x="1204" 
d="M721 1016q360 0 360 -426v-996h-268v928q0 132 -47.5 193t-140.5 61q-99 0 -159 -72t-60 -204v-500h-269v999h269v-129h2q61 70 143 108t170 38z" />
    <glyph glyph-name="theta" unicode="&#x3b8;" horiz-adv-x="1214" 
d="M606 1526q117 0 212 -46t167.5 -137.5t112 -241t39.5 -345.5q0 -133 -18 -247t-58.5 -212t-101.5 -166.5t-151 -107.5t-202 -39q-116 0 -210.5 45t-166 136t-110.5 241.5t-39 349.5q0 164 29.5 300t90 243t164 167t242.5 60zM606 1288q-112 0 -176 -109t-78 -309h510
q-14 200 -78 309t-178 109zM606 219q114 0 179 110.5t77 319.5h-512q12 -206 76.5 -318t179.5 -112z" />
    <glyph glyph-name="iota" unicode="&#x3b9;" horiz-adv-x="606" 
d="M399 -16q-258 0 -258 282v733h269v-677q0 -61 13 -80t50 -19q41 0 90 15l31 -215q-103 -39 -195 -39z" />
    <glyph glyph-name="kappa" unicode="&#x3ba;" horiz-adv-x="1189" 
d="M549 389h-4l-142 -143v-246h-268v999h268v-413h3l407 413h332l-412 -419l436 -580h-323z" />
    <glyph glyph-name="lambda" unicode="&#x3bb;" horiz-adv-x="1142" 
d="M827 0q-40 116 -115 339t-112 331h-2l-268 -670h-289l432 1004l-55 145q-26 77 -63 108t-87 31q-62 0 -121 -18l-34 217q123 39 223 39q123 0 200.5 -77t145.5 -255q194 -520 426 -1194h-281z" />
    <glyph glyph-name="uni03BC" unicode="&#x3bc;" horiz-adv-x="1191" 
d="M799 999h268v-999h-248l-14 125h-4q-110 -141 -273 -141q-96 0 -149 47l-2 -2q18 -108 18 -228v-207h-266v1405h266v-512q0 -264 193 -264q92 0 151.5 73.5t59.5 203.5v499z" />
    <glyph glyph-name="nu" unicode="&#x3bd;" horiz-adv-x="1105" 
d="M786 999h285l-391 -999h-252l-393 999h282l236 -671h2z" />
    <glyph glyph-name="xi" unicode="&#x3be;" horiz-adv-x="1021" 
d="M676 221q172 -64 240.5 -136.5t68.5 -178.5q0 -90 -53 -189.5t-121 -167.5l-223 115q127 136 127 209q0 44 -43 77t-150 70q-74 25 -128.5 48t-117 61.5t-102 81.5t-66 106.5t-26.5 139.5q0 106 65 202t179 154v2q-174 113 -174 313q0 80 26 147t69.5 112.5t101 77.5
t119.5 46.5t126 14.5q239 0 424 -107l-105 -213q-151 80 -295 80q-94 0 -146 -50.5t-52 -123.5q0 -205 368 -205h109v-223h-229q-149 0 -231.5 -60.5t-82.5 -150.5q0 -83 73.5 -135t248.5 -117z" />
    <glyph glyph-name="omicron" unicode="&#x3bf;" horiz-adv-x="1198" 
d="M600 -16q-230 0 -376 143.5t-146 372.5t146 372.5t376 143.5t375 -143.5t145 -372.5t-145 -372.5t-375 -143.5zM598 223q107 0 179.5 78.5t72.5 198.5q0 122 -72 199t-180 77q-107 0 -178.5 -77t-71.5 -199q0 -120 72 -198.5t178 -78.5z" />
    <glyph glyph-name="pi" unicode="&#x3c0;" horiz-adv-x="1277" 
d="M1233 999v-227h-162v-772h-266v772h-330v-772h-266v772h-158v227h1182z" />
    <glyph glyph-name="rho" unicode="&#x3c1;" horiz-adv-x="1228" 
d="M623 1016q149 0 270 -65.5t190.5 -184t69.5 -268.5q0 -228 -132 -371t-335 -143q-181 0 -293 106h-6v-496h-268v904q0 227 136.5 372.5t367.5 145.5zM625 223q112 0 185 77t73 196q0 124 -74.5 202t-185.5 78q-105 0 -176.5 -80.5t-71.5 -199.5q0 -121 72.5 -197
t177.5 -76z" />
    <glyph glyph-name="uni03C2" unicode="&#x3c2;" horiz-adv-x="1044" 
d="M784 -451l-225 115q34 34 49 50t37 44.5t30.5 55t8.5 55.5q0 46 -36.5 77t-141.5 70q-63 24 -110.5 46t-101 54t-91 71t-69.5 88t-48 113.5t-16 141.5q0 218 147 352t385 134q121 0 233.5 -49t186.5 -142l-180 -155q-96 106 -232 106q-123 0 -195.5 -69t-72.5 -179
q0 -109 76 -176.5t241 -128.5q169 -62 233 -134.5t64 -182.5q0 -57 -14.5 -109.5t-45.5 -101t-52 -75.5t-60 -71z" />
    <glyph glyph-name="sigma" unicode="&#x3c3;" horiz-adv-x="1232" 
d="M1200 776h-235v-4q145 -132 145 -317q0 -207 -143.5 -339t-372.5 -132q-226 0 -369 138t-143 367q0 227 146 368.5t382 141.5h590v-223zM598 223q109 0 174.5 74.5t65.5 191.5q0 171 -133 287h-93q-115 0 -187.5 -81t-72.5 -206q0 -121 72 -193.5t174 -72.5z" />
    <glyph glyph-name="tau" unicode="&#x3c4;" horiz-adv-x="962" 
d="M590 -16q-289 0 -289 333v459h-264v223h872v-223h-338v-409q0 -79 22.5 -111.5t82.5 -32.5q57 0 135 37l66 -213q-126 -63 -287 -63z" />
    <glyph glyph-name="upsilon" unicode="&#x3c5;" horiz-adv-x="1155" 
d="M578 -16q-214 0 -337.5 127.5t-123.5 375.5v512h268v-493q0 -142 52 -212.5t141 -70.5q92 0 143 69.5t51 213.5v493h268v-512q0 -249 -122 -376t-340 -127z" />
    <glyph glyph-name="phi" unicode="&#x3c6;" horiz-adv-x="1472" 
d="M1395 541q0 -150 -63 -271t-187.5 -196t-290.5 -80v-400h-266v400q-223 8 -362.5 149.5t-139.5 374.5q0 156 46 274t134 234l258 -57q-81 -96 -126.5 -209.5t-45.5 -216.5q0 -133 62.5 -217t175.5 -101v359q0 208 97 320t257 112q208 0 329.5 -132.5t121.5 -342.5z
M852 221q131 13 202.5 101.5t71.5 214.5q0 95 -42 169t-109 74q-33 0 -56.5 -13t-36 -32.5t-19.5 -50.5t-9 -57t-2 -62v-344z" />
    <glyph glyph-name="chi" unicode="&#x3c7;" horiz-adv-x="1091" 
d="M1059 -178l31 -211q-73 -33 -162 -33q-107 0 -169 59t-118 193l-96 223h-2l-232 -459h-288l397 723l-180 359q-27 55 -55 78.5t-70 23.5q-22 0 -52 -6l-34 213q74 31 166 31q101 0 160.5 -57t113.5 -181l84 -203h2l215 424h287l-377 -680l199 -399q28 -56 56 -81t64 -25
q4 0 60 8z" />
    <glyph glyph-name="psi" unicode="&#x3c8;" horiz-adv-x="1484" 
d="M1112 999h262v-518q0 -122 -37 -217t-103.5 -155.5t-156.5 -92.5t-200 -34v-388h-267v388q-227 5 -363 131.5t-136 367.5v518h262v-495q0 -134 66 -204t173 -73v1084h262v-1084q106 5 172 75t66 202v495z" />
    <glyph glyph-name="omega" unicode="&#x3c9;" horiz-adv-x="1554" 
d="M1288 1028q42 -54 71 -101t57.5 -113.5t42.5 -151t14 -187.5q0 -226 -115 -358.5t-277 -132.5q-215 0 -301 172h-6q-86 -172 -301 -172q-78 0 -148.5 33t-124.5 94t-86 155t-32 209q0 102 14 187t42 151.5t56 113.5t70 101l244 -47q-65 -98 -109.5 -228.5t-44.5 -250.5
q0 -135 43 -207t115 -72q62 0 101.5 73.5t39.5 203.5v250h246v-250q0 -130 40.5 -203.5t102.5 -73.5q72 0 115 72t43 207q0 120 -44.5 249.5t-108.5 229.5z" />
    <glyph glyph-name="iotadieresis" unicode="&#x3ca;" horiz-adv-x="606" 
d="M57 1141q-70 0 -119 48t-49 116t49 115.5t119 47.5q68 0 117 -48t49 -115t-49 -115.5t-117 -48.5zM502 1143q-69 0 -117.5 48t-48.5 114q0 65 49 113t117 48q66 0 115 -47.5t49 -113.5t-49 -114t-115 -48zM399 -16q-258 0 -258 282v733h269v-677q0 -61 13 -80t50 -19
q41 0 90 15l31 -215q-103 -39 -195 -39z" />
    <glyph glyph-name="upsilondieresis" unicode="&#x3cb;" horiz-adv-x="1155" 
d="M350 1141q-70 0 -119 48t-49 116t49 115.5t119 47.5q68 0 117 -48t49 -115t-49 -115.5t-117 -48.5zM795 1143q-69 0 -117.5 48t-48.5 114q0 65 49 113t117 48q66 0 114.5 -47.5t48.5 -113.5t-48.5 -114t-114.5 -48zM578 -16q-214 0 -337.5 127.5t-123.5 375.5v512h268
v-493q0 -142 52 -212.5t141 -70.5q92 0 143 69.5t51 213.5v493h268v-512q0 -249 -122 -376t-340 -127z" />
    <glyph glyph-name="omicrontonos" unicode="&#x3cc;" horiz-adv-x="1198" 
d="M477 1139l113 354h297l-166 -354h-244zM600 -16q-230 0 -376 143.5t-146 372.5t146 372.5t376 143.5t375 -143.5t145 -372.5t-145 -372.5t-375 -143.5zM598 223q107 0 179.5 78.5t72.5 198.5q0 122 -72 199t-180 77q-107 0 -178.5 -77t-71.5 -199q0 -120 72 -198.5
t178 -78.5z" />
    <glyph glyph-name="upsilontonos" unicode="&#x3cd;" horiz-adv-x="1155" 
d="M451 1139l112 354h297l-166 -354h-243zM578 -16q-214 0 -337.5 127.5t-123.5 375.5v512h268v-493q0 -142 52 -212.5t141 -70.5q92 0 143 69.5t51 213.5v493h268v-512q0 -249 -122 -376t-340 -127z" />
    <glyph glyph-name="omegatonos" unicode="&#x3ce;" horiz-adv-x="1554" 
d="M1067 1493l-166 -354h-244l113 354h297zM1288 1028q42 -54 71 -101t57.5 -113.5t42.5 -151t14 -187.5q0 -226 -115 -358.5t-277 -132.5q-215 0 -301 172h-6q-86 -172 -301 -172q-78 0 -148.5 33t-124.5 94t-86 155t-32 209q0 102 14 187t42 151.5t56 113.5t70 101
l244 -47q-65 -98 -109.5 -228.5t-44.5 -250.5q0 -135 43 -207t115 -72q62 0 101.5 73.5t39.5 203.5v250h246v-250q0 -130 40.5 -203.5t102.5 -73.5q72 0 115 72t43 207q0 120 -44.5 249.5t-108.5 229.5z" />
    <glyph glyph-name="uni03D7" unicode="&#x3d7;" horiz-adv-x="1220" 
d="M725 580q73 -197 173 -287.5t294 -126.5v-150q-156 -170 -270.5 -264.5t-239 -144t-270.5 -49.5q-237 0 -398 92l47 223q68 -48 154 -74t160 -26q241 0 481 217v4q-108 63 -188.5 162.5t-124.5 224.5h-2l-138 -150v-231h-268v999h268v-419h3l380 419h324z" />
    <glyph glyph-name="Wgrave" unicode="&#x1e80;" horiz-adv-x="2115" 
d="M1186 1606h-260l-252 303l280 -2zM1755 1454h307l-458 -1454h-267l-272 1034h-6l-283 -1034h-264l-459 1454h307l283 -983h4l258 983h305l258 -983h2z" />
    <glyph glyph-name="wgrave" unicode="&#x1e81;" horiz-adv-x="1581" 
d="M920 1139h-261l-251 303l280 -2zM1272 999h268l-340 -999h-231l-176 616h-5l-176 -616h-229l-342 999h268l195 -608h4l174 608h215l176 -608h4z" />
    <glyph glyph-name="Wacute" unicode="&#x1e82;" horiz-adv-x="2115" 
d="M1450 1909l-254 -303h-258l231 301zM1755 1454h307l-458 -1454h-267l-272 1034h-6l-283 -1034h-264l-459 1454h307l283 -983h4l258 983h305l258 -983h2z" />
    <glyph glyph-name="wacute" unicode="&#x1e83;" horiz-adv-x="1581" 
d="M1180 1442l-254 -303h-258l231 301zM1272 999h268l-340 -999h-231l-176 616h-5l-176 -616h-229l-342 999h268l195 -608h4l174 608h215l176 -608h4z" />
    <glyph glyph-name="Wdieresis" unicode="&#x1e84;" horiz-adv-x="2115" 
d="M844 1608q-69 0 -117.5 48t-48.5 116t48.5 115.5t117.5 47.5q68 0 117 -48t49 -115t-49 -115.5t-117 -48.5zM1274 1610q-69 0 -117.5 48t-48.5 114t48.5 113.5t117.5 47.5q66 0 115 -47.5t49 -113.5t-49 -114t-115 -48zM1755 1454h307l-458 -1454h-267l-272 1034h-6
l-283 -1034h-264l-459 1454h307l283 -983h4l258 983h305l258 -983h2z" />
    <glyph glyph-name="wdieresis" unicode="&#x1e85;" horiz-adv-x="1581" 
d="M573 1141q-69 0 -117 48t-48 116t48 115.5t117 47.5q68 0 117 -48t49 -115t-49 -115.5t-117 -48.5zM1004 1143q-69 0 -117.5 48t-48.5 114t48.5 113.5t117.5 47.5q66 0 114.5 -47.5t48.5 -113.5t-48.5 -114t-114.5 -48zM1272 999h268l-340 -999h-231l-176 616h-5
l-176 -616h-229l-342 999h268l195 -608h4l174 608h215l176 -608h4z" />
    <glyph glyph-name="uni1E9E" unicode="&#x1e9e;" horiz-adv-x="1581" 
d="M1100 868q179 -69 245 -108q131 -77 169 -198q18 -58 18 -132q0 -91 -31 -167.5t-80.5 -127t-114.5 -85.5t-131 -50.5t-131 -15.5q-114 0 -230.5 42.5t-219.5 127.5l131 247q76 -76 164 -116.5t158 -40.5q87 0 135.5 42t48.5 111q0 77 -54 117t-198 90q-116 39 -244 109
h-4l252 481v2q-182 21 -270 21q-147 0 -221.5 -61.5t-75.5 -203.5v-952h-285v967q3 506 557 506q129 0 317 -27.5t361 -71.5l-266 -502v-4z" />
    <glyph glyph-name="uni1EA0" unicode="&#x1ea0;" horiz-adv-x="1429" 
d="M1397 0h-301l-99 291h-559l-98 -291h-301l539 1454h276zM522 537h391l-194 571h-4zM717 -184q68 0 117 -48.5t49 -115.5t-49 -115.5t-117 -48.5q-69 0 -118.5 48.5t-49.5 115.5t49.5 115.5t118.5 48.5z" />
    <glyph glyph-name="uni1EA1" unicode="&#x1ea1;" horiz-adv-x="1243" 
d="M850 999h266v-999h-254v121h-6q-106 -137 -299 -137q-209 0 -343 142t-134 372q0 226 134.5 372t336.5 146q185 0 293 -129h6v112zM606 223q107 0 180.5 76.5t73.5 196.5t-71.5 200t-180.5 80q-110 0 -184 -77t-74 -203q0 -121 71.5 -197t184.5 -76zM602 -184
q68 0 117 -48.5t49 -115.5t-49 -115.5t-117 -48.5q-69 0 -118.5 48.5t-49.5 115.5t49.5 115.5t118.5 48.5z" />
    <glyph glyph-name="uni1EA2" unicode="&#x1ea2;" horiz-adv-x="1429" 
d="M717 1819q-71 0 -137 -62l-93 88q42 42 110.5 70.5t139.5 28.5q100 0 155.5 -45.5t55.5 -116.5q0 -64 -47.5 -106.5t-136.5 -59.5l-14 -49l-105 -4q-37 37 -37 61q0 21 26 41t58 34t58 36t26 45q0 39 -59 39zM1096 0l-99 291h-559l-98 -291h-301l539 1454h276l543 -1454
h-301zM522 537h391l-194 571h-4z" />
    <glyph glyph-name="uni1EA3" unicode="&#x1ea3;" horiz-adv-x="1243" 
d="M618 1352q-71 0 -137 -62l-92 88q42 42 110.5 70.5t139.5 28.5q100 0 155.5 -45.5t55.5 -116.5q0 -64 -47.5 -106.5t-136.5 -59.5l-15 -49l-104 -4q-37 37 -37 61q0 21 26 41t58 34t58 36t26 45q0 39 -60 39zM850 999h266v-999h-254v121h-6q-106 -137 -299 -137
q-209 0 -343 142t-134 372q0 226 134.5 372t336.5 146q185 0 293 -129h6v112zM606 223q107 0 180.5 76.5t73.5 196.5t-71.5 200t-180.5 80q-110 0 -184 -77t-74 -203q0 -121 71.5 -197t184.5 -76z" />
    <glyph glyph-name="uni1EA4" unicode="&#x1ea4;" horiz-adv-x="1429" 
d="M1524 1964l-305 -301h-201l231 299zM713 1722l-103 -153h-245l227 307h237l240 -307h-248l-104 153h-4zM578 1454h276l543 -1454h-301l-99 291h-559l-98 -291h-301zM522 537h391l-194 571h-4z" />
    <glyph glyph-name="uni1EA5" unicode="&#x1ea5;" horiz-adv-x="1243" 
d="M1366 1628l-305 -301h-201l232 301h274zM614 1288l-102 -153h-246l228 307h237l240 -307h-248l-105 153h-4zM850 887v112h266v-999h-254v121h-6q-106 -137 -299 -137q-209 0 -343 142t-134 372q0 226 134.5 372t336.5 146q185 0 293 -129h6zM606 223q107 0 180.5 76.5
t73.5 196.5t-71.5 200t-180.5 80q-110 0 -184 -77t-74 -203q0 -121 71.5 -197t184.5 -76z" />
    <glyph glyph-name="uni1EA6" unicode="&#x1ea6;" horiz-adv-x="1429" 
d="M1323 1663h-197l-247 301h270zM715 1722l-103 -153h-245l227 307h237l240 -307h-248l-104 153h-4zM1096 0l-99 291h-559l-98 -291h-301l539 1454h276l543 -1454h-301zM522 537h391l-194 571h-4z" />
    <glyph glyph-name="uni1EA7" unicode="&#x1ea7;" horiz-adv-x="1243" 
d="M1139 1329h-197l-248 301l271 -2zM614 1288l-102 -153h-246l228 307h237l240 -307h-248l-105 153h-4zM850 887v112h266v-999h-254v121h-6q-106 -137 -299 -137q-209 0 -343 142t-134 372q0 226 134.5 372t336.5 146q185 0 293 -129h6zM606 223q107 0 180.5 76.5
t73.5 196.5t-71.5 200t-180.5 80q-110 0 -184 -77t-74 -203q0 -121 71.5 -197t184.5 -76z" />
    <glyph glyph-name="uni1EA8" unicode="&#x1ea8;" horiz-adv-x="1429" 
d="M1165 1855q-78 0 -139 -61l-92 90q41 41 110 68.5t142 27.5q93 0 145.5 -44.5t52.5 -116.5q0 -62 -46.5 -104t-127.5 -60l-14 -51l-102 -2q-39 31 -39 61q0 21 25 41t54.5 34t54.5 36t25 45q0 36 -49 36zM713 1722l-103 -153h-245l227 307h237l240 -307h-248l-104 153h-4
zM1096 0l-99 291h-559l-98 -291h-301l539 1454h276l543 -1454h-301zM522 537h391l-194 571h-4z" />
    <glyph glyph-name="uni1EA9" unicode="&#x1ea9;" horiz-adv-x="1243" 
d="M1006 1653q93 0 146.5 -45.5t53.5 -116.5q0 -61 -46.5 -104t-127.5 -62l-16 -49l-103 -4q-39 39 -39 63q0 20 25.5 40t55.5 33.5t55.5 35.5t25.5 45q0 39 -51 39q-35 0 -73 -18t-64 -44l-94 88q42 42 111.5 70.5t140.5 28.5zM614 1288l-102 -153h-246l228 307h237
l240 -307h-248l-105 153h-4zM850 887v112h266v-999h-254v121h-6q-106 -137 -299 -137q-209 0 -343 142t-134 372q0 226 134.5 372t336.5 146q185 0 293 -129h6zM606 223q107 0 180.5 76.5t73.5 196.5t-71.5 200t-180.5 80q-110 0 -184 -77t-74 -203q0 -121 71.5 -197
t184.5 -76z" />
    <glyph glyph-name="uni1EAA" unicode="&#x1eaa;" horiz-adv-x="1429" 
d="M592 1860q-22 0 -45.5 -20t-42.5 -54l-127 45q29 72 81 115t117 43q19 0 37.5 -3t37 -9.5t29 -10.5t31 -14.5t25.5 -12.5q58 -26 92 -26q62 0 103 74l125 -33q-28 -79 -83 -124.5t-126 -45.5q-70 0 -150 43q-76 33 -104 33zM709 1634l-121 -125h-236l246 240h221
l258 -240h-237l-123 125h-8zM1096 0l-99 291h-559l-98 -291h-301l539 1454h276l543 -1454h-301zM522 537h391l-194 571h-4z" />
    <glyph glyph-name="uni1EAB" unicode="&#x1eab;" horiz-adv-x="1243" 
d="M510 1579q-52 0 -96 -102l-160 69q32 106 91 172t132 66q21 0 40 -2.5t31 -5.5t28.5 -10.5t23 -11t23 -13.5t20.5 -12q2 -1 10.5 -6.5t11.5 -7t10.5 -6.5t11 -6.5t10.5 -5t11.5 -5t11 -4t12 -3t12 -1.5t12.5 -1q69 0 114 101l158 -53q-32 -117 -94.5 -186.5t-145.5 -69.5
q-84 0 -180 61q-8 5 -25 16t-24.5 15t-21 8t-27.5 4zM494 1442h237l240 -307h-248l-105 153h-4l-102 -153h-246zM850 999h266v-999h-254v121h-6q-106 -137 -299 -137q-209 0 -343 142t-134 372q0 226 134.5 372t336.5 146q185 0 293 -129h6v112zM606 223q107 0 180.5 76.5
t73.5 196.5t-71.5 200t-180.5 80q-110 0 -184 -77t-74 -203q0 -121 71.5 -197t184.5 -76z" />
    <glyph glyph-name="uni1EAC" unicode="&#x1eac;" horiz-adv-x="1429" 
d="M713 1755l-103 -153h-245l227 307h237l240 -307h-248l-104 153h-4zM1397 0h-301l-99 291h-559l-98 -291h-301l539 1454h276zM522 537h391l-194 571h-4zM717 -184q68 0 117 -48.5t49 -115.5t-49 -115.5t-117 -48.5q-69 0 -118.5 48.5t-49.5 115.5t49.5 115.5t118.5 48.5z
" />
    <glyph glyph-name="uni1EAD" unicode="&#x1ead;" horiz-adv-x="1243" 
d="M614 1288l-102 -153h-246l228 307h237l240 -307h-248l-105 153h-4zM850 999h266v-999h-254v121h-6q-106 -137 -299 -137q-209 0 -343 142t-134 372q0 226 134.5 372t336.5 146q185 0 293 -129h6v112zM606 223q107 0 180.5 76.5t73.5 196.5t-71.5 200t-180.5 80
q-110 0 -184 -77t-74 -203q0 -121 71.5 -197t184.5 -76zM602 -184q68 0 117 -48.5t49 -115.5t-49 -115.5t-117 -48.5q-69 0 -118.5 48.5t-49.5 115.5t49.5 115.5t118.5 48.5z" />
    <glyph glyph-name="uni1EAE" unicode="&#x1eae;" horiz-adv-x="1429" 
d="M1102 1946l-299 -213h-193l207 211zM717 1511q-134 0 -224.5 63t-125.5 181h174q18 -52 64.5 -79t111.5 -27t111.5 27t64.5 79h174q-34 -118 -125 -181t-225 -63zM1096 0l-99 291h-559l-98 -291h-301l539 1454h276l543 -1454h-301zM522 537h391l-194 571h-4z" />
    <glyph glyph-name="uni1EAF" unicode="&#x1eaf;" horiz-adv-x="1243" 
d="M952 1776l-254 -303h-258l232 301zM608 1128q-133 0 -227.5 82t-106.5 226h203q3 -56 38 -92.5t93 -36.5q56 0 92 35t39 94h205q-11 -135 -101.5 -221.5t-234.5 -86.5zM850 999h266v-999h-254v121h-6q-106 -137 -299 -137q-209 0 -343 142t-134 372q0 226 134.5 372
t336.5 146q185 0 293 -129h6v112zM606 223q107 0 180.5 76.5t73.5 196.5t-71.5 200t-180.5 80q-110 0 -184 -77t-74 -203q0 -121 71.5 -197t184.5 -76z" />
    <glyph glyph-name="uni1EB0" unicode="&#x1eb0;" horiz-adv-x="1429" 
d="M823 1733h-192l-299 213l284 -2zM541 1755q41 -106 176 -106q65 0 111.5 27t64.5 79h174q-34 -118 -125 -181t-225 -63t-224 63t-124 181h172zM1096 0l-99 291h-559l-98 -291h-301l539 1454h276l543 -1454h-301zM522 537h391l-194 571h-4z" />
    <glyph glyph-name="uni1EB1" unicode="&#x1eb1;" horiz-adv-x="1243" 
d="M723 1473h-260l-252 303l281 -2zM616 1307q56 0 92.5 35t39.5 94h204q-11 -135 -101.5 -221.5t-234.5 -86.5q-133 0 -227 82t-106 226h202q3 -56 38 -92.5t93 -36.5zM850 999h266v-999h-254v121h-6q-106 -137 -299 -137q-209 0 -343 142t-134 372q0 226 134.5 372
t336.5 146q185 0 293 -129h6v112zM606 223q107 0 180.5 76.5t73.5 196.5t-71.5 200t-180.5 80q-110 0 -184 -77t-74 -203q0 -121 71.5 -197t184.5 -76z" />
    <glyph glyph-name="uni1EB2" unicode="&#x1eb2;" horiz-adv-x="1429" 
d="M711 1870q-68 0 -125 -53l-82 79q37 37 98 61.5t125 24.5q82 0 129 -39t47 -100q0 -50 -40.5 -87t-110.5 -52l-15 -27h-55q-51 0 -51 37q0 18 20 35t44.5 28t44.5 27.5t20 32.5q0 33 -49 33zM717 1511q-134 0 -225 63t-125 181h174q18 -52 64.5 -79t111.5 -27
q136 0 176 106h174q-35 -118 -125.5 -181t-224.5 -63zM1096 0l-99 291h-559l-98 -291h-301l539 1454h276l543 -1454h-301zM522 537h391l-194 571h-4z" />
    <glyph glyph-name="uni1EB3" unicode="&#x1eb3;" horiz-adv-x="1243" 
d="M618 1696q-71 0 -137 -62l-92 88q42 42 110.5 70.5t139.5 28.5q100 0 155.5 -45.5t55.5 -116.5q0 -64 -47.5 -106.5t-136.5 -59.5l-15 -49l-104 -4q-37 37 -37 61q0 21 26 41t58 34t58 36t26 45q0 39 -60 39zM618 1128q-133 0 -227 82t-106 226h202q3 -56 38 -92.5
t93 -36.5q56 0 92.5 35t39.5 94h204q-11 -135 -101.5 -221.5t-234.5 -86.5zM850 999h266v-999h-254v121h-6q-106 -137 -299 -137q-209 0 -343 142t-134 372q0 226 134.5 372t336.5 146q185 0 293 -129h6v112zM606 223q107 0 180.5 76.5t73.5 196.5t-71.5 200t-180.5 80
q-110 0 -184 -77t-74 -203q0 -121 71.5 -197t184.5 -76z" />
    <glyph glyph-name="uni1EB4" unicode="&#x1eb4;" horiz-adv-x="1429" 
d="M594 1860q-22 0 -45.5 -20t-42.5 -54l-127 45q29 71 81 114.5t118 43.5q19 0 37.5 -3t36.5 -9.5t29 -11t30.5 -14t25.5 -12.5q58 -26 92 -26q62 0 103 74l125 -33q-28 -79 -83 -124.5t-126 -45.5q-70 0 -150 43q-76 33 -104 33zM717 1511q-133 0 -223.5 63t-124.5 181
h172q41 -106 176 -106q137 0 178 106h172q-34 -118 -124.5 -181t-225.5 -63zM1096 0l-99 291h-559l-98 -291h-301l539 1454h276l543 -1454h-301zM522 537h391l-194 571h-4z" />
    <glyph glyph-name="uni1EB5" unicode="&#x1eb5;" horiz-adv-x="1243" 
d="M510 1579q-52 0 -96 -102l-160 69q32 106 91 172t132 66q21 0 40 -2.5t31 -5.5t28.5 -10.5t23 -11t23 -13.5t20.5 -12q2 -1 10.5 -6.5t11.5 -7t10.5 -6.5t11 -6.5t10.5 -5t11.5 -5t11 -4t12 -3t12 -1.5t12.5 -1q69 0 114 101l158 -53q-32 -117 -94.5 -186.5t-145.5 -69.5
q-84 0 -180 61q-8 5 -25 16t-24.5 15t-21 8t-27.5 4zM618 1307q56 0 92.5 35t39.5 94h204q-11 -135 -101.5 -221.5t-234.5 -86.5q-133 0 -227 82t-106 226h202q3 -56 38 -92.5t93 -36.5zM850 999h266v-999h-254v121h-6q-106 -137 -299 -137q-209 0 -343 142t-134 372
q0 226 134.5 372t336.5 146q185 0 293 -129h6v112zM606 223q107 0 180.5 76.5t73.5 196.5t-71.5 200t-180.5 80q-110 0 -184 -77t-74 -203q0 -121 71.5 -197t184.5 -76z" />
    <glyph glyph-name="uni1EB6" unicode="&#x1eb6;" horiz-adv-x="1429" 
d="M717 1595q-133 0 -227.5 82t-106.5 226h203q3 -56 38 -92.5t93 -36.5q56 0 92 35t39 94h205q-11 -135 -101.5 -221.5t-234.5 -86.5zM1397 0h-301l-99 291h-559l-98 -291h-301l539 1454h276zM522 537h391l-194 571h-4zM717 -184q68 0 117 -48.5t49 -115.5t-49 -115.5
t-117 -48.5q-69 0 -118.5 48.5t-49.5 115.5t49.5 115.5t118.5 48.5z" />
    <glyph glyph-name="uni1EB7" unicode="&#x1eb7;" horiz-adv-x="1243" 
d="M618 1128q-133 0 -227 82t-106 226h202q3 -56 38 -92.5t93 -36.5q56 0 92.5 35t39.5 94h204q-11 -135 -101.5 -221.5t-234.5 -86.5zM850 999h266v-999h-254v121h-6q-106 -137 -299 -137q-209 0 -343 142t-134 372q0 226 134.5 372t336.5 146q185 0 293 -129h6v112z
M606 223q107 0 180.5 76.5t73.5 196.5t-71.5 200t-180.5 80q-110 0 -184 -77t-74 -203q0 -121 71.5 -197t184.5 -76zM602 -184q68 0 117 -48.5t49 -115.5t-49 -115.5t-117 -48.5q-69 0 -118.5 48.5t-49.5 115.5t49.5 115.5t118.5 48.5z" />
    <glyph glyph-name="uni1EB8" unicode="&#x1eb8;" horiz-adv-x="1228" 
d="M160 0v1454h930v-258h-648v-348h519v-254h-519v-338h691v-256h-973zM649 -184q68 0 117 -48.5t49 -115.5t-49 -115.5t-117 -48.5q-69 0 -118.5 48.5t-49.5 115.5t49.5 115.5t118.5 48.5z" />
    <glyph glyph-name="uni1EB9" unicode="&#x1eb9;" horiz-adv-x="1146" 
d="M1067 510q0 -80 -6 -96h-703q25 -90 92.5 -141.5t163.5 -51.5q146 -3 240 113l174 -162q-68 -86 -178 -137t-254 -51q-146 0 -262.5 63.5t-184 182.5t-67.5 272q0 226 140.5 370t355.5 144q218 0 353.5 -142t135.5 -364zM586 780q-83 0 -143 -44.5t-83 -129.5h441
q-21 81 -75.5 127.5t-139.5 46.5zM598 -184q68 0 117 -48.5t49 -115.5t-49 -115.5t-117 -48.5q-69 0 -118.5 48.5t-49.5 115.5t49.5 115.5t118.5 48.5z" />
    <glyph glyph-name="uni1EBA" unicode="&#x1eba;" horiz-adv-x="1228" 
d="M565 1561q-37 37 -37 61q0 21 26 41t58 34t58 36t26 45q0 39 -59 39q-71 0 -137 -62l-92 88q42 42 110.5 70.5t138.5 28.5q100 0 155.5 -45.5t55.5 -116.5q0 -64 -47.5 -106.5t-136.5 -59.5l-14 -49zM160 0v1454h930v-258h-648v-348h519v-254h-519v-338h691v-256h-973z
" />
    <glyph glyph-name="uni1EBB" unicode="&#x1ebb;" horiz-adv-x="1146" 
d="M592 1352q-71 0 -137 -62l-93 88q42 42 110.5 70.5t139.5 28.5q100 0 155.5 -45.5t55.5 -116.5q0 -64 -47.5 -106.5t-136.5 -59.5l-14 -49l-105 -4q-37 37 -37 61q0 21 26.5 41t57.5 34t57.5 36t26.5 45q0 39 -59 39zM1067 510q0 -80 -6 -96h-703q25 -90 92.5 -141.5
t163.5 -51.5q146 -3 240 113l174 -162q-68 -86 -178 -137t-254 -51q-146 0 -262.5 63.5t-184 182.5t-67.5 272q0 226 140.5 370t355.5 144q218 0 353.5 -142t135.5 -364zM586 780q-83 0 -143 -44.5t-83 -129.5h441q-21 81 -75.5 127.5t-139.5 46.5z" />
    <glyph glyph-name="uni1EBC" unicode="&#x1ebc;" horiz-adv-x="1228" 
d="M807 1595q-84 0 -178 62q-73 43 -113 43q-71 0 -115 -103l-159 70q32 108 95 173t150 65q14 0 26.5 -1t25 -3.5t21.5 -4t21 -6.5t18 -7t18.5 -8.5t15.5 -8t16.5 -9t14.5 -8.5q3 -2 8 -5q64 -40 102 -40q72 0 117 101l156 -54q-32 -118 -94 -187t-146 -69zM160 0v1454h930
v-258h-648v-348h519v-254h-519v-338h691v-256h-973z" />
    <glyph glyph-name="uni1EBD" unicode="&#x1ebd;" horiz-adv-x="1146" 
d="M471 1235q-71 0 -115 -102l-159 69q32 108 95 173t150 65q15 0 30 -1.5t26 -3.5t25.5 -6.5t21 -6.5t21 -9.5t17.5 -9t18.5 -10t16.5 -9.5q27 -17 38 -23t32.5 -14t40.5 -8q72 0 117 101l155 -54q-32 -118 -93.5 -187t-145.5 -69t-178 62q-73 43 -113 43zM1067 510
q0 -80 -6 -96h-703q25 -90 92.5 -141.5t163.5 -51.5q146 -3 240 113l174 -162q-68 -86 -178 -137t-254 -51q-146 0 -262.5 63.5t-184 182.5t-67.5 272q0 226 140.5 370t355.5 144q218 0 353.5 -142t135.5 -364zM586 780q-83 0 -143 -44.5t-83 -129.5h441q-21 81 -75.5 127.5
t-139.5 46.5z" />
    <glyph glyph-name="uni1EBE" unicode="&#x1ebe;" horiz-adv-x="1228" 
d="M1169 1960l275 2l-305 -301h-201zM633 1720l-103 -153h-245l227 307h238l239 -307h-248l-104 153h-4zM442 594v-338h691v-256h-973v1454h930v-258h-648v-348h519v-254h-519z" />
    <glyph glyph-name="uni1EBF" unicode="&#x1ebf;" horiz-adv-x="1146" 
d="M1339 1628l-305 -301h-200l231 301h274zM588 1288l-103 -153h-245l227 307h238l239 -307h-248l-104 153h-4zM578 1016q218 0 353.5 -142t135.5 -364q0 -80 -6 -96h-703q25 -90 92.5 -141.5t163.5 -51.5q146 -3 240 113l174 -162q-68 -86 -178 -137t-254 -51
q-146 0 -262.5 63.5t-184 182.5t-67.5 272q0 226 140.5 370t355.5 144zM586 780q-83 0 -143 -44.5t-83 -129.5h441q-21 81 -75.5 127.5t-139.5 46.5z" />
    <glyph glyph-name="uni1EC0" unicode="&#x1ec0;" horiz-adv-x="1228" 
d="M1243 1661h-196l-248 301h270zM635 1720l-103 -153h-245l227 307h238l239 -307h-248l-104 153h-4zM442 594v-338h691v-256h-973v1454h930v-258h-648v-348h519v-254h-519z" />
    <glyph glyph-name="uni1EC1" unicode="&#x1ec1;" horiz-adv-x="1146" 
d="M1112 1329h-197l-247 301l270 -2zM588 1288l-103 -153h-245l227 307h238l239 -307h-248l-104 153h-4zM578 1016q218 0 353.5 -142t135.5 -364q0 -80 -6 -96h-703q25 -90 92.5 -141.5t163.5 -51.5q146 -3 240 113l174 -162q-68 -86 -178 -137t-254 -51q-146 0 -262.5 63.5
t-184 182.5t-67.5 272q0 226 140.5 370t355.5 144zM586 780q-83 0 -143 -44.5t-83 -129.5h441q-21 81 -75.5 127.5t-139.5 46.5z" />
    <glyph glyph-name="uni1EC2" unicode="&#x1ec2;" horiz-adv-x="1228" 
d="M1106 1978q93 0 146 -44.5t53 -116.5q0 -62 -47 -104t-128 -60l-14 -51l-102 -3q-39 31 -39 62q0 21 25 41t55 34t55 36t25 45q0 36 -50 36q-78 0 -139 -61l-92 90q41 41 110 68.5t142 27.5zM633 1720l-103 -153h-245l227 307h238l239 -307h-248l-104 153h-4zM442 594
v-338h691v-256h-973v1454h930v-258h-648v-348h519v-254h-519z" />
    <glyph glyph-name="uni1EC3" unicode="&#x1ec3;" horiz-adv-x="1146" 
d="M979 1653q93 0 147 -45.5t54 -116.5q0 -61 -46.5 -104t-127.5 -62l-17 -49l-102 -4q-39 39 -39 63q0 20 25.5 40t55.5 33.5t55.5 35.5t25.5 45q0 39 -52 39q-35 0 -73 -18t-64 -44l-94 88q42 42 111.5 70.5t140.5 28.5zM588 1288l-103 -153h-245l227 307h238l239 -307
h-248l-104 153h-4zM578 1016q218 0 353.5 -142t135.5 -364q0 -80 -6 -96h-703q25 -90 92.5 -141.5t163.5 -51.5q146 -3 240 113l174 -162q-68 -86 -178 -137t-254 -51q-146 0 -262.5 63.5t-184 182.5t-67.5 272q0 226 140.5 370t355.5 144zM586 780q-83 0 -143 -44.5
t-83 -129.5h441q-21 81 -75.5 127.5t-139.5 46.5z" />
    <glyph glyph-name="uni1EC4" unicode="&#x1ec4;" horiz-adv-x="1228" 
d="M512 1858q-22 0 -45.5 -20t-42.5 -54l-127 45q29 71 81 114.5t118 43.5q19 0 37.5 -3t36.5 -9.5t29 -11t30.5 -14t25.5 -12.5q58 -26 93 -26q61 0 102 74l125 -33q-28 -79 -83 -124.5t-126 -45.5q-70 0 -150 43q-76 33 -104 33zM629 1632l-121 -125h-236l246 240h221
l258 -240h-237l-123 125h-8zM442 256h691v-256h-973v1454h930v-258h-648v-348h519v-254h-519v-338z" />
    <glyph glyph-name="uni1EC5" unicode="&#x1ec5;" horiz-adv-x="1146" 
d="M483 1579q-52 0 -96 -102l-160 69q32 106 91.5 172t132.5 66q21 0 40 -2.5t31 -5.5t28 -10.5t22.5 -11t22.5 -13t21 -12.5q2 -1 10.5 -6.5t11.5 -7t10.5 -6.5t11 -6.5t10.5 -5t11.5 -5t11 -4t12 -3t12 -1.5t12.5 -1q70 0 115 101l157 -53q-32 -117 -94 -186.5t-145 -69.5
q-84 0 -180 61q-8 4 -25.5 15.5t-25 15.5t-21 8t-27.5 4zM467 1442h238l239 -307h-248l-104 153h-4l-103 -153h-245zM1067 510q0 -80 -6 -96h-703q25 -90 92.5 -141.5t163.5 -51.5q146 -3 240 113l174 -162q-68 -86 -178 -137t-254 -51q-146 0 -262.5 63.5t-184 182.5
t-67.5 272q0 226 140.5 370t355.5 144q218 0 353.5 -142t135.5 -364zM586 780q-83 0 -143 -44.5t-83 -129.5h441q-21 81 -75.5 127.5t-139.5 46.5z" />
    <glyph glyph-name="uni1EC6" unicode="&#x1ec6;" horiz-adv-x="1228" 
d="M633 1753l-103 -154h-245l227 308h238l239 -308h-248l-104 154h-4zM442 256h691v-256h-973v1454h930v-258h-648v-348h519v-254h-519v-338zM649 -184q68 0 117 -48.5t49 -115.5t-49 -115.5t-117 -48.5q-69 0 -118.5 48.5t-49.5 115.5t49.5 115.5t118.5 48.5z" />
    <glyph glyph-name="uni1EC7" unicode="&#x1ec7;" horiz-adv-x="1146" 
d="M588 1288l-103 -153h-245l227 307h238l239 -307h-248l-104 153h-4zM1067 510q0 -80 -6 -96h-703q25 -90 92.5 -141.5t163.5 -51.5q146 -3 240 113l174 -162q-68 -86 -178 -137t-254 -51q-146 0 -262.5 63.5t-184 182.5t-67.5 272q0 226 140.5 370t355.5 144
q218 0 353.5 -142t135.5 -364zM586 780q-83 0 -143 -44.5t-83 -129.5h441q-21 81 -75.5 127.5t-139.5 46.5zM598 -184q68 0 117 -48.5t49 -115.5t-49 -115.5t-117 -48.5q-69 0 -118.5 48.5t-49.5 115.5t49.5 115.5t118.5 48.5z" />
    <glyph glyph-name="uni1EC8" unicode="&#x1ec8;" horiz-adv-x="628" 
d="M240 1561q-37 37 -37 61q0 21 26.5 41t57.5 34t57.5 36t26.5 45q0 39 -60 39q-71 0 -137 -62l-92 88q42 42 110.5 70.5t139.5 28.5q100 0 155.5 -45.5t55.5 -116.5q0 -64 -48 -106.5t-137 -59.5l-14 -49zM170 0v1454h289v-1454h-289z" />
    <glyph glyph-name="uni1EC9" unicode="&#x1ec9;" horiz-adv-x="563" 
d="M211 1096q-37 37 -37 61q0 21 26 41t58 34t58 36t26 45q0 39 -59 39q-72 0 -138 -62l-92 88q42 42 110.5 70.5t139.5 28.5q100 0 155.5 -45.5t55.5 -116.5q0 -64 -47.5 -106.5t-136.5 -59.5l-15 -49zM147 0v999h269v-999h-269z" />
    <glyph glyph-name="uni1ECA" unicode="&#x1eca;" horiz-adv-x="628" 
d="M170 0v1454h289v-1454h-289zM315 -184q68 0 117 -48.5t49 -115.5t-49 -115.5t-117 -48.5q-69 0 -118.5 48.5t-49.5 115.5t49.5 115.5t118.5 48.5z" />
    <glyph glyph-name="uni1ECB" unicode="&#x1ecb;" horiz-adv-x="563" 
d="M283 1141q-68 0 -117 48.5t-49 115.5t49 115t117 48q69 0 118.5 -48t49.5 -115t-49.5 -115.5t-118.5 -48.5zM147 0v999h269v-999h-269zM283 -184q68 0 117 -48.5t49 -115.5t-49 -115.5t-117 -48.5q-69 0 -118.5 48.5t-49.5 115.5t49.5 115.5t118.5 48.5z" />
    <glyph glyph-name="uni1ECC" unicode="&#x1ecc;" horiz-adv-x="1681" 
d="M842 -16q-162 0 -301 56t-235.5 154t-151 235.5t-54.5 297.5q0 214 93 384t262.5 266t386.5 96q159 0 296 -54.5t234.5 -151.5t153 -236.5t55.5 -303.5q0 -218 -95 -388t-263.5 -262.5t-380.5 -92.5zM844 252q188 0 313 135.5t125 339.5q0 205 -125 340t-313 135
q-194 0 -319.5 -137t-125.5 -338t125.5 -338t319.5 -137zM844 -184q68 0 117 -48.5t49 -115.5t-49 -115.5t-117 -48.5q-69 0 -118.5 48.5t-49.5 115.5t49.5 115.5t118.5 48.5z" />
    <glyph glyph-name="uni1ECD" unicode="&#x1ecd;" horiz-adv-x="1224" 
d="M612 -16q-236 0 -383 145t-147 371t147 371t383 145q234 0 383.5 -143.5t149.5 -372.5t-149.5 -372.5t-383.5 -143.5zM612 223q110 0 185 78.5t75 198.5q0 122 -73.5 199t-186.5 77q-116 0 -188 -78t-72 -198q0 -118 73.5 -197.5t186.5 -79.5zM614 -184q68 0 117 -48.5
t49 -115.5t-49 -115.5t-117 -48.5q-69 0 -118.5 48.5t-49.5 115.5t49.5 115.5t118.5 48.5z" />
    <glyph glyph-name="uni1ECE" unicode="&#x1ece;" horiz-adv-x="1681" 
d="M772 1563q-37 37 -37 61q0 21 26.5 41t57.5 34t57.5 36t26.5 45q0 39 -59 39q-71 0 -137 -62l-93 88q42 42 110.5 70.5t139.5 28.5q100 0 155.5 -45.5t55.5 -116.5q0 -64 -47.5 -106.5t-136.5 -59.5l-14 -49zM842 -16q-162 0 -301 56t-235.5 154t-151 235.5t-54.5 297.5
q0 214 93 384t262.5 266t386.5 96q159 0 296 -54.5t234.5 -151.5t153 -236.5t55.5 -303.5q0 -218 -95 -388t-263.5 -262.5t-380.5 -92.5zM844 252q188 0 313 135.5t125 339.5q0 205 -125 340t-313 135q-194 0 -319.5 -137t-125.5 -338t125.5 -338t319.5 -137z" />
    <glyph glyph-name="uni1ECF" unicode="&#x1ecf;" horiz-adv-x="1224" 
d="M543 1096q-37 37 -37 61q0 21 26 41t58 34t58 36t26 45q0 39 -60 39q-71 0 -137 -62l-92 88q42 42 110.5 70.5t139.5 28.5q100 0 155.5 -45.5t55.5 -116.5q0 -64 -47.5 -106.5t-136.5 -59.5l-15 -49zM612 -16q-236 0 -383 145t-147 371t147 371t383 145
q234 0 383.5 -143.5t149.5 -372.5t-149.5 -372.5t-383.5 -143.5zM612 223q110 0 185 78.5t75 198.5q0 122 -73.5 199t-186.5 77q-116 0 -188 -78t-72 -198q0 -118 73.5 -197.5t186.5 -79.5z" />
    <glyph glyph-name="uni1ED0" unicode="&#x1ed0;" horiz-adv-x="1681" 
d="M1651 1964l-305 -301h-201l231 299zM840 1722l-103 -153h-245l227 307h237l240 -307h-248l-104 153h-4zM842 1473q159 0 296 -54.5t234.5 -151.5t153 -236.5t55.5 -303.5q0 -218 -95 -388t-263.5 -262.5t-380.5 -92.5q-162 0 -301 56t-235.5 154t-151 235.5t-54.5 297.5
q0 214 93 384t262.5 266t386.5 96zM844 252q188 0 313 135.5t125 339.5q0 205 -125 340t-313 135q-194 0 -319.5 -137t-125.5 -338t125.5 -338t319.5 -137z" />
    <glyph glyph-name="uni1ED1" unicode="&#x1ed1;" horiz-adv-x="1224" 
d="M1362 1628l-305 -301h-201l231 301h275zM610 1288l-102 -153h-246l227 307h238l240 -307h-248l-105 153h-4zM612 1016q234 0 383.5 -143.5t149.5 -372.5t-149.5 -372.5t-383.5 -143.5q-236 0 -383 145t-147 371t147 371t383 145zM612 223q110 0 185 78.5t75 198.5
q0 122 -73.5 199t-186.5 77q-116 0 -188 -78t-72 -198q0 -118 73.5 -197.5t186.5 -79.5z" />
    <glyph glyph-name="uni1ED2" unicode="&#x1ed2;" horiz-adv-x="1681" 
d="M1450 1663h-197l-247 301h270zM842 1722l-103 -153h-245l227 307h237l240 -307h-248l-104 153h-4zM842 1473q159 0 296 -54.5t234.5 -151.5t153 -236.5t55.5 -303.5q0 -218 -95 -388t-263.5 -262.5t-380.5 -92.5q-162 0 -301 56t-235.5 154t-151 235.5t-54.5 297.5
q0 214 93 384t262.5 266t386.5 96zM844 252q188 0 313 135.5t125 339.5q0 205 -125 340t-313 135q-194 0 -319.5 -137t-125.5 -338t125.5 -338t319.5 -137z" />
    <glyph glyph-name="uni1ED3" unicode="&#x1ed3;" horiz-adv-x="1224" 
d="M1135 1329h-197l-248 301l271 -2zM610 1288l-102 -153h-246l227 307h238l240 -307h-248l-105 153h-4zM612 1016q234 0 383.5 -143.5t149.5 -372.5t-149.5 -372.5t-383.5 -143.5q-236 0 -383 145t-147 371t147 371t383 145zM612 223q110 0 185 78.5t75 198.5
q0 122 -73.5 199t-186.5 77q-116 0 -188 -78t-72 -198q0 -118 73.5 -197.5t186.5 -79.5z" />
    <glyph glyph-name="uni1ED4" unicode="&#x1ed4;" horiz-adv-x="1681" 
d="M1292 1855q-78 0 -139 -61l-92 90q41 41 110 68.5t142 27.5q93 0 145.5 -44.5t52.5 -116.5q0 -62 -46.5 -104t-127.5 -60l-14 -51l-102 -2q-39 31 -39 61q0 21 25 41t54.5 34t54.5 36t25 45q0 36 -49 36zM840 1722l-103 -153h-245l227 307h237l240 -307h-248l-104 153h-4
zM842 1473q159 0 296 -54.5t234.5 -151.5t153 -236.5t55.5 -303.5q0 -218 -95 -388t-263.5 -262.5t-380.5 -92.5q-162 0 -301 56t-235.5 154t-151 235.5t-54.5 297.5q0 214 93 384t262.5 266t386.5 96zM844 252q188 0 313 135.5t125 339.5q0 205 -125 340t-313 135
q-194 0 -319.5 -137t-125.5 -338t125.5 -338t319.5 -137z" />
    <glyph glyph-name="uni1ED5" unicode="&#x1ed5;" horiz-adv-x="1224" 
d="M1001 1653q93 0 147 -45.5t54 -116.5q0 -61 -46.5 -104t-127.5 -62l-16 -49l-103 -4q-39 39 -39 63q0 20 25.5 40t55.5 33.5t55.5 35.5t25.5 45q0 39 -51 39q-35 0 -73 -18t-64 -44l-94 88q42 42 111 70.5t140 28.5zM610 1288l-102 -153h-246l227 307h238l240 -307h-248
l-105 153h-4zM612 1016q234 0 383.5 -143.5t149.5 -372.5t-149.5 -372.5t-383.5 -143.5q-236 0 -383 145t-147 371t147 371t383 145zM612 223q110 0 185 78.5t75 198.5q0 122 -73.5 199t-186.5 77q-116 0 -188 -78t-72 -198q0 -118 73.5 -197.5t186.5 -79.5z" />
    <glyph glyph-name="uni1ED6" unicode="&#x1ed6;" horiz-adv-x="1681" 
d="M719 1860q-22 0 -45.5 -20t-42.5 -54l-127 45q29 72 81 115t117 43q19 0 37.5 -3t37 -9.5t29 -10.5t31 -14.5t25.5 -12.5q58 -26 92 -26q62 0 103 74l125 -33q-28 -79 -83 -124.5t-126 -45.5q-70 0 -150 43q-76 33 -104 33zM836 1634l-121 -125h-236l246 240h221
l258 -240h-237l-123 125h-8zM842 1473q159 0 296 -54.5t234.5 -151.5t153 -236.5t55.5 -303.5q0 -218 -95 -388t-263.5 -262.5t-380.5 -92.5q-162 0 -301 56t-235.5 154t-151 235.5t-54.5 297.5q0 214 93 384t262.5 266t386.5 96zM844 252q188 0 313 135.5t125 339.5
q0 205 -125 340t-313 135q-194 0 -319.5 -137t-125.5 -338t125.5 -338t319.5 -137z" />
    <glyph glyph-name="uni1ED7" unicode="&#x1ed7;" horiz-adv-x="1224" 
d="M506 1579q-52 0 -96 -102l-160 69q32 106 91 172t132 66q21 0 40 -2.5t31 -5.5t28.5 -10.5t23 -11t23 -13.5t20.5 -12q2 -1 10.5 -6.5t11.5 -7t10.5 -6.5t11 -6.5t10.5 -5t11.5 -5t11 -4t12 -3t12 -1.5t12.5 -1q69 0 114 101l158 -53q-32 -117 -94.5 -186.5t-145.5 -69.5
q-84 0 -180 61q-8 5 -25 16t-24.5 15t-21 8t-27.5 4zM489 1442h238l240 -307h-248l-105 153h-4l-102 -153h-246zM612 1016q234 0 383.5 -143.5t149.5 -372.5t-149.5 -372.5t-383.5 -143.5q-236 0 -383 145t-147 371t147 371t383 145zM612 223q110 0 185 78.5t75 198.5
q0 122 -73.5 199t-186.5 77q-116 0 -188 -78t-72 -198q0 -118 73.5 -197.5t186.5 -79.5z" />
    <glyph glyph-name="uni1ED8" unicode="&#x1ed8;" horiz-adv-x="1681" 
d="M840 1755l-103 -153h-245l227 307h237l240 -307h-248l-104 153h-4zM842 1473q159 0 296 -54.5t234.5 -151.5t153 -236.5t55.5 -303.5q0 -218 -95 -388t-263.5 -262.5t-380.5 -92.5q-162 0 -301 56t-235.5 154t-151 235.5t-54.5 297.5q0 214 93 384t262.5 266t386.5 96z
M844 252q188 0 313 135.5t125 339.5q0 205 -125 340t-313 135q-194 0 -319.5 -137t-125.5 -338t125.5 -338t319.5 -137zM844 -184q68 0 117 -48.5t49 -115.5t-49 -115.5t-117 -48.5q-69 0 -118.5 48.5t-49.5 115.5t49.5 115.5t118.5 48.5z" />
    <glyph glyph-name="uni1ED9" unicode="&#x1ed9;" horiz-adv-x="1224" 
d="M610 1288l-102 -153h-246l227 307h238l240 -307h-248l-105 153h-4zM612 1016q234 0 383.5 -143.5t149.5 -372.5t-149.5 -372.5t-383.5 -143.5q-236 0 -383 145t-147 371t147 371t383 145zM612 223q110 0 185 78.5t75 198.5q0 122 -73.5 199t-186.5 77q-116 0 -188 -78
t-72 -198q0 -118 73.5 -197.5t186.5 -79.5zM614 -184q68 0 117 -48.5t49 -115.5t-49 -115.5t-117 -48.5q-69 0 -118.5 48.5t-49.5 115.5t49.5 115.5t118.5 48.5z" />
    <glyph glyph-name="uni1EDA" unicode="&#x1eda;" horiz-adv-x="1765" 
d="M1235 1909l-254 -303h-258l231 301zM1489 1585h250v-149q0 -141 -59.5 -233.5t-172.5 -129.5q74 -161 74 -346q0 -218 -95 -388t-263.5 -262.5t-380.5 -92.5q-162 0 -301 56t-235.5 154t-151 235.5t-54.5 297.5q0 214 93 384t262.5 266t386.5 96q178 0 325 -66t248 -188
q34 18 51 54.5t20 70t3 98.5v143zM844 252q188 0 313 135.5t125 339.5q0 205 -125 340t-313 135q-194 0 -319.5 -137t-125.5 -338t125.5 -338t319.5 -137z" />
    <glyph glyph-name="uni1EDB" unicode="&#x1edb;" horiz-adv-x="1398" 
d="M993 1442l-254 -303h-258l232 301zM1128 1157h250v-149q0 -147 -64 -241t-184 -126l-2 -2q17 -77 17 -139q0 -229 -149.5 -372.5t-383.5 -143.5q-236 0 -383 145t-147 371t147 371t383 145q146 0 262.5 -58.5t186.5 -162.5q31 18 46.5 54.5t18 69t2.5 95.5v143zM612 223
q110 0 185 78.5t75 198.5q0 122 -73.5 199t-186.5 77q-116 0 -188 -78t-72 -198q0 -118 73.5 -197.5t186.5 -79.5z" />
    <glyph glyph-name="uni1EDC" unicode="&#x1edc;" horiz-adv-x="1765" 
d="M987 1606h-260l-252 303l281 -2zM1489 1585h250v-149q0 -141 -59.5 -233.5t-172.5 -129.5q74 -161 74 -346q0 -218 -95 -388t-263.5 -262.5t-380.5 -92.5q-162 0 -301 56t-235.5 154t-151 235.5t-54.5 297.5q0 214 93 384t262.5 266t386.5 96q178 0 325 -66t248 -188
q34 18 51 54.5t20 70t3 98.5v143zM844 252q188 0 313 135.5t125 339.5q0 205 -125 340t-313 135q-194 0 -319.5 -137t-125.5 -338t125.5 -338t319.5 -137z" />
    <glyph glyph-name="uni1EDD" unicode="&#x1edd;" horiz-adv-x="1398" 
d="M774 1139h-260l-252 303l281 -2zM1128 1157h250v-149q0 -147 -64 -241t-184 -126l-2 -2q17 -77 17 -139q0 -229 -149.5 -372.5t-383.5 -143.5q-236 0 -383 145t-147 371t147 371t383 145q146 0 262.5 -58.5t186.5 -162.5q31 18 46.5 54.5t18 69t2.5 95.5v143zM612 223
q110 0 185 78.5t75 198.5q0 122 -73.5 199t-186.5 77q-116 0 -188 -78t-72 -198q0 -118 73.5 -197.5t186.5 -79.5z" />
    <glyph glyph-name="uni1EDE" unicode="&#x1ede;" horiz-adv-x="1765" 
d="M844 1819q-71 0 -137 -62l-93 88q42 42 110.5 70.5t139.5 28.5q100 0 155.5 -45.5t55.5 -116.5q0 -64 -47.5 -106.5t-136.5 -59.5l-14 -49l-105 -4q-37 37 -37 61q0 21 26.5 41t57.5 34t57.5 36t26.5 45q0 39 -59 39zM1489 1585h250v-149q0 -141 -59.5 -233.5
t-172.5 -129.5q74 -161 74 -346q0 -218 -95 -388t-263.5 -262.5t-380.5 -92.5q-162 0 -301 56t-235.5 154t-151 235.5t-54.5 297.5q0 214 93 384t262.5 266t386.5 96q178 0 325 -66t248 -188q34 18 51 54.5t20 70t3 98.5v143zM844 252q188 0 313 135.5t125 339.5
q0 205 -125 340t-313 135q-194 0 -319.5 -137t-125.5 -338t125.5 -338t319.5 -137z" />
    <glyph glyph-name="uni1EDF" unicode="&#x1edf;" horiz-adv-x="1398" 
d="M614 1352q-71 0 -137 -62l-92 88q42 42 110.5 70.5t139.5 28.5q100 0 155.5 -45.5t55.5 -116.5q0 -64 -47.5 -106.5t-136.5 -59.5l-15 -49l-104 -4q-37 37 -37 61q0 21 26 41t58 34t58 36t26 45q0 39 -60 39zM1128 1157h250v-149q0 -147 -64 -241t-184 -126l-2 -2
q17 -77 17 -139q0 -229 -149.5 -372.5t-383.5 -143.5q-236 0 -383 145t-147 371t147 371t383 145q146 0 262.5 -58.5t186.5 -162.5q31 18 46.5 54.5t18 69t2.5 95.5v143zM612 223q110 0 185 78.5t75 198.5q0 122 -73.5 199t-186.5 77q-116 0 -188 -78t-72 -198
q0 -118 73.5 -197.5t186.5 -79.5z" />
    <glyph glyph-name="uni1EE0" unicode="&#x1ee0;" horiz-adv-x="1765" 
d="M723 1702q-71 0 -115 -103l-159 70q32 108 95 173t150 65q15 0 30 -1.5t26 -3.5t25.5 -6.5t21 -6.5t21 -9.5t17.5 -9t18.5 -10t16.5 -9.5q27 -17 38 -23t32.5 -14t40.5 -8q72 0 117 101l155 -54q-32 -118 -93.5 -187t-145.5 -69t-178 62q-73 43 -113 43zM1489 1585h250
v-149q0 -141 -59.5 -233.5t-172.5 -129.5q74 -161 74 -346q0 -218 -95 -388t-263.5 -262.5t-380.5 -92.5q-162 0 -301 56t-235.5 154t-151 235.5t-54.5 297.5q0 214 93 384t262.5 266t386.5 96q178 0 325 -66t248 -188q34 18 51 54.5t20 70t3 98.5v143zM844 252
q188 0 313 135.5t125 339.5q0 205 -125 340t-313 135q-194 0 -319.5 -137t-125.5 -338t125.5 -338t319.5 -137z" />
    <glyph glyph-name="uni1EE1" unicode="&#x1ee1;" horiz-adv-x="1398" 
d="M494 1235q-71 0 -115 -102l-160 69q32 108 95.5 173t150.5 65q15 0 30 -1.5t26 -3.5t25.5 -6.5t21 -6.5t21 -9.5t17.5 -9t18.5 -10t16.5 -9.5q27 -17 38 -23t32.5 -14t40.5 -8q71 0 116 101l156 -54q-32 -118 -94 -187t-146 -69t-178 62q-73 43 -112 43zM1128 1157h250
v-149q0 -147 -64 -241t-184 -126l-2 -2q17 -77 17 -139q0 -229 -149.5 -372.5t-383.5 -143.5q-236 0 -383 145t-147 371t147 371t383 145q146 0 262.5 -58.5t186.5 -162.5q31 18 46.5 54.5t18 69t2.5 95.5v143zM612 223q110 0 185 78.5t75 198.5q0 122 -73.5 199t-186.5 77
q-116 0 -188 -78t-72 -198q0 -118 73.5 -197.5t186.5 -79.5z" />
    <glyph glyph-name="uni1EE2" unicode="&#x1ee2;" horiz-adv-x="1765" 
d="M1489 1585h250v-149q0 -141 -59.5 -233.5t-172.5 -129.5q74 -161 74 -346q0 -218 -95 -388t-263.5 -262.5t-380.5 -92.5q-162 0 -301 56t-235.5 154t-151 235.5t-54.5 297.5q0 214 93 384t262.5 266t386.5 96q178 0 325 -66t248 -188q34 18 51 54.5t20 70t3 98.5v143z
M844 252q188 0 313 135.5t125 339.5q0 205 -125 340t-313 135q-194 0 -319.5 -137t-125.5 -338t125.5 -338t319.5 -137zM844 -184q68 0 117 -48.5t49 -115.5t-49 -115.5t-117 -48.5q-69 0 -118.5 48.5t-49.5 115.5t49.5 115.5t118.5 48.5z" />
    <glyph glyph-name="uni1EE3" unicode="&#x1ee3;" horiz-adv-x="1398" 
d="M1128 1157h250v-149q0 -147 -64 -241t-184 -126l-2 -2q17 -77 17 -139q0 -229 -149.5 -372.5t-383.5 -143.5q-236 0 -383 145t-147 371t147 371t383 145q146 0 262.5 -58.5t186.5 -162.5q31 18 46.5 54.5t18 69t2.5 95.5v143zM612 223q110 0 185 78.5t75 198.5
q0 122 -73.5 199t-186.5 77q-116 0 -188 -78t-72 -198q0 -118 73.5 -197.5t186.5 -79.5zM614 -184q68 0 117 -48.5t49 -115.5t-49 -115.5t-117 -48.5q-69 0 -118.5 48.5t-49.5 115.5t49.5 115.5t118.5 48.5z" />
    <glyph glyph-name="uni1EE4" unicode="&#x1ee4;" horiz-adv-x="1460" 
d="M727 -16q-266 0 -426 163t-160 455v852h289v-833q0 -161 79 -264t218 -103q135 0 219 98.5t84 268.5v833h289v-852q0 -287 -156.5 -452.5t-435.5 -165.5zM729 -184q68 0 117 -48.5t49 -115.5t-49 -115.5t-117 -48.5q-69 0 -118.5 48.5t-49.5 115.5t49.5 115.5t118.5 48.5
z" />
    <glyph glyph-name="uni1EE5" unicode="&#x1ee5;" horiz-adv-x="1181" 
d="M786 999h269v-999h-269v123h-4q-56 -68 -133.5 -103.5t-163.5 -35.5q-366 0 -366 413v602h266v-530q0 -135 42 -190.5t138 -55.5q93 0 157 76.5t64 214.5v485zM600 -184q68 0 117 -48.5t49 -115.5t-49 -115.5t-117 -48.5q-69 0 -118.5 48.5t-49.5 115.5t49.5 115.5
t118.5 48.5z" />
    <glyph glyph-name="uni1EE6" unicode="&#x1ee6;" horiz-adv-x="1460" 
d="M657 1563q-36 36 -36 61q0 21 26 41t57.5 34t57.5 36t26 45q0 39 -59 39q-71 0 -137 -62l-92 88q42 42 110.5 70.5t139.5 28.5q100 0 155.5 -45.5t55.5 -116.5q0 -64 -48 -106.5t-137 -59.5l-14 -49zM727 -16q-266 0 -426 163t-160 455v852h289v-833q0 -161 79 -264
t218 -103q135 0 219 98.5t84 268.5v833h289v-852q0 -287 -156.5 -452.5t-435.5 -165.5z" />
    <glyph glyph-name="uni1EE7" unicode="&#x1ee7;" horiz-adv-x="1181" 
d="M590 1352q-71 0 -137 -62l-93 88q42 42 110.5 70.5t139.5 28.5q100 0 155.5 -45.5t55.5 -116.5q0 -64 -47.5 -106.5t-136.5 -59.5l-14 -49l-105 -4q-37 37 -37 61q0 21 26.5 41t57.5 34t57.5 36t26.5 45q0 39 -59 39zM786 999h269v-999h-269v123h-4
q-56 -68 -133.5 -103.5t-163.5 -35.5q-366 0 -366 413v602h266v-530q0 -135 42 -190.5t138 -55.5q93 0 157 76.5t64 214.5v485z" />
    <glyph glyph-name="uni1EE8" unicode="&#x1ee8;" horiz-adv-x="1671" 
d="M1079 1909l-254 -303h-258l232 301zM1448 1585h250v-149q0 -183 -99.5 -283t-279.5 -100v-451q0 -287 -156.5 -452.5t-435.5 -165.5q-266 0 -426 163t-160 455v852h289v-833q0 -161 79 -264t218 -103q135 0 219 98.5t84 268.5v833h289v-254q37 7 61.5 23.5t38 35t20 51.5
t8 59.5t1.5 72.5v143z" />
    <glyph glyph-name="uni1EE9" unicode="&#x1ee9;" horiz-adv-x="1437" 
d="M965 1442l-254 -303h-258l231 301zM1167 1157h250v-149q0 -179 -95 -278.5t-267 -104.5v-625h-269v123h-4q-56 -68 -133.5 -103.5t-163.5 -35.5q-366 0 -366 413v602h266v-530q0 -135 42 -190.5t138 -55.5q93 0 157 76.5t64 214.5v485h269v-223q32 8 53.5 25t33 35.5
t17.5 51t7 57t1 69.5v143z" />
    <glyph glyph-name="uni1EEA" unicode="&#x1eea;" horiz-adv-x="1671" 
d="M897 1606h-260l-252 303l281 -2zM1448 1585h250v-149q0 -183 -99.5 -283t-279.5 -100v-451q0 -287 -156.5 -452.5t-435.5 -165.5q-266 0 -426 163t-160 455v852h289v-833q0 -161 79 -264t218 -103q135 0 219 98.5t84 268.5v833h289v-254q37 7 61.5 23.5t38 35t20 51.5
t8 59.5t1.5 72.5v143z" />
    <glyph glyph-name="uni1EEB" unicode="&#x1eeb;" horiz-adv-x="1437" 
d="M764 1139h-260l-252 303l280 -2zM1167 1157h250v-149q0 -179 -95 -278.5t-267 -104.5v-625h-269v123h-4q-56 -68 -133.5 -103.5t-163.5 -35.5q-366 0 -366 413v602h266v-530q0 -135 42 -190.5t138 -55.5q93 0 157 76.5t64 214.5v485h269v-223q32 8 53.5 25t33 35.5
t17.5 51t7 57t1 69.5v143z" />
    <glyph glyph-name="uni1EEC" unicode="&#x1eec;" horiz-adv-x="1671" 
d="M729 1819q-71 0 -137 -62l-92 88q42 42 110.5 70.5t139.5 28.5q100 0 155.5 -45.5t55.5 -116.5q0 -64 -48 -106.5t-137 -59.5l-14 -49l-105 -4q-36 36 -36 61q0 21 26 41t57.5 34t57.5 36t26 45q0 39 -59 39zM1448 1585h250v-149q0 -183 -99.5 -283t-279.5 -100v-451
q0 -287 -156.5 -452.5t-435.5 -165.5q-266 0 -426 163t-160 455v852h289v-833q0 -161 79 -264t218 -103q135 0 219 98.5t84 268.5v833h289v-254q37 7 61.5 23.5t38 35t20 51.5t8 59.5t1.5 72.5v143z" />
    <glyph glyph-name="uni1EED" unicode="&#x1eed;" horiz-adv-x="1437" 
d="M590 1352q-71 0 -137 -62l-93 88q42 42 110.5 70.5t139.5 28.5q100 0 155.5 -45.5t55.5 -116.5q0 -64 -47.5 -106.5t-136.5 -59.5l-14 -49l-105 -4q-37 37 -37 61q0 21 26.5 41t57.5 34t57.5 36t26.5 45q0 39 -59 39zM1167 1157h250v-149q0 -179 -95 -278.5t-267 -104.5
v-625h-269v123h-4q-56 -68 -133.5 -103.5t-163.5 -35.5q-366 0 -366 413v602h266v-530q0 -135 42 -190.5t138 -55.5q93 0 157 76.5t64 214.5v485h269v-223q32 8 53.5 25t33 35.5t17.5 51t7 57t1 69.5v143z" />
    <glyph glyph-name="uni1EEE" unicode="&#x1eee;" horiz-adv-x="1671" 
d="M608 1702q-70 0 -114 -103l-160 70q32 108 95.5 173t150.5 65q15 0 30 -1.5t26 -3.5t25.5 -6.5t21 -6.5t21 -9.5t17.5 -9t18.5 -10t16.5 -9.5q3 -2 8 -5q64 -40 102 -40q72 0 117 101l156 -54q-32 -118 -94 -187t-146 -69t-178 62q-73 43 -113 43zM1448 1585h250v-149
q0 -183 -99.5 -283t-279.5 -100v-451q0 -287 -156.5 -452.5t-435.5 -165.5q-266 0 -426 163t-160 455v852h289v-833q0 -161 79 -264t218 -103q135 0 219 98.5t84 268.5v833h289v-254q37 7 61.5 23.5t38 35t20 51.5t8 59.5t1.5 72.5v143z" />
    <glyph glyph-name="uni1EEF" unicode="&#x1eef;" horiz-adv-x="1437" 
d="M469 1235q-71 0 -115 -102l-159 69q32 108 95 173t150 65q15 0 30 -1.5t26 -3.5t25.5 -6.5t21 -6.5t21 -9.5t17.5 -9t18.5 -10t16.5 -9.5q27 -17 38 -23t32.5 -14t40.5 -8q72 0 117 101l155 -54q-32 -118 -93.5 -187t-145.5 -69t-178 62q-73 43 -113 43zM1167 1157h250
v-149q0 -179 -95 -278.5t-267 -104.5v-625h-269v123h-4q-56 -68 -133.5 -103.5t-163.5 -35.5q-366 0 -366 413v602h266v-530q0 -135 42 -190.5t138 -55.5q93 0 157 76.5t64 214.5v485h269v-223q32 8 53.5 25t33 35.5t17.5 51t7 57t1 69.5v143z" />
    <glyph glyph-name="uni1EF0" unicode="&#x1ef0;" horiz-adv-x="1671" 
d="M1448 1585h250v-149q0 -183 -99.5 -283t-279.5 -100v-451q0 -287 -156.5 -452.5t-435.5 -165.5q-266 0 -426 163t-160 455v852h289v-833q0 -161 79 -264t218 -103q135 0 219 98.5t84 268.5v833h289v-254q37 7 61.5 23.5t38 35t20 51.5t8 59.5t1.5 72.5v143zM729 -184
q68 0 117 -48.5t49 -115.5t-49 -115.5t-117 -48.5q-69 0 -118.5 48.5t-49.5 115.5t49.5 115.5t118.5 48.5z" />
    <glyph glyph-name="uni1EF1" unicode="&#x1ef1;" horiz-adv-x="1437" 
d="M1167 1157h250v-149q0 -179 -95 -278.5t-267 -104.5v-625h-269v123h-4q-56 -68 -133.5 -103.5t-163.5 -35.5q-366 0 -366 413v602h266v-530q0 -135 42 -190.5t138 -55.5q93 0 157 76.5t64 214.5v485h269v-223q32 8 53.5 25t33 35.5t17.5 51t7 57t1 69.5v143zM600 -184
q68 0 117 -48.5t49 -115.5t-49 -115.5t-117 -48.5q-69 0 -118.5 48.5t-49.5 115.5t49.5 115.5t118.5 48.5z" />
    <glyph glyph-name="Ygrave" unicode="&#x1ef2;" horiz-adv-x="1294" 
d="M801 1606h-260l-252 303l280 -2zM942 1454h334l-485 -815v-639h-291v639l-482 815h330l297 -530h4z" />
    <glyph glyph-name="ygrave" unicode="&#x1ef3;" horiz-adv-x="1103" 
d="M721 1137h-260l-252 303l280 -2zM791 999h278l-539 -1405h-274l176 467l-397 938h278l246 -618h2z" />
    <glyph glyph-name="uni1EF4" unicode="&#x1ef4;" horiz-adv-x="1294" 
d="M500 0v639l-482 815h330l297 -530h4l293 530h334l-485 -815v-639h-291zM647 -184q68 0 117 -48.5t49 -115.5t-49 -115.5t-117 -48.5q-69 0 -118.5 48.5t-49.5 115.5t49.5 115.5t118.5 48.5z" />
    <glyph glyph-name="uni1EF5" unicode="&#x1ef5;" horiz-adv-x="1103" 
d="M791 999h278l-539 -1405h-274l176 467l-397 938h278l246 -618h2zM846 -184q68 0 117 -48.5t49 -115.5t-49 -115.5t-117 -48.5q-69 0 -118.5 48.5t-49.5 115.5t49.5 115.5t118.5 48.5z" />
    <glyph glyph-name="uni1EF6" unicode="&#x1ef6;" horiz-adv-x="1294" 
d="M649 1819q-71 0 -137 -62l-92 88q42 42 110.5 70.5t139.5 28.5q100 0 155.5 -45.5t55.5 -116.5q0 -64 -48 -106.5t-137 -59.5l-14 -49l-104 -4q-37 37 -37 61q0 21 26.5 41t57.5 34t57.5 36t26.5 45q0 39 -60 39zM942 1454h334l-485 -815v-639h-291v639l-482 815h330
l297 -530h4z" />
    <glyph glyph-name="uni1EF7" unicode="&#x1ef7;" horiz-adv-x="1103" 
d="M555 1352q-71 0 -137 -62l-92 88q42 42 110.5 70.5t138.5 28.5q100 0 155.5 -45.5t55.5 -116.5q0 -64 -47.5 -106.5t-136.5 -59.5l-14 -49l-105 -4q-37 37 -37 61q0 21 26 41t58 34t58 36t26 45q0 39 -59 39zM791 999h278l-539 -1405h-274l176 467l-397 938h278l246 -618
h2z" />
    <glyph glyph-name="uni1EF8" unicode="&#x1ef8;" horiz-adv-x="1294" 
d="M528 1702q-70 0 -114 -103l-160 70q32 108 95.5 173t150.5 65q15 0 30 -1.5t26 -3.5t25.5 -6.5t21 -6.5t21 -9.5t17.5 -9t18.5 -10t16.5 -9.5q3 -2 8 -5q64 -40 102 -40q72 0 117 101l156 -54q-32 -118 -94 -187t-146 -69t-178 62q-73 43 -113 43zM942 1454h334
l-485 -815v-639h-291v639l-482 815h330l297 -530h4z" />
    <glyph glyph-name="uni1EF9" unicode="&#x1ef9;" horiz-adv-x="1103" 
d="M434 1235q-71 0 -115 -102l-159 69q32 108 95.5 173t150.5 65q15 0 30 -1.5t26 -3.5t25.5 -6.5t21 -6.5t21 -9.5t17.5 -9t18.5 -10t16.5 -9.5q3 -2 8 -5q64 -40 102 -40q72 0 117 101l156 -54q-32 -118 -94 -187t-146 -69t-178 62q-73 43 -113 43zM791 999h278
l-539 -1405h-274l176 467l-397 938h278l246 -618h2z" />
    <glyph glyph-name="uni2002" unicode="&#x2002;" horiz-adv-x="956" 
 />
    <glyph glyph-name="uni2003" unicode="&#x2003;" horiz-adv-x="1912" 
 />
    <glyph glyph-name="uni2009" unicode="&#x2009;" horiz-adv-x="57" 
 />
    <glyph glyph-name="endash" unicode="&#x2013;" horiz-adv-x="1155" 
d="M100 496v229h957v-229h-957z" />
    <glyph glyph-name="emdash" unicode="&#x2014;" horiz-adv-x="2111" 
d="M100 496v229h1911v-229h-1911z" />
    <glyph glyph-name="uni2015" unicode="&#x2015;" horiz-adv-x="2445" 
d="M100 496v229h2245v-229h-2245z" />
    <glyph glyph-name="quoteleft" unicode="&#x2018;" horiz-adv-x="464" 
d="M397 1452l-61 -532h-275l129 532h207z" />
    <glyph glyph-name="quoteright" unicode="&#x2019;" horiz-adv-x="464" 
d="M68 922l61 532h274l-129 -532h-206z" />
    <glyph glyph-name="quotesinglbase" unicode="&#x201a;" horiz-adv-x="499" 
d="M51 -272l64 532h274l-141 -532h-197z" />
    <glyph glyph-name="quotedblleft" unicode="&#x201c;" horiz-adv-x="849" 
d="M397 1454l-61 -532h-277l131 532h207zM782 1454l-61 -532h-275l129 532h207z" />
    <glyph glyph-name="quotedblright" unicode="&#x201d;" horiz-adv-x="849" 
d="M68 922l61 532h274l-129 -532h-206zM453 922l61 532h277l-132 -532h-206z" />
    <glyph glyph-name="quotedblbase" unicode="&#x201e;" horiz-adv-x="884" 
d="M53 -160l62 533h274l-129 -533h-207zM438 -160l62 533h276l-131 -533h-207z" />
    <glyph glyph-name="dagger" unicode="&#x2020;" horiz-adv-x="804" 
d="M403 465l-77 129l12 260l-2 221h-41l-193 -8v152l193 -9h39l-6 195h153l-8 -195h39l190 11v-154l-190 8h-41v-221l10 -260z" />
    <glyph glyph-name="daggerdbl" unicode="&#x2021;" horiz-adv-x="804" 
d="M328 111l8 192h-41l-193 -8v151l193 -8h41v121l-10 199l10 198v119h-41l-193 -8v150l193 -9h39l-8 197h153l-10 -197h41l192 11v-152l-194 8h-37v-119l8 -198l-10 -199l2 -121h39l192 8v-149l-192 6h-41l10 -192h-151z" />
    <glyph glyph-name="bullet" unicode="&#x2022;" horiz-adv-x="868" 
d="M434 408q-100 0 -170.5 69.5t-70.5 169.5t70.5 171t170.5 71q101 0 171.5 -71t70.5 -171t-70.5 -169.5t-171.5 -69.5z" />
    <glyph glyph-name="ellipsis" unicode="&#x2026;" horiz-adv-x="2048" 
d="M340 -16q-69 0 -117.5 47t-48.5 114q0 68 48.5 116t117.5 48q68 0 117 -48.5t49 -115.5t-49 -114t-117 -47zM1024 -16q-69 0 -117.5 47t-48.5 114q0 68 48.5 116t117.5 48q68 0 117 -48.5t49 -115.5t-49 -114t-117 -47zM1708 -16q-69 0 -117.5 47t-48.5 114
q0 68 48.5 116t117.5 48q68 0 117 -48.5t49 -115.5t-49 -114t-117 -47z" />
    <glyph glyph-name="perthousand" unicode="&#x2030;" horiz-adv-x="3008" 
d="M823 -47l-200 86l645 1446l200 -86zM492 655q-174 0 -293 114.5t-119 295.5q0 171 115.5 289.5t296.5 118.5q175 0 294 -113.5t119 -294.5q0 -173 -115.5 -291.5t-297.5 -118.5zM494 846q89 0 145.5 62.5t56.5 154.5q0 96 -57.5 155.5t-144.5 59.5q-88 0 -144.5 -61.5
t-56.5 -153.5q0 -95 58 -156t143 -61zM1591 -16q-173 0 -292 114t-119 293q0 171 115 289.5t296 118.5q175 0 294.5 -114t119.5 -294q0 -171 -115 -289t-299 -118zM2515 -16q-174 0 -294 114t-120 293q0 171 115.5 289.5t298.5 118.5q173 0 293.5 -114.5t120.5 -293.5
q0 -171 -116 -289t-298 -118zM1593 174q89 0 146 62t57 153q0 95 -58.5 155t-144.5 60q-89 0 -144.5 -62t-55.5 -153q0 -95 57.5 -155t142.5 -60zM2515 174q90 0 146.5 62t56.5 153q0 95 -58.5 155t-144.5 60q-89 0 -145 -62t-56 -153q0 -95 58 -155t143 -60z" />
    <glyph glyph-name="guilsinglleft" unicode="&#x2039;" horiz-adv-x="630" 
d="M584 80h-260l-242 426l246 432h260l-250 -432z" />
    <glyph glyph-name="guilsinglright" unicode="&#x203a;" horiz-adv-x="624" 
d="M49 80l246 426l-250 432h260l246 -432l-242 -426h-260z" />
    <glyph glyph-name="uni203D" unicode="&#x203d;" horiz-adv-x="958" 
d="M449 1526q118 0 214 -42.5t157 -133.5t61 -217q0 -61 -14.5 -114.5t-43.5 -98.5t-56 -77t-67 -71q-11 -10 -40.5 -36.5t-41 -37.5t-32 -33t-29.5 -36t-17.5 -33t-9.5 -37l-6 -86h-221l-47 639h291l-12 -160h4q67 77 67 148q0 83 -46 126.5t-130 43.5q-60 0 -116.5 -29.5
t-94.5 -81.5l-190 178q70 87 182 138t238 51zM410 309q68 0 116.5 -48.5t48.5 -115.5t-48.5 -114t-116.5 -47q-69 0 -117.5 47t-48.5 114q0 68 48.5 116t117.5 48z" />
    <glyph glyph-name="uni2042" unicode="&#x2042;" horiz-adv-x="1708" 
d="M764 784l10 211l-176 -110l-82 139l182 94l-184 99l84 141l176 -113l-10 209h162l-11 -209l179 111l82 -139l-187 -97l187 -96l-82 -141l-174 112l6 -211h-162zM332 98l10 211l-176 -110l-82 139l182 94l-184 98l84 142l176 -113l-10 209h162l-11 -209l179 111l81 -140
l-186 -96l186 -96l-81 -141l-175 112l7 -211h-162zM1214 98l11 211l-176 -110l-82 139l182 94l-184 98l84 142l176 -113l-11 209h162l-10 -209l178 111l82 -140l-186 -96l186 -96l-82 -141l-174 112l6 -211h-162z" />
    <glyph glyph-name="fraction" unicode="&#x2044;" horiz-adv-x="479" 
d="M49 -47l-203 86l646 1446l200 -86z" />
    <glyph glyph-name="uni2051" unicode="&#x2051;" horiz-adv-x="825" 
d="M332 784l10 211l-176 -110l-82 139l182 94l-184 99l84 141l176 -113l-10 209h162l-11 -209l179 111l81 -139l-186 -97l186 -96l-81 -141l-175 112l7 -211h-162zM332 45l10 211l-176 -113l-82 142l182 94l-184 96l84 143l176 -112l-10 209h162l-11 -209l179 108l81 -139
l-186 -94l186 -96l-81 -142l-175 113l7 -211h-162z" />
    <glyph glyph-name="uni2070" unicode="&#x2070;" horiz-adv-x="841" 
d="M420 874q-170 0 -268.5 120t-98.5 319q0 208 101 324t266 116q171 0 269.5 -120t98.5 -320q0 -207 -101 -323t-267 -116zM422 1069q71 0 112 63t41 181q0 117 -41.5 181.5t-111.5 64.5q-72 0 -115 -63.5t-43 -182.5q0 -116 42.5 -180t115.5 -64z" />
    <glyph glyph-name="uni2074" unicode="&#x2074;" horiz-adv-x="731" 
d="M371 893v129h-344v127l389 588h164v-537h110v-178h-110v-129h-209zM231 1188h156v242z" />
    <glyph glyph-name="uni2075" unicode="&#x2075;" horiz-adv-x="708" 
d="M393 1438q110 0 187 -75.5t77 -191.5q0 -130 -90 -211t-227 -81q-194 0 -313 127l155 129q55 -68 135 -68q53 0 90 29t37 78q0 56 -35 83t-87 27q-65 0 -111 -49l-115 45l29 457h485v-191h-311l-8 -125q63 17 102 17z" />
    <glyph glyph-name="uni2076" unicode="&#x2076;" horiz-adv-x="737" 
d="M426 1436q104 0 181 -73t77 -196q0 -125 -91.5 -205.5t-223.5 -80.5q-134 0 -228 98.5t-94 251.5q0 125 54.5 235.5t164 191.5t256.5 109l58 -165q-122 -32 -193 -81t-104 -120q68 35 143 35zM371 1063q50 0 84 31t34 80q0 45 -31.5 74.5t-84.5 29.5q-72 0 -125 -59v-9
q0 -71 34.5 -109t88.5 -38z" />
    <glyph glyph-name="uni2077" unicode="&#x2077;" horiz-adv-x="647" 
d="M51 1737h549v-140l-278 -727l-211 41l258 633h-318v193z" />
    <glyph glyph-name="uni2078" unicode="&#x2078;" horiz-adv-x="751" 
d="M547 1352q66 -29 109.5 -87t43.5 -139q0 -113 -93.5 -180t-231.5 -67q-139 0 -231.5 67t-92.5 180q0 79 44.5 137.5t107.5 86.5v4q-41 18 -71 65.5t-30 104.5q0 109 77 167t196 58t195.5 -58.5t76.5 -166.5q0 -57 -30 -105.5t-70 -66.5zM375 1587q-39 0 -65.5 -24.5
t-26.5 -59.5q0 -34 26 -56t66 -22t65 22t25 56q0 36 -25 59t-65 25zM375 1053q50 0 82 28.5t32 71.5t-32 73t-82 29q-49 0 -81 -30t-32 -72q0 -44 32.5 -72t80.5 -28z" />
    <glyph glyph-name="uni2079" unicode="&#x2079;" horiz-adv-x="735" 
d="M367 1749q135 0 227 -97.5t92 -252.5q0 -195 -124 -348.5t-341 -190.5l-57 168q122 29 191.5 78t101.5 123l-2 2q-67 -37 -146 -37q-104 0 -181 72t-77 194q0 126 92 207.5t224 81.5zM246 1456q0 -45 32 -74.5t84 -29.5q74 0 125 57v10q0 70 -34.5 109t-87.5 39
q-50 0 -84.5 -31t-34.5 -80z" />
    <glyph glyph-name="uni207A" unicode="&#x207a;" horiz-adv-x="720" 
d="M641 1382v-170h-192v-196h-181v196h-192v170h192v197h181v-197h192z" />
    <glyph glyph-name="uni207B" unicode="&#x207b;" horiz-adv-x="733" 
d="M86 1204v187h563v-187h-563z" />
    <glyph glyph-name="uni207C" unicode="&#x207c;" horiz-adv-x="770" 
d="M102 1360v164h566v-164h-566zM102 1026v168h566v-168h-566z" />
    <glyph glyph-name="uni207D" unicode="&#x207d;" horiz-adv-x="464" 
d="M250 752q-150 271 -150 559q0 155 44 302t118 259l154 -66q-48 -72 -87.5 -213.5t-39.5 -281.5q0 -147 37 -278t88 -222z" />
    <glyph glyph-name="uni207E" unicode="&#x207e;" horiz-adv-x="464" 
d="M215 752l-164 59q51 91 88 222t37 278q0 140 -39.5 281.5t-87.5 213.5l154 66q74 -112 118 -259t44 -302q0 -288 -150 -559z" />
    <glyph glyph-name="uni207F" unicode="&#x207f;" horiz-adv-x="737" 
d="M453 477q225 0 225 -260v-352h-195v303q0 70 -25 101.5t-79 31.5q-57 0 -90 -34t-33 -101v-301h-195v604h195v-76h2q78 84 195 84z" />
    <glyph glyph-name="uni2080" unicode="&#x2080;" horiz-adv-x="841" 
d="M420 -154q-170 0 -268.5 120t-98.5 319q0 208 101 324t266 116q171 0 269.5 -120t98.5 -320q0 -207 -101 -323t-267 -116zM422 41q71 0 112 63t41 181q0 117 -41.5 181t-111.5 64q-72 0 -115 -63t-43 -182q0 -116 42.5 -180t115.5 -64z" />
    <glyph glyph-name="uni2081" unicode="&#x2081;" horiz-adv-x="581" 
d="M260 -135v584l-129 -91l-102 162l278 189h162v-844h-209z" />
    <glyph glyph-name="uni2082" unicode="&#x2082;" horiz-adv-x="698" 
d="M350 55h293v-190h-594l-2 139l264 264q60 60 85.5 97.5t25.5 74.5q0 39 -26 62.5t-68 23.5q-33 0 -69.5 -18.5t-63.5 -56.5l-154 110q41 70 121 115t184 45q121 0 206 -69.5t85 -186.5q0 -77 -30.5 -139t-119.5 -142l-137 -125v-4z" />
    <glyph glyph-name="uni2083" unicode="&#x2083;" horiz-adv-x="712" 
d="M532 299q132 -63 132 -203q0 -113 -85 -179.5t-223 -66.5q-118 0 -205.5 56t-121.5 143l188 76q15 -46 45 -68t80 -22q47 0 75.5 25t28.5 65q0 42 -32 67t-90 25h-58v156h72q44 0 71 22t27 56q0 38 -25.5 62t-68.5 24q-79 0 -104 -72l-175 92q28 73 105 118.5t174 45.5
q128 0 211.5 -61.5t83.5 -170.5q0 -123 -105 -188v-2z" />
    <glyph glyph-name="uni2084" unicode="&#x2084;" horiz-adv-x="731" 
d="M371 -135v129h-344v127l389 588h164v-537h110v-178h-110v-129h-209zM231 160h156v241z" />
    <glyph glyph-name="uni2085" unicode="&#x2085;" horiz-adv-x="708" 
d="M393 410q110 0 187 -75.5t77 -191.5q0 -130 -90 -211.5t-227 -81.5q-194 0 -313 127l155 129q54 -67 135 -67q53 0 90 28.5t37 77.5q0 56 -35 83.5t-87 27.5q-65 0 -111 -49l-115 45l29 457h485v-191h-311l-8 -125q63 17 102 17z" />
    <glyph glyph-name="uni2086" unicode="&#x2086;" horiz-adv-x="737" 
d="M426 408q104 0 181 -73t77 -196q0 -125 -91.5 -205.5t-223.5 -80.5q-134 0 -228 98.5t-94 251.5q0 125 54.5 235.5t164 191.5t256.5 109l58 -166q-234 -61 -297 -200q68 35 143 35zM371 35q50 0 84 30.5t34 79.5q0 45 -31.5 75t-84.5 30q-71 0 -125 -60v-8
q0 -71 34.5 -109t88.5 -38z" />
    <glyph glyph-name="uni2087" unicode="&#x2087;" horiz-adv-x="647" 
d="M51 709h549v-140l-278 -727l-211 41l258 633h-318v193z" />
    <glyph glyph-name="uni2088" unicode="&#x2088;" horiz-adv-x="751" 
d="M547 324q66 -29 109.5 -87t43.5 -139q0 -114 -93.5 -181t-231.5 -67q-139 0 -231.5 67.5t-92.5 180.5q0 79 44.5 137.5t107.5 86.5v4q-41 18 -71 65.5t-30 104.5q0 109 77 167t196 58t195.5 -58.5t76.5 -166.5q0 -57 -30 -105.5t-70 -66.5zM375 559q-39 0 -65.5 -24.5
t-26.5 -59.5q0 -34 26 -56t66 -22t65 22t25 56q0 36 -25 59t-65 25zM375 25q50 0 82 28.5t32 71.5t-32 73t-82 29q-49 0 -81 -30t-32 -72q0 -44 32.5 -72t80.5 -28z" />
    <glyph glyph-name="uni2089" unicode="&#x2089;" horiz-adv-x="735" 
d="M367 721q135 0 227 -97.5t92 -252.5q0 -195 -124 -348.5t-341 -190.5l-57 168q122 29 191.5 78t101.5 123l-2 2q-67 -37 -146 -37q-104 0 -181 72t-77 194q0 126 92 207.5t224 81.5zM246 428q0 -45 32 -74.5t84 -29.5q74 0 125 57v10q0 70 -34.5 109t-87.5 39
q-50 0 -84.5 -31t-34.5 -80z" />
    <glyph glyph-name="uni208A" unicode="&#x208a;" horiz-adv-x="718" 
d="M641 342v-172h-190v-195h-183v195h-190v172h190v199l183 -2v-197h190z" />
    <glyph glyph-name="uni208B" unicode="&#x208b;" horiz-adv-x="737" 
d="M86 162v186h563v-186h-563z" />
    <glyph glyph-name="uni208C" unicode="&#x208c;" horiz-adv-x="768" 
d="M100 354v164h566v-164h-566zM100 20v166h566v-166h-566z" />
    <glyph glyph-name="uni208D" unicode="&#x208d;" horiz-adv-x="475" 
d="M252 -285q-152 275 -152 559q0 154 44 302t118 258l162 -66q-48 -72 -87.5 -214t-39.5 -280q0 -148 37 -279t88 -218z" />
    <glyph glyph-name="uni208E" unicode="&#x208e;" horiz-adv-x="475" 
d="M223 -285l-170 62q51 87 88 218t37 279q0 138 -39.5 280t-87.5 214l162 66q74 -110 118 -258t44 -302q0 -284 -152 -559z" />
    <glyph glyph-name="uni2090" unicode="&#x2090;" horiz-adv-x="788" 
d="M530 467h185v-602h-185v65h-4q-68 -77 -186 -77q-130 0 -209.5 86.5t-79.5 226.5q0 138 77.5 224.5t199.5 86.5q123 0 200 -92h2v82zM385 29q61 0 100 37.5t39 99.5q0 61 -39 99t-98 38q-62 0 -102.5 -38t-40.5 -99t39.5 -99t101.5 -38z" />
    <glyph glyph-name="uni2091" unicode="&#x2091;" horiz-adv-x="727" 
d="M682 166q0 -37 -6 -55l2 -2h-432q37 -95 149 -95q73 0 127 54l135 -103q-45 -51 -117 -83t-165 -32q-141 0 -233.5 88.5t-92.5 227.5q0 133 92 221t232 88q134 0 221.5 -87t87.5 -222zM377 319q-94 0 -127 -79h248q-31 79 -121 79z" />
    <glyph glyph-name="uni2092" unicode="&#x2092;" horiz-adv-x="755" 
d="M377 -150q-144 0 -236 88.5t-92 225.5t91.5 224t236.5 87t237.5 -86.5t92.5 -224.5t-92.5 -226t-237.5 -88zM377 25q57 0 96 39.5t39 99.5q0 62 -38 100.5t-97 38.5q-58 0 -94.5 -38.5t-36.5 -100.5q0 -60 37 -99.5t94 -39.5z" />
    <glyph glyph-name="uni2093" unicode="&#x2093;" horiz-adv-x="661" 
d="M442 -135l-110 147h-2l-115 -147h-213l215 311l-211 291h223l99 -143h4l98 143h223l-215 -289l221 -313h-217z" />
    <glyph glyph-name="dong" unicode="&#x20ab;" horiz-adv-x="1247" 
d="M1247 1307v-172h-121v-1135h-256v121h-4q-109 -137 -307 -137q-209 0 -344 142.5t-135 371.5q0 226 134.5 372t336.5 146q190 0 301 -129h6v248h-203v172h203v200h268v-200h121zM608 223q112 0 188 76t76 197t-74.5 200.5t-189.5 79.5q-110 0 -183 -77t-73 -203
q0 -121 71.5 -197t184.5 -76zM152 -340v234h970v-234h-970z" />
    <glyph glyph-name="Euro" unicode="&#x20ac;" horiz-adv-x="1239" 
d="M1034 313l156 -207q-173 -120 -391 -120q-147 0 -276 55t-227 170t-136 274h-133v138h114q-2 18 -2 57q0 41 2 61h-114v138h137q54 223 221.5 360t413.5 137q208 0 381 -119l-162 -204q-98 67 -219 67q-109 0 -198.5 -64.5t-133.5 -176.5h457v-138h-490q-4 -40 -4 -61
q0 -39 2 -57h492v-138h-459q44 -113 134.5 -179t199.5 -66q125 0 235 73z" />
    <glyph glyph-name="uni20BA" unicode="&#x20ba;" horiz-adv-x="1173" 
d="M913 547l224 -82q-80 -252 -215.5 -358.5t-341.5 -106.5h-400v379l-135 -66l-68 150l203 98v129l-135 -65l-68 147l203 98v584h289v-444l223 108l68 -147l-291 -142v-129l225 109l68 -147l-293 -142v-295h90q134 0 214 73t140 249z" />
    <glyph glyph-name="uni2113" unicode="&#x2113;" horiz-adv-x="948" 
d="M819 252l84 -55q-65 -106 -157.5 -160.5t-202.5 -54.5q-162 0 -251 77.5t-108 219.5q-57 -50 -112 -91l-52 72q20 17 77 61t83 68l4 533q1 126 27 218t73 146t107.5 79.5t136.5 25.5q112 0 175 -84t63 -215q0 -160 -96 -318t-275 -328v-43q1 -88 18.5 -150t48 -92
t62 -42.5t68.5 -12.5q64 0 124 42.5t103 103.5zM555 1260q-66 0 -113.5 -78t-46.5 -248v-367q279 289 279 508q0 185 -119 185z" />
    <glyph glyph-name="uni2116" unicode="&#x2116;" horiz-adv-x="2281" 
d="M1843 838q-144 0 -235.5 88t-91.5 225t91.5 224t235.5 87q143 0 236.5 -87t93.5 -224t-93.5 -225t-236.5 -88zM1098 471v983h288v-1454h-294l-641 965h-5v-965h-286v1454h286l650 -983h2zM1843 1290q-58 0 -94.5 -38.5t-36.5 -100.5q0 -60 36.5 -99.5t94.5 -39.5
q56 0 94.5 39t38.5 100q0 63 -37 101t-96 38zM1538 539v182h621v-182h-621z" />
    <glyph glyph-name="trademark" unicode="&#x2122;" horiz-adv-x="1409" 
d="M215 793v516h-172v145h508v-145h-172v-516h-164zM639 793v661h166l176 -346l176 346h168v-661h-162v360l-129 -235h-104l-131 235v-360h-160z" />
    <glyph glyph-name="uni2126" unicode="&#x2126;" horiz-adv-x="1564" 
d="M1208 260v-4h240v-256h-569v256q286 219 286 530q0 184 -106 302t-277 118q-171 -1 -277 -118.5t-106 -301.5q0 -310 287 -530v-256h-569v256h239v2q-123 105 -190.5 243.5t-67.5 297.5q0 144 49.5 268.5t138 214t217 140.5t279.5 51t279 -51t216 -140.5t137.5 -214
t49.5 -268.5q0 -159 -67 -297.5t-189 -241.5z" />
    <glyph glyph-name="estimated" unicode="&#x212e;" horiz-adv-x="1626" 
d="M813 -20q-197 0 -360.5 88.5t-257 239t-93.5 329.5q0 137 56.5 259.5t152 209.5t226.5 137.5t276 50.5q198 0 361.5 -88.5t256.5 -239t93 -329.5v-19h-1043v-460q136 -107 334 -107q272 0 430 172h121q-96 -113 -243 -178t-310 -65zM479 702h666v418q-67 47 -155.5 74
t-174.5 27q-91 0 -179.5 -28t-154.5 -79z" />
    <glyph glyph-name="oneeighth" unicode="&#x215b;" horiz-adv-x="1740" 
d="M1057 1485l200 -86l-643 -1446l-202 86zM469 612h-209v584l-129 -90l-102 162l278 188h162v-844zM1536 459q66 -29 110 -87t44 -139q0 -113 -93.5 -180t-232.5 -67t-231.5 67t-92.5 180q0 79 44.5 137.5t107.5 86.5v4q-41 18 -70.5 65.5t-29.5 104.5q0 109 76.5 167
t195.5 58q120 0 196 -58.5t76 -166.5q0 -57 -30 -105.5t-70 -66.5zM1364 694q-39 0 -65.5 -24.5t-26.5 -59.5q0 -34 26 -56t66 -22t65 22t25 56q0 36 -25 59t-65 25zM1364 160q51 0 83 28.5t32 71.5t-32.5 73t-82.5 29q-49 0 -81 -30t-32 -72q0 -44 32.5 -72t80.5 -28z" />
    <glyph glyph-name="threeeighths" unicode="&#x215c;" horiz-adv-x="1826" 
d="M1141 1485l200 -86l-643 -1446l-202 86zM664 844q0 -113 -85 -179.5t-223 -66.5q-118 0 -205.5 56t-121.5 143l188 75q15 -46 45 -68t80 -22q47 0 75.5 25t28.5 65q0 42 -32.5 67.5t-89.5 25.5h-58v155h72q44 0 71 22t27 56q0 38 -25.5 62t-68.5 24q-79 0 -104 -72
l-175 93q28 72 104.5 117.5t174.5 45.5q128 0 211.5 -61t83.5 -170q0 -123 -105 -188v-2q132 -63 132 -203zM1622 459q66 -29 110 -87t44 -139q0 -113 -93.5 -180t-232.5 -67t-231.5 67t-92.5 180q0 79 44.5 137.5t107.5 86.5v4q-41 18 -70.5 65.5t-29.5 104.5
q0 109 76.5 167t195.5 58q120 0 196 -58.5t76 -166.5q0 -57 -30 -105.5t-70 -66.5zM1450 694q-39 0 -65.5 -24.5t-26.5 -59.5q0 -34 26 -56t66 -22t65 22t25 56q0 36 -25 59t-65 25zM1450 160q51 0 83 28.5t32 71.5t-32.5 73t-82.5 29q-49 0 -81 -30t-32 -72q0 -44 32.5 -72
t80.5 -28z" />
    <glyph glyph-name="fiveeighths" unicode="&#x215d;" horiz-adv-x="1812" 
d="M1128 1485l201 -86l-643 -1446l-203 86zM657 891q0 -130 -90 -211.5t-227 -81.5q-194 0 -313 127l155 129q55 -68 135 -68q53 0 90 29t37 78q0 56 -35 83.5t-87 27.5q-64 0 -111 -50l-115 45l29 457h485v-190h-311l-8 -125q59 16 102 16q110 0 187 -75t77 -191zM1608 459
q66 -29 109.5 -87t43.5 -139q0 -113 -93.5 -180t-231.5 -67q-139 0 -231.5 67t-92.5 180q0 79 44.5 137.5t107.5 86.5v4q-41 18 -71 65.5t-30 104.5q0 109 77 167t196 58q120 0 196 -58.5t76 -166.5q0 -57 -30 -105.5t-70 -66.5zM1436 694q-40 0 -66.5 -24.5t-26.5 -59.5
q0 -34 26.5 -56t66.5 -22t65 22t25 56q0 36 -25 59t-65 25zM1436 160q50 0 82 28.5t32 71.5t-32 73t-82 29q-49 0 -81 -30t-32 -72q0 -44 32.5 -72t80.5 -28z" />
    <glyph glyph-name="seveneighths" unicode="&#x215e;" horiz-adv-x="1675" 
d="M991 1485l201 -86l-643 -1446l-203 86zM600 1456v-139l-278 -727l-211 41l258 633h-318v192h549zM1470 459q66 -29 110 -87t44 -139q0 -113 -93.5 -180t-232.5 -67t-231 67t-92 180q0 79 44 138t107 86v4q-41 18 -70.5 65.5t-29.5 104.5q0 109 76.5 167t195.5 58
q120 0 196.5 -58.5t76.5 -166.5q0 -57 -30 -105.5t-71 -66.5zM1298 694q-39 0 -65.5 -24.5t-26.5 -59.5q0 -34 26 -56t66 -22t65.5 22t25.5 56q0 36 -25.5 59t-65.5 25zM1298 160q51 0 83 28.5t32 71.5t-32.5 73t-82.5 29q-49 0 -80.5 -30t-31.5 -72q0 -44 32 -72t80 -28z
" />
    <glyph glyph-name="arrowleft" unicode="&#x2190;" horiz-adv-x="1280" 
d="M547 150l-547 397l547 399l-2 -278h641v-242h-641z" />
    <glyph glyph-name="arrowup" unicode="&#x2191;" horiz-adv-x="1159" 
d="M977 639l-277 2v-641h-241v641l-279 -2l400 547z" />
    <glyph glyph-name="arrowright" unicode="&#x2192;" horiz-adv-x="1280" 
d="M733 150l2 276h-641v242h641l-2 278l547 -399z" />
    <glyph glyph-name="arrowdown" unicode="&#x2193;" horiz-adv-x="1159" 
d="M977 547l-397 -547l-400 547l279 -2v641h241v-641z" />
    <glyph glyph-name="arrowboth" unicode="&#x2194;" horiz-adv-x="1724" 
d="M1724 547l-546 -397l2 276h-635l2 -276l-547 397l547 399l-2 -278h635l-2 278z" />
    <glyph glyph-name="arrowupdn" unicode="&#x2195;" horiz-adv-x="1157" 
d="M698 866v-637l279 2l-399 -546l-398 546l277 -2v637l-277 -2l398 547l399 -547z" />
    <glyph glyph-name="uni2196" unicode="&#x2196;" horiz-adv-x="1171" 
d="M248 344l-107 668l670 -105l-199 -196l453 -453l-170 -170l-455 453z" />
    <glyph glyph-name="uni2197" unicode="&#x2197;" horiz-adv-x="1171" 
d="M926 344l-193 197l-454 -453l-170 170l452 453l-199 196l670 105z" />
    <glyph glyph-name="uni2198" unicode="&#x2198;" horiz-adv-x="1171" 
d="M365 254l196 192l-452 455l170 170l452 -453l197 199l104 -670z" />
    <glyph glyph-name="uni2199" unicode="&#x2199;" horiz-adv-x="1171" 
d="M807 254l-668 -107l105 670l196 -199l453 453l170 -170l-453 -455z" />
    <glyph glyph-name="partialdiff" unicode="&#x2202;" horiz-adv-x="1206" 
d="M575 1421q95 0 173.5 -30t132.5 -79t95.5 -118.5t66 -141.5t39.5 -155t20.5 -152t5.5 -139q0 -154 -40 -275t-110 -196t-161.5 -114t-198.5 -39q-138 0 -251.5 58t-181 165.5t-67.5 243.5q0 107 36 195.5t97 145t139 87t165 30.5q168 0 290 -90l2 4q-11 79 -30.5 141.5
t-53 114.5t-85.5 80t-121 29q-20 0 -44.5 -3.5t-44 -7.5t-50 -12.5t-46 -13.5t-49.5 -16.5t-45 -14.5l-74 219q209 84 391 84zM602 240q103 0 171 82t69 221q-44 61 -109.5 98t-136.5 37q-101 0 -161 -58.5t-60 -160.5q0 -93 63 -156t164 -63z" />
    <glyph glyph-name="emptyset" unicode="&#x2205;" horiz-adv-x="1486" 
d="M1255 1042q131 -174 131 -391q0 -173 -85 -321.5t-234 -237t-326 -88.5q-221 0 -391 135l-102 -102l-109 108l103 103q-140 177 -140 403q0 173 84.5 321t233 236t325.5 88q227 0 402 -141l92 92l111 -110zM315 649q0 -139 78 -250l602 605q-113 79 -250 79
q-183 0 -306.5 -127t-123.5 -307zM741 217q181 0 305.5 127.5t124.5 306.5q0 134 -69 238l-600 -598q107 -74 239 -74z" />
    <glyph glyph-name="uni2206" unicode="&#x2206;" horiz-adv-x="1404" 
d="M846 1454l485 -1233v-221h-233h-996h-30v219l485 1235h289zM393 256h613l-301 838h-5z" />
    <glyph glyph-name="product" unicode="&#x220f;" horiz-adv-x="1431" 
d="M160 -215v1669h1114v-1669h-289v1411h-539v-1411h-286z" />
    <glyph glyph-name="summation" unicode="&#x2211;" horiz-adv-x="1259" 
d="M1167 1196h-686v-4l387 -543l-387 -540v-7h686v-258h-1065v201l451 604l-451 596v209h1065v-258z" />
    <glyph glyph-name="minus" unicode="&#x2212;" horiz-adv-x="1171" 
d="M100 451v233h971v-233h-971z" />
    <glyph glyph-name="radical" unicode="&#x221a;" horiz-adv-x="1505" 
d="M1423 1683h193l-799 -1683h-176l-342 1024h-233v223h448l285 -887h4z" />
    <glyph glyph-name="infinity" unicode="&#x221e;" horiz-adv-x="1579" 
d="M1130 922q145 0 244 -101.5t99 -251.5q0 -156 -100.5 -253t-242.5 -97q-191 0 -344 195q-149 -195 -335 -195q-146 0 -244 100.5t-98 249.5q0 158 100 255.5t242 97.5q185 0 337 -195q161 195 342 195zM467 424q53 0 101.5 35.5t103.5 109.5q-55 74 -101.5 112t-103.5 38
q-62 0 -102.5 -40t-40.5 -110q0 -67 40.5 -106t102.5 -39zM1118 424q58 0 97.5 39t39.5 106q0 69 -39.5 109.5t-97.5 40.5q-102 0 -211 -150q53 -69 103 -107t108 -38z" />
    <glyph glyph-name="integral" unicode="&#x222b;" horiz-adv-x="862" 
d="M111 -354q-80 -2 -164 12l30 205h17q95 0 120.5 38t48.5 178q0 1 0.5 2.5t0.5 2.5l160 1051q22 144 104 221t195 82q59 2 109.5 -5.5t77 -15t30.5 -6.5l-31 -190q-29 2 -72 2q-26 0 -44.5 -1.5t-34 -8.5t-25.5 -12t-19 -22t-14 -27.5t-11.5 -40.5t-9.5 -49t-10 -63
l-159 -1052q-21 -141 -103 -218t-196 -83z" />
    <glyph glyph-name="uni2236" unicode="&#x2236;" horiz-adv-x="559" 
d="M274 809q-69 0 -117 47t-48 115t48 116t117 48q68 0 117 -48.5t49 -115.5t-49 -114.5t-117 -47.5zM274 102q-69 0 -117 47t-48 115t48 116t117 48q68 0 117 -48.5t49 -115.5t-49 -114.5t-117 -47.5z" />
    <glyph glyph-name="approxequal" unicode="&#x2248;" horiz-adv-x="1214" 
d="M842 633q-58 0 -129.5 25t-146 50t-140.5 25q-114 0 -242 -80l-73 178q38 40 119.5 86t168.5 46q55 0 114 -16t101.5 -35.5t97 -35.5t101.5 -16q114 0 213 88l78 -178q-46 -55 -114 -96t-148 -41zM842 178q-47 0 -102.5 16t-99 35.5t-102.5 35.5t-112 16q-121 0 -242 -80
l-73 176q36 41 118 87t170 46q69 0 143 -25.5t143.5 -51t127.5 -25.5q114 0 213 88l78 -181q-46 -55 -114 -96t-148 -41z" />
    <glyph glyph-name="notequal" unicode="&#x2260;" horiz-adv-x="1208" 
d="M1090 686h-328l-111 -237h439v-234h-547l-103 -217l-170 65l72 152h-223v234h332l110 237h-442v234h551l110 237l170 -67l-80 -170h220v-234z" />
    <glyph glyph-name="lessequal" unicode="&#x2264;" horiz-adv-x="1198" 
d="M1065 340l-950 410v192l950 416v-258l-604 -252l604 -256v-252zM1069 0h-956v233h956v-233z" />
    <glyph glyph-name="greaterequal" unicode="&#x2265;" horiz-adv-x="1198" 
d="M133 340v252l604 256l-604 252v258l950 -416v-192zM129 0v233h956v-233h-956z" />
    <glyph glyph-name="filledbox" unicode="&#x25a0;" horiz-adv-x="1316" 
d="M92 0v1128h1131v-1128h-1131z" />
    <glyph glyph-name="uni25A1" unicode="&#x25a1;" horiz-adv-x="1316" 
d="M92 0v1128h1131v-1128h-1131zM299 205h719v719h-719v-719z" />
    <glyph glyph-name="triagup" unicode="&#x25b2;" horiz-adv-x="1314" 
d="M14 0l643 1188l641 -1188h-1284z" />
    <glyph glyph-name="uni25B3" unicode="&#x25b3;" horiz-adv-x="1314" 
d="M14 0l643 1188l641 -1188h-1284zM348 197h619l-310 571z" />
    <glyph glyph-name="uni25B6" unicode="&#x25b6;" horiz-adv-x="1304" 
d="M102 -78v1284l1186 -643z" />
    <glyph glyph-name="uni25B7" unicode="&#x25b7;" horiz-adv-x="1304" 
d="M102 -78v1284l1186 -643zM299 256l571 307l-571 309v-616z" />
    <glyph glyph-name="triagdn" unicode="&#x25bc;" horiz-adv-x="1314" 
d="M657 -57l-643 1185h1284z" />
    <glyph glyph-name="uni25BD" unicode="&#x25bd;" horiz-adv-x="1314" 
d="M657 -57l-643 1185h1284zM657 358l310 574h-619z" />
    <glyph glyph-name="uni25C0" unicode="&#x25c0;" horiz-adv-x="1304" 
d="M1202 -78l-1188 641l1188 643v-1284z" />
    <glyph glyph-name="uni25C1" unicode="&#x25c1;" horiz-adv-x="1304" 
d="M1202 -78l-1188 641l1188 643v-1284zM1004 256v616l-572 -309z" />
    <glyph glyph-name="uni25C6" unicode="&#x25c6;" horiz-adv-x="1419" 
d="M711 -131l-697 694l697 697l694 -697z" />
    <glyph glyph-name="uni25C7" unicode="&#x25c7;" horiz-adv-x="1419" 
d="M711 -131l-697 694l697 697l694 -697zM711 152l411 411l-411 414l-412 -414z" />
    <glyph glyph-name="lozenge" unicode="&#x25ca;" horiz-adv-x="1024" 
d="M504 0l-424 692l424 694l440 -694zM506 395l174 297l-174 305l-166 -305z" />
    <glyph glyph-name="circle" unicode="&#x25cb;" horiz-adv-x="1327" 
d="M664 -16q-157 0 -290.5 77.5t-211.5 211t-78 290.5q0 159 78 293.5t211.5 212.5t290.5 78t290.5 -78t211 -212.5t77.5 -293.5q0 -117 -46 -224.5t-123.5 -185t-185 -123.5t-224.5 -46zM664 188q155 0 264.5 110t109.5 265q0 157 -109.5 267t-264.5 110t-265 -110
t-110 -267q0 -155 110 -265t265 -110z" />
    <glyph glyph-name="uni25CF" unicode="&#x25cf;" horiz-adv-x="1327" 
d="M664 -16q-157 0 -290.5 77.5t-211.5 211t-78 290.5q0 159 78 293.5t211.5 212.5t290.5 78t290.5 -78t211 -212.5t77.5 -293.5q0 -117 -46 -224.5t-123.5 -185t-185 -123.5t-224.5 -46z" />
    <glyph glyph-name="uni2605" unicode="&#x2605;" horiz-adv-x="1548" 
d="M307 -76l178 547l-467 342h578l176 549l180 -549h578l-469 -342l180 -547l-469 338z" />
    <glyph glyph-name="uni2606" unicode="&#x2606;" horiz-adv-x="1548" 
d="M307 -76l178 547l-467 342h578l176 549l180 -549h578l-469 -342l180 -547l-469 338zM956 305l-69 213l186 137h-227l-72 215l-69 -215h-232l186 -137l-67 -213l180 133z" />
    <glyph glyph-name="uni2610" unicode="&#x2610;" horiz-adv-x="1316" 
d="M92 0v1128h1131v-1128h-1131zM299 205h719v719h-719v-719z" />
    <glyph glyph-name="uni2611" unicode="&#x2611;" horiz-adv-x="1511" 
d="M1548 1516l-325 -531v-985h-1131v1128h977l303 496zM1018 205v444l-254 -413l-395 409l147 143l211 -217l215 353h-643v-719h719z" />
    <glyph glyph-name="uni2612" unicode="&#x2612;" horiz-adv-x="1316" 
d="M92 0v1128h1131v-1128h-1131zM299 205h719v719h-719v-719zM475 240l-145 147l180 182l-180 181l145 147l180 -180l185 182l147 -149l-182 -183l182 -182l-147 -143l-181 180z" />
    <glyph glyph-name="uni261A" unicode="&#x261a;" horiz-adv-x="2080" 
d="M1956 1102q14 0 24.5 -10t10.5 -25v-852q0 -13 -10.5 -24t-24.5 -11h-209q-18 0 -28.5 13.5t-4.5 31.5l6 23h-141q-14 0 -24.5 10t-10.5 23v47q-93 -19 -266 -19q10 -30 -23 -53t-69 -23q-5 0 -8.5 1.5l-7 3t-9 7t-10 10.5t-14.5 16t-19 20q11 -31 -24 -57.5t-66 -26.5
q-13 0 -23.5 9t-46.5 48q-4 -40 -35.5 -65t-62.5 -25q-24 0 -143 111q-12 -2 -33 -2q-111 0 -111 82q0 39 17.5 64.5t56.5 53.5l-12 121q-6 52 43.5 77.5t175.5 49.5q-266 -4 -545 -4q-134 0 -200 80q-8 10 -12.5 20.5t-5.5 19.5t0.5 19t4 18t5.5 15.5t6 12t5 8.5l3 4
q13 16 30 16l234 -8q37 -2 93.5 1.5t117 10t125 15t122.5 17t103.5 16t73.5 12.5l28 4q6 3 13 0q127 -22 186 -31q25 -4 142 -20t159 -25v67q0 14 13 24.5t22 10.5h141l-4 25q-6 15 4.5 29t28.5 14h209z" />
    </font>
</defs>
</svg>
