<?xml version="1.0" standalone="no"?>
<!DOCTYPE svg PUBLIC "-//W3C//DTD SVG 1.1//EN" "http://www.w3.org/Graphics/SVG/1.1/DTD/svg11.dtd" >
<svg xmlns="http://www.w3.org/2000/svg" xmlns:xlink="http://www.w3.org/1999/xlink" version="1.1">
<metadata>
Created by FontForge 20170731 at Wed Dec 14 14:18:53 2022
 By Aleksey,,,
Copyright (c) 2015 by Kostas Bartsokas. All rights reserved.
</metadata>
<defs>
<font id="Averta-Regular" horiz-adv-x="1200" >
  <font-face 
    font-family="Averta Regular"
    font-weight="400"
    font-stretch="normal"
    units-per-em="2048"
    panose-1="0 0 5 0 0 0 0 0 0 0"
    ascent="1581"
    descent="-467"
    x-height="997"
    cap-height="1454"
    bbox="-395 -528 2865 2003"
    underline-thickness="77"
    underline-position="-246"
    unicode-range="U+0020-2E18"
  />
<missing-glyph horiz-adv-x="919" 
 />
    <glyph glyph-name=".notdef" horiz-adv-x="919" 
 />
    <glyph glyph-name=".null" horiz-adv-x="0" 
 />
    <glyph glyph-name="nonmarkingreturn" horiz-adv-x="682" 
 />
    <glyph glyph-name="space" unicode=" " horiz-adv-x="563" 
 />
    <glyph glyph-name="exclam" unicode="!" horiz-adv-x="503" 
d="M190 428l-30 1079h190l-31 -1079h-129zM252 -12q-51 0 -85 33t-34 81q0 50 34 83.5t85 33.5q48 0 82.5 -34t34.5 -83q0 -47 -34.5 -80.5t-82.5 -33.5z" />
    <glyph glyph-name="quotedbl" unicode="&#x22;" horiz-adv-x="698" 
d="M80 961l67 493h181l-111 -493h-137zM371 961l65 493h182l-108 -493h-139z" />
    <glyph glyph-name="numbersign" unicode="#" horiz-adv-x="1296" 
d="M262 -72l66 418h-242v129h260l51 330h-268v127h289l61 411h127l-61 -411h317l64 411h127l-64 -411h250v-127h-270l-49 -330h274v-129h-295l-63 -418h-125l63 418h-319l-66 -418h-127zM473 475h320l51 330h-320z" />
    <glyph glyph-name="dollar" unicode="$" horiz-adv-x="1159" 
d="M1067 371q0 -158 -105.5 -259t-291.5 -116v-250h-138v252q-235 25 -417 201l106 127q84 -83 188.5 -126.5t206.5 -43.5q117 0 190 54.5t73 149.5q0 43 -15 77.5t-38 58.5t-65.5 46t-83 37t-106.5 35q-60 19 -95 31.5t-86.5 34t-81.5 40.5t-65.5 48.5t-54.5 62t-32 76
t-13 94.5q0 153 103 253.5t286 109.5v258h138v-268q93 -15 186.5 -55.5t163.5 -94.5l-105 -127q-77 57 -171.5 89t-172.5 32q-110 0 -176.5 -48.5t-66.5 -137.5q0 -37 15.5 -67.5t38 -52t65.5 -43t79 -35.5t97 -34q68 -22 105 -34.5t92 -35t85 -42t65.5 -50.5t53.5 -65
t30.5 -80.5t12.5 -101.5z" />
    <glyph glyph-name="percent" unicode="%" horiz-adv-x="2045" 
d="M774 -35l-135 58l637 1456l135 -60zM500 662q-172 0 -290 113t-118 292q0 168 114 283.5t294 115.5q173 0 291 -110.5t118 -288.5q0 -171 -114 -288t-295 -117zM502 793q118 0 191 78.5t73 193.5q0 119 -76.5 193.5t-187.5 74.5q-118 0 -191 -76.5t-73 -191.5
q0 -121 76 -196.5t188 -75.5zM1538 -12q-171 0 -289.5 112.5t-118.5 290.5q0 168 114.5 285t293.5 117q172 0 291 -112.5t119 -289.5q0 -170 -114 -286.5t-296 -116.5zM1538 119q119 0 192.5 77.5t73.5 192.5q0 120 -76.5 195t-189.5 75q-116 0 -189 -77.5t-73 -192.5
q0 -119 75.5 -194.5t186.5 -75.5z" />
    <glyph glyph-name="ampersand" unicode="&#x26;" horiz-adv-x="1345" 
d="M1087 0l-116 139q-154 -151 -404 -151q-197 0 -330 119t-133 309q0 134 76 248t201 182l-176 211q15 181 134 296t298 115q84 0 156 -24t123 -64.5t86.5 -87t58.5 -98.5l-143 -55q-80 175 -269 178q-120 0 -188.5 -65.5t-79.5 -168.5l592 -706q78 135 78 297l161 4
q0 -112 -32 -226.5t-97 -207.5l205 -244h-201zM279 424q0 -121 85 -199t220 -78q173 0 290 107v2l-391 469q-95 -45 -149.5 -127t-54.5 -174z" />
    <glyph glyph-name="quotesingle" unicode="'" horiz-adv-x="407" 
d="M80 961l67 493h181l-111 -493h-137z" />
    <glyph glyph-name="parenleft" unicode="(" horiz-adv-x="581" 
d="M354 -303q-229 409 -229 909q0 257 62.5 494t174.5 418l127 -62q-99 -178 -153.5 -397t-54.5 -453q0 -441 202 -852z" />
    <glyph glyph-name="parenright" unicode=")" horiz-adv-x="581" 
d="M227 -303l-129 57q203 413 203 852q0 233 -55 452t-154 398l127 62q112 -182 175 -418.5t63 -493.5q0 -499 -230 -909z" />
    <glyph glyph-name="asterisk" unicode="*" horiz-adv-x="837" 
d="M365 805l6 242l-203 -127l-57 98l213 110l-215 115l59 96l203 -127l-6 242h110l-8 -242l205 127l55 -96l-215 -115l215 -110l-55 -98l-203 127l6 -242h-110z" />
    <glyph glyph-name="plus" unicode="+" horiz-adv-x="1191" 
d="M518 88v401h-401v154h401v404h156v-404h401v-154h-401v-401h-156z" />
    <glyph glyph-name="comma" unicode="," horiz-adv-x="440" 
d="M66 -266l65 491h182l-125 -491h-122z" />
    <glyph glyph-name="hyphen" unicode="-" horiz-adv-x="839" 
d="M117 551v162h606v-162h-606z" />
    <glyph glyph-name="period" unicode="." horiz-adv-x="493" 
d="M248 -12q-51 0 -85 33t-34 81q0 50 34 83.5t85 33.5q48 0 82.5 -34t34.5 -83q0 -47 -34.5 -80.5t-82.5 -33.5z" />
    <glyph glyph-name="slash" unicode="/" horiz-adv-x="847" 
d="M78 -231l-135 61l788 1747l133 -64z" />
    <glyph glyph-name="zero" unicode="0" horiz-adv-x="1286" 
d="M643 -12q-235 0 -381.5 189t-146.5 525q0 209 61 370t182 254t285 93q115 0 211.5 -48t167 -137.5t110 -226t39.5 -305.5q0 -209 -61 -369.5t-181.5 -252.5t-285.5 -92zM643 147q167 0 260.5 150t93.5 405q0 265 -97 411.5t-257 146.5q-166 0 -260 -151t-94 -407
q0 -261 97.5 -408t256.5 -147z" />
    <glyph glyph-name="one" unicode="1" horiz-adv-x="768" 
d="M410 0v1198l-281 -211l-86 129l395 291h144v-1407h-172z" />
    <glyph glyph-name="two" unicode="2" horiz-adv-x="1067" 
d="M342 158h625v-158h-885l-2 119l481 491q106 110 160.5 196t54.5 181q0 118 -74 194t-190 76q-203 0 -303 -192l-127 88q62 123 172 194.5t268 71.5q113 0 209 -48t156.5 -144t60.5 -221q0 -122 -55 -233t-184 -241l-367 -370v-4z" />
    <glyph glyph-name="three" unicode="3" horiz-adv-x="1101" 
d="M754 729q112 -43 175.5 -135.5t63.5 -216.5q0 -172 -128.5 -280.5t-325.5 -108.5q-175 0 -300.5 76t-181.5 202l150 70q39 -89 120 -137.5t201 -48.5q124 0 207.5 70t83.5 183q0 107 -80 178.5t-229 71.5h-117v152h137q127 0 190.5 63t63.5 160q0 102 -75.5 165.5
t-188.5 63.5q-183 0 -274 -137l-140 76q57 102 164.5 162.5t253.5 60.5q186 0 309 -99t123 -269q0 -105 -53 -190t-149 -130v-2z" />
    <glyph glyph-name="four" unicode="4" horiz-adv-x="1163" 
d="M717 0v248h-654v123l680 1036h146v-1004h205v-155h-205v-248h-172zM270 399h451v695z" />
    <glyph glyph-name="five" unicode="5" horiz-adv-x="1140" 
d="M584 893q194 0 324 -121.5t130 -327.5q0 -201 -141 -329.5t-348 -128.5q-146 0 -269.5 62.5t-197.5 172.5l129 98q48 -80 133.5 -126t192.5 -46q138 0 232.5 85.5t94.5 213.5q0 136 -95 215.5t-230 79.5q-159 0 -248 -77l-101 30l41 713h744v-160h-582l-22 -395
q115 41 213 41z" />
    <glyph glyph-name="six" unicode="6" horiz-adv-x="1196" 
d="M655 887q193 0 316 -120.5t123 -326.5q0 -194 -138.5 -323t-347.5 -129q-213 0 -354 151t-141 391q0 148 38.5 284t106 242t157.5 189t195 134.5t217 70.5l52 -147q-99 -23 -187 -67t-164 -110t-133 -159t-86 -205h2q65 59 155 92t189 33zM606 150q138 0 227 85t89 207
q0 129 -83.5 207t-222.5 78q-110 0 -197.5 -55t-137.5 -137v-15q0 -165 91 -267.5t234 -102.5z" />
    <glyph glyph-name="seven" unicode="7" horiz-adv-x="1011" 
d="M55 1407h871v-121l-557 -1311l-172 35l538 1237h-680v160z" />
    <glyph glyph-name="eight" unicode="8" horiz-adv-x="1177" 
d="M815 762q120 -38 194 -136.5t74 -238.5q0 -179 -141.5 -289t-353.5 -110q-216 0 -355 113t-139 286q0 139 73.5 238t192.5 137v2q-78 25 -137 107t-59 190q0 165 119 261.5t305 96.5q191 0 308.5 -98.5t117.5 -259.5q0 -107 -60.5 -189.5t-138.5 -107.5v-2zM588 1266
q-114 0 -186 -63.5t-72 -153.5q0 -96 71.5 -154.5t186.5 -58.5q116 0 189 58.5t73 154.5q0 95 -74.5 156t-187.5 61zM588 143q140 0 228.5 77.5t88.5 185.5q0 120 -87.5 195t-229.5 75q-144 0 -232 -74.5t-88 -195.5q0 -113 92.5 -188t227.5 -75z" />
    <glyph glyph-name="nine" unicode="9" horiz-adv-x="1185" 
d="M584 1419q211 0 352 -153.5t141 -399.5q-1 -185 -64 -348t-167 -277t-234 -189t-270 -101l-49 147q98 25 186.5 68.5t168.5 108.5t140.5 158t90.5 206l-5 2q-67 -59 -157.5 -92t-192.5 -33q-186 0 -307 120.5t-121 321.5q0 197 139.5 329t348.5 132zM561 676
q106 0 200 52.5t148 141.5v11q0 170 -91 274.5t-232 104.5q-139 0 -227.5 -88.5t-88.5 -213.5q0 -126 80.5 -204t210.5 -78z" />
    <glyph glyph-name="colon" unicode=":" horiz-adv-x="487" 
d="M240 776q-51 0 -85 33.5t-34 81.5q0 50 34 83.5t85 33.5q48 0 82 -34t34 -83q0 -47 -34.5 -81t-81.5 -34zM240 -12q-51 0 -85 33t-34 81q0 50 34 83.5t85 33.5q48 0 82 -34t34 -83q0 -47 -34.5 -80.5t-81.5 -33.5z" />
    <glyph glyph-name="semicolon" unicode=";" horiz-adv-x="464" 
d="M227 774q-50 0 -84 33.5t-34 81.5q0 50 33.5 83.5t84.5 33.5q48 0 82.5 -34t34.5 -83q0 -47 -35 -81t-82 -34zM68 -266l65 491h182l-125 -491h-122z" />
    <glyph glyph-name="less" unicode="&#x3c;" horiz-adv-x="1175" 
d="M1036 86l-921 420v123l921 424v-170l-692 -314l692 -315v-168z" />
    <glyph glyph-name="equal" unicode="=" horiz-adv-x="1193" 
d="M131 721v153h959v-153h-959zM131 258v154h959v-154h-959z" />
    <glyph glyph-name="greater" unicode="&#x3e;" horiz-adv-x="1175" 
d="M139 86v168l692 315l-692 314v170l922 -424v-123z" />
    <glyph glyph-name="question" unicode="?" horiz-adv-x="923" 
d="M324 426v109q0 55 26 109.5t57 91t82 89.5q13 12 19 19q71 75 109 140t38 146q0 104 -65.5 164t-165.5 60q-72 0 -141.5 -37t-112.5 -103l-125 117q68 91 170.5 141t220.5 50q170 0 287 -104.5t117 -278.5q0 -111 -48.5 -196.5t-134.5 -172.5q-11 -11 -50.5 -49
t-52.5 -53t-36.5 -43.5t-32.5 -51.5t-10 -47l-4 -100h-147zM403 -12q-51 0 -84.5 33t-33.5 81q0 50 33.5 83.5t84.5 33.5q48 0 82.5 -34t34.5 -83q0 -47 -34.5 -80.5t-82.5 -33.5z" />
    <glyph glyph-name="at" unicode="@" horiz-adv-x="1847" 
d="M1327 86q-92 0 -146.5 54t-52.5 143h-4q-46 -85 -124 -129.5t-181 -44.5q-153 0 -251.5 107.5t-98.5 283.5q0 59 14.5 121t47.5 124t79.5 110.5t116 79t152.5 30.5q193 0 276 -177h2l19 164h167l-53 -553q-4 -46 -4 -57q0 -71 22.5 -96t65.5 -25q58 0 106 40t76 100
t43 124t15 119q0 132 -45.5 246t-126 195.5t-197.5 128.5t-254 47q-158 0 -288.5 -47t-215.5 -122.5t-144 -174t-84.5 -198.5t-25.5 -200q0 -177 83.5 -325t224.5 -232t307 -84q229 0 432 109l61 -97q-215 -137 -493 -137q-157 0 -295.5 58t-238 158.5t-157 244t-57.5 307.5
q0 76 14.5 155.5t47.5 164.5t81 163t121 147.5t162 120.5t208.5 81t256.5 30q224 0 396.5 -94t266 -262t93.5 -383q0 -61 -12 -126.5t-42.5 -137t-76.5 -127t-121 -91.5t-168 -36zM868 260q66 0 121 28t89 73t52.5 98t18.5 106q0 106 -62.5 176t-160.5 70q-130 0 -207.5 -88
t-77.5 -209q0 -111 64 -182.5t163 -71.5z" />
    <glyph glyph-name="A" unicode="A" horiz-adv-x="1396" 
d="M1153 0l-129 354h-649l-129 -354h-189l551 1454h178l555 -1454h-188zM432 510h535l-267 727h-4z" />
    <glyph glyph-name="B" unicode="B" horiz-adv-x="1308" 
d="M899 764q133 -28 217 -123t84 -248q0 -179 -123 -286t-362 -107h-531v1454h475q222 0 345.5 -87t123.5 -267q0 -111 -58.5 -201.5t-170.5 -130.5v-4zM362 1290v-461h295q55 0 104.5 13t92 39.5t67.5 73.5t25 110q0 225 -323 225h-261zM666 164q160 0 254 62.5t94 183.5
q0 123 -88 191.5t-252 68.5h-312v-506h304z" />
    <glyph glyph-name="C" unicode="C" horiz-adv-x="1490" 
d="M846 -10q-149 0 -279.5 48t-230 138.5t-157.5 231t-58 313.5q0 156 48.5 291.5t138.5 237t228.5 160t309.5 58.5q159 0 306 -68t261 -210l-133 -111q-84 105 -196.5 162t-237.5 57q-246 0 -392.5 -160t-146.5 -417q0 -127 41 -233t113 -177.5t171 -111t214 -39.5
q260 0 434 217l133 -113q-220 -274 -567 -274z" />
    <glyph glyph-name="D" unicode="D" horiz-adv-x="1495" 
d="M184 0v1454h437q227 0 398.5 -92.5t263 -257.5t91.5 -379q0 -160 -52 -294t-147.5 -229.5t-236 -148.5t-311.5 -53h-443zM362 162h252q260 0 419 157.5t159 405.5q0 251 -157.5 409t-411.5 158h-261v-1130z" />
    <glyph glyph-name="E" unicode="E" horiz-adv-x="1224" 
d="M184 0v1454h891v-164h-710v-485h583v-164h-583v-477h753v-164h-934z" />
    <glyph glyph-name="F" unicode="F" horiz-adv-x="1193" 
d="M184 0v1454h928v-164h-750v-510h637v-164h-637v-616h-178z" />
    <glyph glyph-name="G" unicode="G" horiz-adv-x="1562" 
d="M813 750h600v-576q-102 -87 -250.5 -135.5t-314.5 -48.5q-156 0 -290 52t-230.5 146t-151.5 232.5t-55 304.5q0 214 88 382.5t253 264.5t380 96q155 0 299 -56t256 -173l-127 -109q-177 168 -430 168q-232 0 -382.5 -158t-150.5 -415q0 -163 66.5 -292.5t190.5 -203
t284 -73.5q233 0 387 110v320h-422v164z" />
    <glyph glyph-name="H" unicode="H" horiz-adv-x="1486" 
d="M184 0v1454h178v-682h762v682h179v-1454h-179v608h-762v-608h-178z" />
    <glyph glyph-name="I" unicode="I" horiz-adv-x="569" 
d="M195 0v1454h180v-1454h-180z" />
    <glyph glyph-name="J" unicode="J" horiz-adv-x="1017" 
d="M446 -10q-101 0 -204.5 47.5t-175.5 136.5l100 131q56 -64 129 -104.5t145 -40.5q240 0 240 317v977h176v-981q0 -239 -99 -361t-311 -122z" />
    <glyph glyph-name="K" unicode="K" horiz-adv-x="1331" 
d="M575 647h-6l-207 -246v-401h-178v1454h178v-799h5l661 799h227l-563 -661l580 -793h-223z" />
    <glyph glyph-name="L" unicode="L" horiz-adv-x="1150" 
d="M184 0v1454h178v-1290h721v-164h-899z" />
    <glyph glyph-name="M" unicode="M" horiz-adv-x="1800" 
d="M1438 1454h178v-1454h-178v1114h-4l-473 -821h-121l-473 821h-5v-1114h-178v1454h181l534 -940h4z" />
    <glyph glyph-name="N" unicode="N" horiz-adv-x="1548" 
d="M1186 1454h178v-1454h-182l-815 1147h-5v-1147h-178v1454h176l822 -1159h4v1159z" />
    <glyph glyph-name="O" unicode="O" horiz-adv-x="1697" 
d="M852 -12q-214 0 -381.5 97t-258.5 265t-91 377t91 377.5t258.5 266t381.5 97.5q153 0 286.5 -54t230 -149.5t152.5 -235t56 -302.5t-56 -301.5t-152.5 -234t-230.5 -149.5t-286 -54zM852 158q149 0 272 72t195 202.5t72 294.5q0 165 -72 296.5t-194.5 203t-272.5 71.5
q-159 0 -285 -77t-194 -207t-68 -287t68 -286.5t194 -206t285 -76.5z" />
    <glyph glyph-name="P" unicode="P" horiz-adv-x="1265" 
d="M184 0v1454h510q124 0 218 -33.5t151 -95t85 -142t28 -179.5q0 -223 -138 -336t-374 -113h-302v-555h-178zM362 719h285q175 0 258.5 78.5t83.5 210.5q0 136 -82.5 209t-230.5 73h-314v-571z" />
    <glyph glyph-name="Q" unicode="Q" horiz-adv-x="1732" 
d="M1612 98l-103 -129l-192 176q-196 -157 -465 -157q-214 0 -381.5 97t-258.5 265t-91 377t91 377.5t258.5 266t381.5 97.5q153 0 286.5 -54t230 -149.5t152.5 -235t56 -302.5q0 -268 -147 -465zM852 158q190 0 328 110l-166 152l100 123l176 -158q101 151 101 342
q0 161 -69.5 291.5t-193 205t-276.5 74.5q-155 0 -280.5 -74.5t-196 -205t-70.5 -291.5t70.5 -291t196 -204t280.5 -74z" />
    <glyph glyph-name="R" unicode="R" horiz-adv-x="1325" 
d="M1221 0h-215l-369 555h-275v-555h-178v1454h516q123 0 216.5 -33.5t151 -95t86 -142t28.5 -179.5q0 -181 -91 -289.5t-255 -143.5v-2zM362 1290v-571h291q174 0 259 78.5t85 210.5q0 137 -84 209.5t-235 72.5h-316z" />
    <glyph glyph-name="S" unicode="S" horiz-adv-x="1196" 
d="M606 -12q-142 0 -276.5 56t-239.5 169l115 135q75 -93 183.5 -142.5t219.5 -49.5q135 0 216 60t81 163q0 33 -8 61t-19.5 49t-34.5 41t-44 34t-56.5 30t-64 27t-74.5 29l-24 9q-56 21 -92.5 36t-87 39t-83 46.5t-68 55t-56.5 67.5t-34.5 81t-13.5 99q0 162 129 272.5
t316 112.5q248 0 461 -170l-109 -139q-84 70 -176 107t-176 37q-107 0 -182.5 -56.5t-75.5 -154.5q0 -23 5 -43.5t11.5 -37t23.5 -33.5l28 -28t38.5 -26.5t41 -23.5t50.5 -23.5t52.5 -22t58.5 -23.5q182 -70 244 -103q139 -76 183 -188q24 -63 24 -143q0 -97 -40.5 -176.5
t-109 -129t-155 -76.5t-181.5 -27z" />
    <glyph glyph-name="T" unicode="T" horiz-adv-x="1181" 
d="M500 0v1290h-437v164h1053v-164h-438v-1290h-178z" />
    <glyph glyph-name="U" unicode="U" horiz-adv-x="1456" 
d="M725 -12q-253 0 -407 160.5t-154 443.5v862h178v-850q0 -202 104.5 -324t278.5 -122q173 0 280 119.5t107 326.5v850h178v-862q0 -280 -152.5 -442t-412.5 -162z" />
    <glyph glyph-name="V" unicode="V" horiz-adv-x="1380" 
d="M1130 1454h193l-549 -1454h-160l-548 1454h192l434 -1198h4z" />
    <glyph glyph-name="W" unicode="W" horiz-adv-x="2097" 
d="M1835 1454h190l-464 -1454h-172l-336 1192h-2l-342 -1192h-172l-465 1454h190l359 -1161h4l327 1161h195l328 -1165h2z" />
    <glyph glyph-name="X" unicode="X" horiz-adv-x="1366" 
d="M1085 0l-399 586h-4l-399 -586h-211l497 727l-491 727h205l399 -588h4l397 588h207l-489 -729l495 -725h-211z" />
    <glyph glyph-name="Y" unicode="Y" horiz-adv-x="1236" 
d="M995 1454h207l-495 -805v-649h-179v649l-493 805h205l376 -627h5z" />
    <glyph glyph-name="Z" unicode="Z" horiz-adv-x="1265" 
d="M348 164h789v-164h-1016v141l776 1147v2h-735v164h968v-141z" />
    <glyph glyph-name="bracketleft" unicode="[" horiz-adv-x="636" 
d="M139 -297v1790h400v-131h-252v-1528h252v-131h-400z" />
    <glyph glyph-name="backslash" unicode="\" horiz-adv-x="860" 
d="M770 -231l-786 1744l133 64l788 -1747z" />
    <glyph glyph-name="bracketright" unicode="]" horiz-adv-x="636" 
d="M498 -297h-400v131h252v1528h-252v131h400v-1790z" />
    <glyph glyph-name="asciicircum" unicode="^" horiz-adv-x="958" 
d="M125 1024l287 430h133l289 -430h-152l-205 313l-205 -313h-147z" />
    <glyph glyph-name="underscore" unicode="_" horiz-adv-x="1079" 
d="M-4 -174v119h1087v-119h-1087z" />
    <glyph glyph-name="grave" unicode="`" horiz-adv-x="1034" 
d="M522 1108l-254 291l191 -2l239 -289h-176z" />
    <glyph glyph-name="a" unicode="a" horiz-adv-x="1245" 
d="M932 997h166v-997h-160v158h-2q-61 -81 -151 -125.5t-197 -44.5q-211 0 -350.5 139.5t-139.5 364.5q0 222 138.5 370t349.5 148q103 0 192 -42t152 -120h2v149zM602 139q139 0 237.5 99t98.5 254t-95 259.5t-239 104.5t-241 -100.5t-97 -263.5q0 -153 93 -253t243 -100z
" />
    <glyph glyph-name="b" unicode="b" horiz-adv-x="1255" 
d="M672 1010q210 0 348.5 -148t138.5 -370q0 -225 -140 -364.5t-349 -139.5q-107 0 -197 44.5t-151 125.5h-5v-158h-157v1507h166v-659h2q63 78 152 120t192 42zM653 139q150 0 243 100t93 253q0 163 -96.5 263.5t-241.5 100.5q-142 0 -237 -105t-95 -259t98.5 -253.5
t235.5 -99.5z" />
    <glyph glyph-name="c" unicode="c" horiz-adv-x="1069" 
d="M590 -12q-216 0 -355 142t-139 368t140 369t360 143q115 0 222 -46.5t179 -132.5l-114 -100q-47 58 -119.5 91.5t-159.5 33.5q-151 0 -245.5 -100t-94.5 -258q0 -160 94.5 -259.5t245.5 -99.5q85 0 160 33t123 86l114 -102q-66 -74 -174.5 -121t-236.5 -47z" />
    <glyph glyph-name="d" unicode="d" horiz-adv-x="1251" 
d="M926 1507h166v-1507h-158v158h-4q-61 -81 -149.5 -125.5t-194.5 -44.5q-211 0 -350.5 139.5t-139.5 364.5q0 222 138.5 370t349.5 148q101 0 190 -42t150 -120h2v659zM600 139q136 0 234 99.5t98 253.5t-94.5 259t-235.5 105q-144 0 -241 -100.5t-97 -263.5
q0 -153 93 -253t243 -100z" />
    <glyph glyph-name="e" unicode="e" horiz-adv-x="1130" 
d="M1036 514q0 -16 -2 -42l-2 -26h-768q17 -140 108 -223.5t226 -83.5q175 0 281 135l116 -100q-144 -186 -403 -186q-214 0 -355 142.5t-141 367.5q0 224 136.5 368t340.5 144q207 0 335 -139.5t128 -356.5zM582 856q-118 0 -203.5 -73t-108.5 -199h602
q-21 125 -96.5 198.5t-193.5 73.5z" />
    <glyph glyph-name="f" unicode="f" horiz-adv-x="686" 
d="M201 0v854h-123v143h123v201q0 159 72 241.5t206 82.5q127 0 234 -64l-37 -143q-97 51 -174 51q-137 0 -137 -182v-187h282v-143h-282v-854h-164z" />
    <glyph glyph-name="g" unicode="g" horiz-adv-x="1226" 
d="M915 997h164v-921q0 -111 -28 -199.5t-85.5 -155.5t-152.5 -103t-223 -36q-226 0 -406 109l39 153q94 -53 176.5 -78.5t182.5 -25.5q162 0 249 82.5t87 210.5v139h-5q-125 -154 -338 -154q-204 0 -343.5 138t-139.5 356q0 212 136.5 355t338.5 143q100 0 190 -39.5
t154 -112.5h4v139zM588 174q149 0 241.5 97.5t92.5 248.5q0 148 -95.5 241t-238.5 93q-142 0 -234 -95.5t-92 -240.5q0 -155 94 -249.5t232 -94.5z" />
    <glyph glyph-name="h" unicode="h" horiz-adv-x="1196" 
d="M694 1010q169 0 266 -102.5t97 -309.5v-598h-166v551q0 305 -244 305q-150 0 -236.5 -94t-86.5 -260v-502h-166v1507h166v-673h4q61 86 155.5 131t210.5 45z" />
    <glyph glyph-name="i" unicode="i" horiz-adv-x="512" 
d="M256 1182q-51 0 -85 33t-34 83q0 48 34.5 82.5t84.5 34.5q49 0 84 -34.5t35 -82.5q0 -49 -34.5 -82.5t-84.5 -33.5zM172 0v997h166v-997h-166z" />
    <glyph glyph-name="j" unicode="j" horiz-adv-x="466" 
d="M240 1182q-51 0 -85 33t-34 83q0 48 34.5 82.5t84.5 34.5q49 0 83.5 -34.5t34.5 -82.5q0 -49 -34 -82.5t-84 -33.5zM68 -418q-95 0 -172 33l26 147q54 -28 105 -28q59 0 94 40t35 122v1101h166v-1101q0 -146 -68 -230t-186 -84z" />
    <glyph glyph-name="k" unicode="k" horiz-adv-x="1067" 
d="M537 457h-5l-208 -232v-225h-164v1507h164v-1054h4l489 544h203l-373 -413l375 -584h-191z" />
    <glyph glyph-name="l" unicode="l" horiz-adv-x="512" 
d="M172 0v1507h166v-1507h-166z" />
    <glyph glyph-name="m" unicode="m" horiz-adv-x="1830" 
d="M1343 1010q351 0 351 -426v-584h-166v539q0 167 -57 242t-177 75q-119 0 -198.5 -98.5t-79.5 -261.5v-496h-166v541q0 163 -59.5 239t-178.5 76q-124 0 -206 -98t-82 -262v-496h-164v997h164v-172h2q61 88 149.5 136.5t186.5 48.5q238 0 317 -197h2q60 95 154 146t208 51
z" />
    <glyph glyph-name="n" unicode="n" horiz-adv-x="1187" 
d="M688 1010q167 0 263 -105t96 -313v-592h-166v545q0 166 -64 238.5t-180 72.5q-143 0 -228 -95.5t-85 -262.5v-498h-166v997h166v-174h2q63 89 157.5 138t204.5 49z" />
    <glyph glyph-name="o" unicode="o" horiz-adv-x="1222" 
d="M612 -12q-152 0 -270.5 67.5t-182 183.5t-63.5 259q0 219 143.5 365.5t372.5 146.5q222 0 367 -143.5t145 -368.5t-145 -367.5t-367 -142.5zM612 139q146 0 245 101t99 258q0 158 -98.5 258t-245.5 100q-154 0 -251 -103t-97 -255t97.5 -255.5t250.5 -103.5z" />
    <glyph glyph-name="p" unicode="p" horiz-adv-x="1251" 
d="M668 1010q211 0 349 -148t138 -370q0 -225 -139 -364.5t-348 -139.5q-104 0 -191.5 41.5t-148.5 117.5h-4v-553h-164v1403h166v-147h2q63 77 151.5 118.5t188.5 41.5zM651 139q150 0 243 100t93 253q0 163 -96.5 263.5t-241.5 100.5q-141 0 -235.5 -105t-94.5 -259
t98 -253.5t234 -99.5z" />
    <glyph glyph-name="q" unicode="q" horiz-adv-x="1245" 
d="M928 997h166v-1403h-166v553h-4q-61 -76 -148 -117.5t-190 -41.5q-211 0 -350.5 139.5t-139.5 364.5q0 222 138.5 370t349.5 148q102 0 190.5 -41.5t149.5 -118.5h4v147zM600 139q136 0 235 99.5t99 253.5t-95.5 259t-236.5 105q-144 0 -241 -100.5t-97 -263.5
q0 -153 93 -253t243 -100z" />
    <glyph glyph-name="r" unicode="r" horiz-adv-x="731" 
d="M651 1010q31 0 41 -2v-185q-46 4 -65 4q-139 0 -221 -96.5t-82 -249.5v-481h-166v997h166v-176h2q56 90 140.5 139.5t184.5 49.5z" />
    <glyph glyph-name="s" unicode="s" horiz-adv-x="903" 
d="M463 -12q-232 0 -391 143l86 125q64 -59 134.5 -89t170.5 -30q86 0 137 38.5t51 94.5q0 31 -15 53.5t-47.5 41t-69.5 32.5t-95 34q-7 2 -10 3q-70 25 -116.5 47.5t-92 58t-68 85.5t-22.5 116q0 116 93.5 192.5t235.5 76.5q190 0 342 -123l-86 -131q-118 102 -264 102
q-60 0 -106.5 -32.5t-46.5 -84.5q0 -28 13 -50.5t42.5 -41.5t57 -32t75.5 -31q160 -62 190 -77q104 -50 137 -121q22 -48 21 -116q0 -124 -92 -204t-264 -80z" />
    <glyph glyph-name="t" unicode="t" horiz-adv-x="745" 
d="M440 -12q-260 0 -260 309v557h-127v143h127v340l166 19v-359h332v-143h-332v-532q0 -93 27.5 -136t95.5 -43q77 0 168 52l45 -146q-108 -61 -242 -61z" />
    <glyph glyph-name="u" unicode="u" horiz-adv-x="1155" 
d="M842 997h166v-997h-166v166h-2q-60 -86 -145.5 -132t-182.5 -46q-177 0 -276 103.5t-99 311.5v594h166v-546q0 -166 60.5 -239t183.5 -73q124 0 209.5 101.5t85.5 273.5v483z" />
    <glyph glyph-name="v" unicode="v" horiz-adv-x="1071" 
d="M842 997h180l-406 -997h-159l-408 997h178l308 -786h6z" />
    <glyph glyph-name="w" unicode="w" horiz-adv-x="1572" 
d="M1346 997h167l-346 -997h-155l-226 727h-2l-227 -727h-151l-347 997h168l254 -745h4l228 745h143l231 -745h5z" />
    <glyph glyph-name="x" unicode="x" horiz-adv-x="1044" 
d="M795 0l-271 362h-4l-268 -362h-189l363 504l-363 493h195l262 -364h4l260 364h195l-361 -493l365 -504h-188z" />
    <glyph glyph-name="y" unicode="y" horiz-adv-x="1081" 
d="M854 997h176l-563 -1403h-176l178 447l-422 956h178l324 -759h4z" />
    <glyph glyph-name="z" unicode="z" horiz-adv-x="972" 
d="M887 879l-584 -732v-4h582v-143h-805v123l577 727v4h-546v143h776v-118z" />
    <glyph glyph-name="braceleft" unicode="{" horiz-adv-x="692" 
d="M406 797q0 -90 -26 -137.5t-93 -65.5v-4q70 -19 94.5 -61t24.5 -144v-401q0 -84 30 -122t101 -38h53v-119h-109q-95 0 -158 62t-63 165v437q0 22 -0.5 34t-3.5 30t-9 28.5t-18 23t-29 19.5t-42.5 12.5t-59.5 7.5v133q46 3 78 14t48 24t24.5 36t10 38.5t1.5 43.5v453
q0 97 60 162t161 65h109v-119h-53q-62 0 -96.5 -40t-34.5 -97v-440z" />
    <glyph glyph-name="bar" unicode="|" horiz-adv-x="602" 
d="M227 -236v1745h148v-1745h-148z" />
    <glyph glyph-name="braceright" unicode="}" horiz-adv-x="692" 
d="M432 813q0 -28 1.5 -43.5t10 -38.5t24.5 -36t48 -24t78 -14v-133q-34 -2 -59.5 -7.5t-42.5 -12.5t-29 -19.5t-18 -23t-9 -28.5t-3.5 -30t-0.5 -34v-437q0 -103 -63 -165t-158 -62h-109v119h54q71 0 101 38t30 122v401q0 102 24.5 144t94.5 61v4q-67 18 -93 65.5
t-26 137.5v440q0 57 -34.5 97t-96.5 40h-54v119h109q101 0 161 -65t60 -162v-453z" />
    <glyph glyph-name="asciitilde" unicode="~" horiz-adv-x="1150" 
d="M776 432q-41 0 -86 12.5t-66 22t-69 33.5q-95 45 -154 45q-99 0 -155 -109l-121 49q37 101 102.5 159t155.5 58q93 0 209 -57q100 -53 166 -53q45 0 84.5 28t62.5 78l121 -43q-34 -102 -101.5 -162.5t-148.5 -60.5z" />
    <glyph glyph-name="exclamdown" unicode="&#xa1;" horiz-adv-x="503" 
d="M252 1008q47 0 82 -34t35 -81q0 -49 -34.5 -83t-82.5 -34q-51 0 -85 33.5t-34 83.5q0 48 34 81.5t85 33.5zM190 567h129l31 -1079h-190z" />
    <glyph glyph-name="cent" unicode="&#xa2;" horiz-adv-x="1116" 
d="M1036 266q-58 -62 -147.5 -106.5t-196.5 -57.5v-211h-133v209q-204 19 -329.5 158t-125.5 350q0 209 125.5 348.5t329.5 159.5v217h133v-217q99 -11 188 -55t152 -117l-112 -100q-51 58 -126.5 91.5t-164.5 33.5q-157 0 -256 -100.5t-99 -258.5q0 -159 98.5 -258.5
t256.5 -99.5q90 0 167 32.5t128 86.5z" />
    <glyph glyph-name="sterling" unicode="&#xa3;" horiz-adv-x="1153" 
d="M96 0v164h160v528h-127v137h127v117q0 122 33 215t91 147t129 80.5t155 26.5q118 0 216.5 -52.5t163.5 -148.5l-94 -120q-49 74 -118 113.5t-148 39.5q-116 0 -183 -75.5t-67 -243.5v-99h344v-137h-342v-528h662v-164h-1002z" />
    <glyph glyph-name="currency" unicode="&#xa4;" horiz-adv-x="1034" 
d="M889 791q0 -126 -74 -222l160 -161l-80 -80l-160 161q-96 -71 -223 -71q-125 0 -221 71l-160 -159l-82 82l162 159q-72 93 -72 220q0 123 72 221l-162 159l82 80l160 -159q97 75 221 75q128 0 223 -73l160 159l80 -79l-160 -160q74 -96 74 -223zM514 541
q103 0 177.5 74.5t76.5 177.5q-1 104 -76.5 177.5t-179.5 73.5q-102 0 -176.5 -73.5t-75.5 -177.5q2 -103 76.5 -177.5t177.5 -74.5z" />
    <glyph glyph-name="yen" unicode="&#xa5;" horiz-adv-x="1148" 
d="M1124 1403l-323 -567h203v-111h-267l-71 -125v-4h335v-113h-335v-483h-181v483h-348v113h348v4l-71 125h-277v111h213l-323 569h206l340 -629h5l340 629z" />
    <glyph glyph-name="brokenbar" unicode="&#xa6;" horiz-adv-x="602" 
d="M227 791v718h148v-718h-148zM227 -233v722h148v-722h-148z" />
    <glyph glyph-name="section" unicode="&#xa7;" horiz-adv-x="1105" 
d="M819 281q135 -85 135 -244q0 -151 -108 -242.5t-291 -91.5q-260 0 -434 186l102 123q66 -75 154 -113t176 -38q93 0 156 46t63 126q0 33 -12.5 60t-30 45t-55 37.5t-67 31.5t-87.5 33q-47 18 -71.5 27.5t-66 27t-64 29.5t-55 31t-50.5 35.5t-39 39.5t-31.5 46t-18 52.5
t-7.5 61.5q0 93 45.5 161t130.5 107q-127 89 -127 238q0 141 102 232t271 91q100 0 208 -40t187 -105l-100 -121q-142 107 -287 107q-86 0 -143.5 -43.5t-57.5 -116.5q0 -39 16 -69t54 -54.5t71.5 -39.5t98.5 -40q178 -70 223 -94q118 -60 155 -143q23 -51 23 -119
q0 -83 -44 -151t-124 -109zM287 618q0 -76 64 -122t218 -103l103 -39q68 17 106.5 61t38.5 105q0 22 -3.5 40t-15 34.5t-20 28t-32.5 26t-37.5 22.5t-49.5 23t-54 22t-66 25l-95 37q-72 -12 -114.5 -55.5t-42.5 -104.5z" />
    <glyph glyph-name="dieresis" unicode="&#xa8;" horiz-adv-x="1040" 
d="M336 1149q-51 0 -85 33.5t-34 83.5q0 48 34.5 82t84.5 34q49 0 84 -34.5t35 -81.5q0 -49 -34.5 -83t-84.5 -34zM707 1151q-49 0 -83 33.5t-34 81.5q0 46 34 80t83 34t82.5 -34t33.5 -80q0 -48 -33.5 -81.5t-82.5 -33.5z" />
    <glyph glyph-name="copyright" unicode="&#xa9;" horiz-adv-x="1431" 
d="M715 27q-170 0 -312.5 84.5t-224.5 228t-82 311.5q0 167 82 310.5t226 229t315 85.5q170 0 312.5 -85.5t223 -229t80.5 -310.5q0 -124 -48 -239t-130 -199.5t-198 -135t-244 -50.5zM715 145q139 0 254.5 68.5t181.5 185t66 252.5q0 138 -65.5 254t-180 184t-252.5 68
q-140 0 -256.5 -69t-182 -185.5t-65.5 -253.5q0 -136 65.5 -252t180.5 -184t254 -68zM733 313q-142 0 -238 88t-96 246q0 144 88.5 240t245.5 96q158 0 260 -127l-80 -68q-74 91 -180 91q-101 0 -161 -63.5t-60 -168.5q0 -104 61.5 -165.5t159.5 -61.5q114 0 180 86l80 -68
q-95 -125 -260 -125z" />
    <glyph glyph-name="ordfeminine" unicode="&#xaa;" horiz-adv-x="798" 
d="M578 1407h120v-598h-120v88h-3q-79 -98 -219 -98q-131 0 -214 85t-83 220t81.5 223t209.5 88q65 0 124.5 -28t100.5 -80h3v100zM383 915q81 0 135.5 52t54.5 137q0 84 -52.5 139t-135.5 55q-86 0 -143.5 -54t-57.5 -140q0 -82 56 -135.5t143 -53.5z" />
    <glyph glyph-name="guillemotleft" unicode="&#xab;" horiz-adv-x="948" 
d="M506 53h-166l-254 449l256 454h166l-256 -454zM866 53h-166l-254 449l259 454h163l-256 -454z" />
    <glyph glyph-name="logicalnot" unicode="&#xac;" horiz-adv-x="1150" 
d="M881 336v323h-762v152h911v-475h-149z" />
    <glyph glyph-name="registered" unicode="&#xae;" horiz-adv-x="1437" 
d="M721 1280q128 0 243.5 -50.5t197.5 -135.5t130.5 -201t48.5 -242q0 -125 -48.5 -240t-131.5 -200t-198.5 -135.5t-243.5 -50.5t-244 50t-198.5 134.5t-131.5 200t-49 241.5q0 168 82.5 312.5t227 230.5t315.5 86zM719 141q138 0 254 69.5t182 186.5t66 254
q0 138 -65.5 254.5t-180.5 185t-254 68.5q-213 0 -359.5 -149.5t-146.5 -360.5q0 -137 66 -253.5t182 -185.5t256 -69zM965 776q0 -155 -148 -196l178 -256h-125l-165 245h-97v-245h-104v663h239q111 0 166.5 -57.5t55.5 -153.5zM608 891v-225h111q69 0 102 31t33 81
q0 52 -34 82.5t-93 30.5h-119z" />
    <glyph glyph-name="macron" unicode="&#xaf;" horiz-adv-x="935" 
d="M174 1188v141h588v-141h-588z" />
    <glyph glyph-name="degree" unicode="&#xb0;" horiz-adv-x="806" 
d="M403 911q-117 0 -200.5 81t-83.5 196q0 114 85 197t199 83t198.5 -83t84.5 -199q0 -114 -83.5 -194.5t-199.5 -80.5zM401 1026q69 0 117.5 48t48.5 114q0 67 -49.5 115.5t-116.5 48.5q-65 0 -114 -48.5t-49 -115.5q0 -66 48 -114t115 -48z" />
    <glyph glyph-name="plusminus" unicode="&#xb1;" horiz-adv-x="1234" 
d="M522 328v401h-401v154h401v403h156v-403h401v-154h-401v-401h-156zM154 -6v153h958v-153h-958z" />
    <glyph glyph-name="uni00B2" unicode="&#xb2;" horiz-adv-x="698" 
d="M268 1024h365v-131h-578v98l293 281q67 62 98 108t31 97q0 59 -40 98t-103 39q-49 0 -97 -26.5t-77 -78.5l-107 78q40 70 117 115t172 45q115 0 198 -70t83 -184q0 -77 -33.5 -140t-120.5 -143l-201 -182v-4z" />
    <glyph glyph-name="uni00B3" unicode="&#xb3;" horiz-adv-x="708" 
d="M512 1327q139 -57 139 -207q0 -107 -81.5 -173t-213.5 -66q-115 0 -198.5 50.5t-116.5 131.5l129 51q44 -104 176 -104q73 0 115.5 35.5t42.5 97.5q0 56 -46 91.5t-126 35.5h-70v110h84q66 0 106 33t40 82q0 57 -40.5 90t-109.5 33q-104 0 -149 -82l-119 66
q34 65 104.5 105t165.5 40q123 0 203 -60t80 -165q0 -132 -115 -191v-4z" />
    <glyph glyph-name="acute" unicode="&#xb4;" horiz-adv-x="1034" 
d="M338 1108l240 289l188 2l-254 -291h-174z" />
    <glyph glyph-name="uni00B5" unicode="&#xb5;" horiz-adv-x="1175" 
d="M860 997h166v-997h-152l-10 164h-4q-57 -84 -139.5 -130t-177.5 -46q-157 0 -234 106l-2 -2q10 -120 10 -217v-281h-165v1403h165v-528q0 -167 67 -248.5t191 -81.5q123 0 204 99t81 264v495z" />
    <glyph glyph-name="paragraph" unicode="&#xb6;" horiz-adv-x="970" 
d="M668 -307v1528h-125v-1221h-113v717q-151 8 -242.5 88t-91.5 219q0 145 95.5 228t259.5 83h327v-1642h-110z" />
    <glyph glyph-name="periodcentered" unicode="&#xb7;" horiz-adv-x="487" 
d="M246 379q-51 0 -85 33.5t-34 81.5q0 50 34 83t85 33q48 0 82 -33.5t34 -82.5q0 -47 -34.5 -81t-81.5 -34z" />
    <glyph glyph-name="cedilla" unicode="&#xb8;" horiz-adv-x="790" 
d="M387 -68q81 -5 129.5 -47t48.5 -114q0 -69 -55 -112.5t-164 -43.5q-53 0 -115 12v90q47 -14 99 -14q48 0 81 19.5t33 56.5q0 36 -44 61t-126 25v61l41 86h105l-35 -75z" />
    <glyph glyph-name="uni00B9" unicode="&#xb9;" horiz-adv-x="540" 
d="M270 893v663l-161 -110l-70 110l262 181h113v-844h-144z" />
    <glyph glyph-name="ordmasculine" unicode="&#xba;" horiz-adv-x="774" 
d="M377 799q-140 0 -229 88t-89 221q0 132 89 219.5t229 87.5q136 0 226.5 -86t90.5 -221q0 -137 -90 -223t-227 -86zM377 913q79 0 132.5 55t53.5 140q0 84 -53 138t-133 54q-82 0 -134.5 -55.5t-52.5 -136.5q0 -83 52.5 -139t134.5 -56z" />
    <glyph glyph-name="guillemotright" unicode="&#xbb;" horiz-adv-x="948" 
d="M82 53l254 449l-256 454h164l258 -454l-254 -449h-166zM442 53l254 449l-256 454h166l256 -454l-254 -449h-166z" />
    <glyph glyph-name="onequarter" unicode="&#xbc;" horiz-adv-x="1593" 
d="M526 -35l-135 58l635 1456l135 -60zM270 612v664l-161 -111l-70 111l262 180h113v-844h-144zM1278 0v139h-385v92l416 613h110v-580h125v-125h-125v-139h-141zM1055 256h233v348z" />
    <glyph glyph-name="onehalf" unicode="&#xbd;" horiz-adv-x="1658" 
d="M1026 1479l135 -60l-635 -1454l-135 58zM414 612h-144v664l-161 -111l-70 111l262 180h113v-844zM1229 131h364v-131h-577v98l293 281q67 62 98 108t31 97q0 59 -40.5 98t-103.5 39q-49 0 -97 -26.5t-77 -78.5l-106 78q40 70 117 115t172 45q115 0 197.5 -70t82.5 -184
q0 -77 -33 -140t-120 -143l-201 -182v-4z" />
    <glyph glyph-name="threequarters" unicode="&#xbe;" horiz-adv-x="1724" 
d="M1155 1479l135 -60l-635 -1454l-135 58zM651 840q0 -107 -81.5 -173.5t-213.5 -66.5q-115 0 -198.5 50.5t-116.5 131.5l129 52q45 -105 176 -105q73 0 115.5 35.5t42.5 97.5q0 56 -46 91.5t-126 35.5h-70v111h84q66 0 106 32.5t40 81.5q0 57 -40.5 90t-109.5 33
q-104 0 -149 -82l-119 66q34 65 104.5 105t165.5 40q123 0 203 -60t80 -165q0 -131 -115 -190v-4q139 -57 139 -207zM1550 264h125v-125h-125v-139h-141v139h-385v92l416 613h110v-580zM1419 256v348l-233 -348h233z" />
    <glyph glyph-name="questiondown" unicode="&#xbf;" horiz-adv-x="878" 
d="M520 1008q51 0 85 -33.5t34 -81.5q0 -50 -34 -83.5t-85 -33.5q-48 0 -82.5 34t-34.5 83q0 47 35 81t82 34zM600 569v-108q0 -55 -26 -109.5t-57 -91t-82 -89.5q-13 -12 -19 -19q-71 -75 -109.5 -140.5t-38.5 -146.5q0 -104 66 -163.5t166 -59.5q73 0 142 36.5t112 102.5
l125 -117q-67 -91 -170 -140.5t-222 -49.5q-111 0 -201.5 45t-146 133.5t-55.5 204.5q0 111 48.5 196t133.5 172q13 13 51 49.5t52 52t37 43.5t32.5 51.5t10.5 47.5l4 100h147z" />
    <glyph glyph-name="Agrave" unicode="&#xc0;" horiz-adv-x="1396" 
d="M780 1620h-176l-254 291l191 -2zM1153 0l-129 354h-649l-129 -354h-189l551 1454h178l555 -1454h-188zM432 510h535l-267 727h-4z" />
    <glyph glyph-name="Aacute" unicode="&#xc1;" horiz-adv-x="1396" 
d="M1059 1911l-254 -291h-174l239 289zM1153 0l-129 354h-649l-129 -354h-189l551 1454h178l555 -1454h-188zM432 510h535l-267 727h-4z" />
    <glyph glyph-name="Acircumflex" unicode="&#xc2;" horiz-adv-x="1396" 
d="M694 1802l-147 -182h-168l237 293h154l244 -293h-168l-148 182h-4zM1153 0l-129 354h-649l-129 -354h-189l551 1454h178l555 -1454h-188zM432 510h535l-267 727h-4z" />
    <glyph glyph-name="Atilde" unicode="&#xc3;" horiz-adv-x="1396" 
d="M561 1753q-79 0 -123 -113l-106 48q29 95 82 148.5t129 53.5q34 0 67.5 -10t50.5 -19.5t50 -29.5q4 -3 24 -17t27.5 -18t23 -12.5t28.5 -11.5t26 -3q37 0 68.5 29t49.5 84l107 -35q-27 -102 -82 -158.5t-123 -56.5q-33 0 -69 13t-56 25t-55 36q-77 47 -119 47zM1153 0
l-129 354h-649l-129 -354h-189l551 1454h178l555 -1454h-188zM432 510h535l-267 727h-4z" />
    <glyph glyph-name="Adieresis" unicode="&#xc4;" horiz-adv-x="1396" 
d="M512 1663q-51 0 -85 33.5t-34 83.5q0 48 34.5 82t84.5 34q49 0 84 -34.5t35 -81.5q0 -49 -34.5 -83t-84.5 -34zM883 1665q-49 0 -83 33.5t-34 81.5q0 46 34 80t83 34t82.5 -34t33.5 -80q0 -48 -33.5 -81.5t-82.5 -33.5zM1153 0l-129 354h-649l-129 -354h-189l551 1454
h178l555 -1454h-188zM432 510h535l-267 727h-4z" />
    <glyph glyph-name="Aring" unicode="&#xc5;" horiz-adv-x="1396" 
d="M696 1581q-80 0 -138 57t-58 138t56 137.5t140 56.5t142.5 -55.5t58.5 -138.5q0 -79 -58 -137t-143 -58zM698 1866q-36 0 -62 -26t-26 -62q0 -37 25.5 -61.5t62.5 -24.5q35 0 61.5 25.5t26.5 60.5t-26.5 61.5t-61.5 26.5zM1153 0l-129 354h-649l-129 -354h-189l551 1454
h178l555 -1454h-188zM432 510h535l-267 727h-4z" />
    <glyph glyph-name="AE" unicode="&#xc6;" horiz-adv-x="1929" 
d="M1065 164h760v-164h-934v352h-496l-188 -352h-191l783 1454h985v-164h-719v-485h598v-164h-598v-477zM481 510h410v756h-4z" />
    <glyph glyph-name="Ccedilla" unicode="&#xc7;" horiz-adv-x="1490" 
d="M846 160q260 0 434 217l133 -113q-221 -271 -561 -274l-25 -53l2 -5q81 -5 130 -47t49 -114q0 -69 -55.5 -112.5t-164.5 -43.5q-52 0 -114 12v90q47 -14 98 -14q48 0 81.5 19.5t33.5 56.5q0 36 -44 61t-126 25v61l28 60v10q-132 15 -244.5 69.5t-197.5 144t-133.5 221
t-48.5 290.5q0 156 48.5 291.5t138.5 237t228.5 160t309.5 58.5q159 0 306 -68t261 -210l-133 -111q-84 105 -196.5 162t-237.5 57q-246 0 -392.5 -160t-146.5 -417q0 -127 41 -233t113 -177.5t171 -111t214 -39.5z" />
    <glyph glyph-name="Egrave" unicode="&#xc8;" horiz-adv-x="1224" 
d="M666 1622l-254 291l190 -2l240 -289h-176zM184 0v1454h891v-164h-710v-485h583v-164h-583v-477h753v-164h-934z" />
    <glyph glyph-name="Eacute" unicode="&#xc9;" horiz-adv-x="1224" 
d="M459 1622l239 289l189 2l-254 -291h-174zM184 0v1454h891v-164h-710v-485h583v-164h-583v-477h753v-164h-934z" />
    <glyph glyph-name="Ecircumflex" unicode="&#xca;" horiz-adv-x="1224" 
d="M635 1802l-148 -182h-168l238 293h154l243 -293h-168l-147 182h-4zM365 164h753v-164h-934v1454h891v-164h-710v-485h583v-164h-583v-477z" />
    <glyph glyph-name="Edieresis" unicode="&#xcb;" horiz-adv-x="1224" 
d="M453 1663q-51 0 -85 33.5t-34 83.5q0 48 34.5 82t84.5 34q49 0 83.5 -34t34.5 -82q0 -49 -34 -83t-84 -34zM823 1665q-49 0 -82.5 33.5t-33.5 81.5q0 46 33.5 80t82.5 34t83 -34t34 -80q0 -48 -34 -81.5t-83 -33.5zM184 0v1454h891v-164h-710v-485h583v-164h-583v-477
h753v-164h-934z" />
    <glyph glyph-name="Igrave" unicode="&#xcc;" horiz-adv-x="569" 
d="M188 1620l-254 291l191 -2l240 -289h-177zM195 0v1454h180v-1454h-180z" />
    <glyph glyph-name="Iacute" unicode="&#xcd;" horiz-adv-x="569" 
d="M217 1620l240 289l188 2l-254 -291h-174zM195 0v1454h180v-1454h-180z" />
    <glyph glyph-name="Icircumflex" unicode="&#xce;" horiz-adv-x="569" 
d="M354 1913l244 -293h-168l-147 182h-4l-148 -182h-168l238 293h153zM195 0v1454h180v-1454h-180z" />
    <glyph glyph-name="Idieresis" unicode="&#xcf;" horiz-adv-x="569" 
d="M96 1663q-51 0 -85 33.5t-34 83.5q0 48 34.5 82t84.5 34q49 0 84 -34.5t35 -81.5q0 -49 -34.5 -83t-84.5 -34zM467 1665q-49 0 -83 33.5t-34 81.5q0 46 34 80t83 34t83 -34t34 -80q0 -48 -34 -81.5t-83 -33.5zM195 0v1454h180v-1454h-180z" />
    <glyph glyph-name="Eth" unicode="&#xd0;" horiz-adv-x="1495" 
d="M621 1454q227 0 398.5 -92.5t263 -257.5t91.5 -379q0 -160 -52 -294t-147.5 -229.5t-236 -148.5t-311.5 -53h-443v801h-176v155h176v498h437zM614 162q260 0 419 157.5t159 405.5q0 251 -157.5 409t-411.5 158h-261v-336h252v-155h-252v-639h252z" />
    <glyph glyph-name="Ntilde" unicode="&#xd1;" horiz-adv-x="1548" 
d="M635 1753q-79 0 -123 -113l-106 48q61 202 210 202q34 0 67.5 -10t50.5 -19.5t50 -29.5q4 -3 24 -17t27.5 -18t23 -12.5t28.5 -11.5t26 -3q37 0 69 29t50 84l107 -35q-27 -102 -82 -158.5t-123 -56.5q-33 0 -69 13t-56 25t-55 36q-77 47 -119 47zM1186 1454h178v-1454
h-182l-815 1147h-5v-1147h-178v1454h176l822 -1159h4v1159z" />
    <glyph glyph-name="Ograve" unicode="&#xd2;" horiz-adv-x="1697" 
d="M772 1620l-254 291l191 -2l239 -289h-176zM852 -12q-214 0 -381.5 97t-258.5 265t-91 377t91 377.5t258.5 266t381.5 97.5q153 0 286.5 -54t230 -149.5t152.5 -235t56 -302.5t-56 -301.5t-152.5 -234t-230.5 -149.5t-286 -54zM852 158q149 0 272 72t195 202.5t72 294.5
q0 165 -72 296.5t-194.5 203t-272.5 71.5q-159 0 -285 -77t-194 -207t-68 -287t68 -286.5t194 -206t285 -76.5z" />
    <glyph glyph-name="Oacute" unicode="&#xd3;" horiz-adv-x="1697" 
d="M778 1620l240 289l188 2l-254 -291h-174zM852 -12q-214 0 -381.5 97t-258.5 265t-91 377t91 377.5t258.5 266t381.5 97.5q153 0 286.5 -54t230 -149.5t152.5 -235t56 -302.5t-56 -301.5t-152.5 -234t-230.5 -149.5t-286 -54zM852 158q149 0 272 72t195 202.5t72 294.5
q0 165 -72 296.5t-194.5 203t-272.5 71.5q-159 0 -285 -77t-194 -207t-68 -287t68 -286.5t194 -206t285 -76.5z" />
    <glyph glyph-name="Ocircumflex" unicode="&#xd4;" horiz-adv-x="1697" 
d="M848 1802l-148 -182h-168l238 293h154l243 -293h-168l-147 182h-4zM852 1468q153 0 286.5 -54t230 -149.5t152.5 -235t56 -302.5t-56 -301.5t-152.5 -234t-230.5 -149.5t-286 -54q-214 0 -381.5 97t-258.5 265t-91 377t91 377.5t258.5 266t381.5 97.5zM852 158
q149 0 272 72t195 202.5t72 294.5q0 165 -72 296.5t-194.5 203t-272.5 71.5q-159 0 -285 -77t-194 -207t-68 -287t68 -286.5t194 -206t285 -76.5z" />
    <glyph glyph-name="Otilde" unicode="&#xd5;" horiz-adv-x="1697" 
d="M1014 1632q-33 0 -69 13t-56 25t-55 36q-77 47 -119 47q-79 0 -123 -113l-107 48q29 95 82 148.5t129 53.5q34 0 67.5 -10t50.5 -19.5t50 -29.5q4 -3 24 -17t27.5 -18t23 -12.5t28.5 -11.5t26 -3q37 0 69 29t50 84l107 -35q-27 -102 -82 -158.5t-123 -56.5zM852 -12
q-214 0 -381.5 97t-258.5 265t-91 377t91 377.5t258.5 266t381.5 97.5q153 0 286.5 -54t230 -149.5t152.5 -235t56 -302.5t-56 -301.5t-152.5 -234t-230.5 -149.5t-286 -54zM852 158q149 0 272 72t195 202.5t72 294.5q0 165 -72 296.5t-194.5 203t-272.5 71.5
q-159 0 -285 -77t-194 -207t-68 -287t68 -286.5t194 -206t285 -76.5z" />
    <glyph glyph-name="Odieresis" unicode="&#xd6;" horiz-adv-x="1697" 
d="M666 1663q-51 0 -85 33.5t-34 83.5q0 48 34.5 82t84.5 34q49 0 83.5 -34t34.5 -82q0 -49 -34 -83t-84 -34zM1036 1665q-49 0 -82.5 33.5t-33.5 81.5q0 46 33.5 80t82.5 34t83 -34t34 -80q0 -48 -34 -81.5t-83 -33.5zM852 -12q-214 0 -381.5 97t-258.5 265t-91 377
t91 377.5t258.5 266t381.5 97.5q153 0 286.5 -54t230 -149.5t152.5 -235t56 -302.5t-56 -301.5t-152.5 -234t-230.5 -149.5t-286 -54zM852 158q149 0 272 72t195 202.5t72 294.5q0 165 -72 296.5t-194.5 203t-272.5 71.5q-159 0 -285 -77t-194 -207t-68 -287t68 -286.5
t194 -206t285 -76.5z" />
    <glyph glyph-name="multiply" unicode="&#xd7;" horiz-adv-x="1048" 
d="M219 156l-106 106l305 305l-305 303l106 109l303 -305l305 305l109 -107l-305 -307l305 -305l-109 -102l-303 301z" />
    <glyph glyph-name="Oslash" unicode="&#xd8;" horiz-adv-x="1697" 
d="M1585 1399l-172 -185q164 -204 164 -487q0 -163 -56 -301.5t-152.5 -234t-230.5 -149.5t-286 -54q-252 0 -442 137l-166 -178l-109 98l166 178q-180 205 -180 504q0 209 91 377.5t258.5 266t381.5 97.5q266 0 461 -153l168 180zM305 727q0 -214 121 -369l764 824
q-144 116 -338 116q-159 0 -285 -77t-194 -207t-68 -287zM1391 727q0 198 -105 348l-756 -817q140 -100 322 -100q149 0 272 72t195 202.5t72 294.5z" />
    <glyph glyph-name="Ugrave" unicode="&#xd9;" horiz-adv-x="1456" 
d="M686 1620l-254 291l191 -2l239 -289h-176zM725 -12q-253 0 -407 160.5t-154 443.5v862h178v-850q0 -202 104.5 -324t278.5 -122q173 0 280 119.5t107 326.5v850h178v-862q0 -280 -152.5 -442t-412.5 -162z" />
    <glyph glyph-name="Uacute" unicode="&#xda;" horiz-adv-x="1456" 
d="M600 1620l240 289l188 2l-254 -291h-174zM725 -12q-253 0 -407 160.5t-154 443.5v862h178v-850q0 -202 104.5 -324t278.5 -122q173 0 280 119.5t107 326.5v850h178v-862q0 -280 -152.5 -442t-412.5 -162z" />
    <glyph glyph-name="Ucircumflex" unicode="&#xdb;" horiz-adv-x="1456" 
d="M723 1802l-148 -182h-167l237 293h154l243 -293h-168l-147 182h-4zM1112 1454h178v-862q0 -280 -152.5 -442t-412.5 -162q-253 0 -407 160.5t-154 443.5v862h178v-850q0 -202 104.5 -324t278.5 -122q173 0 280 119.5t107 326.5v850z" />
    <glyph glyph-name="Udieresis" unicode="&#xdc;" horiz-adv-x="1456" 
d="M541 1663q-51 0 -85 33.5t-34 83.5q0 48 34.5 82t84.5 34q49 0 83.5 -34t34.5 -82q0 -49 -34 -83t-84 -34zM911 1665q-49 0 -82.5 33.5t-33.5 81.5q0 46 33.5 80t82.5 34t83 -34t34 -80q0 -48 -34 -81.5t-83 -33.5zM725 -12q-253 0 -407 160.5t-154 443.5v862h178v-850
q0 -202 104.5 -324t278.5 -122q173 0 280 119.5t107 326.5v850h178v-862q0 -280 -152.5 -442t-412.5 -162z" />
    <glyph glyph-name="Yacute" unicode="&#xdd;" horiz-adv-x="1236" 
d="M950 1911l-254 -291h-174l240 289zM995 1454h207l-495 -805v-649h-179v649l-493 805h205l376 -627h5z" />
    <glyph glyph-name="Thorn" unicode="&#xde;" horiz-adv-x="1304" 
d="M184 0v1454h178v-287h371q124 0 217.5 -33.5t150 -95t84 -142t27.5 -179.5q0 -222 -137 -334.5t-373 -112.5h-340v-270h-178zM362 434h326q172 0 256 78.5t84 208.5q0 137 -82.5 210t-230.5 73h-353v-570z" />
    <glyph glyph-name="germandbls" unicode="&#xdf;" horiz-adv-x="1280" 
d="M924 877q127 -55 200.5 -171t73.5 -255q0 -210 -128.5 -336.5t-330.5 -126.5h-221v149h184q141 0 234.5 88.5t93.5 229.5q0 134 -95.5 231.5t-254.5 97.5h-113v144h105q67 1 118 18t78.5 41t44.5 56t22 56.5t5 49.5q0 97 -74 158t-211 61q-161 0 -245 -85t-84 -271v-1012
h-166v1008q0 258 127 386t362 128q215 0 336 -100t121 -261q0 -50 -14 -98t-57 -101t-111 -85z" />
    <glyph glyph-name="agrave" unicode="&#xe0;" horiz-adv-x="1245" 
d="M760 1141h-176l-254 291l190 -2zM932 997h166v-997h-160v158h-2q-61 -81 -151 -125.5t-197 -44.5q-211 0 -350.5 139.5t-139.5 364.5q0 222 138.5 370t349.5 148q103 0 192 -42t152 -120h2v149zM602 139q139 0 237.5 99t98.5 254t-95 259.5t-239 104.5t-241 -100.5
t-97 -263.5q0 -153 93 -253t243 -100z" />
    <glyph glyph-name="aacute" unicode="&#xe1;" horiz-adv-x="1245" 
d="M950 1432l-254 -291h-174l240 289zM932 997h166v-997h-160v158h-2q-61 -81 -151 -125.5t-197 -44.5q-211 0 -350.5 139.5t-139.5 364.5q0 222 138.5 370t349.5 148q103 0 192 -42t152 -120h2v149zM602 139q139 0 237.5 99t98.5 254t-95 259.5t-239 104.5t-241 -100.5
t-97 -263.5q0 -153 93 -253t243 -100z" />
    <glyph glyph-name="acircumflex" unicode="&#xe2;" horiz-adv-x="1245" 
d="M614 1321l-147 -182h-168l238 293h153l244 -293h-168l-148 182h-4zM932 997h166v-997h-160v158h-2q-61 -81 -151 -125.5t-197 -44.5q-211 0 -350.5 139.5t-139.5 364.5q0 222 138.5 370t349.5 148q103 0 192 -42t152 -120h2v149zM602 139q139 0 237.5 99t98.5 254
t-95 259.5t-239 104.5t-241 -100.5t-97 -263.5q0 -153 93 -253t243 -100z" />
    <glyph glyph-name="atilde" unicode="&#xe3;" horiz-adv-x="1245" 
d="M481 1272q-79 0 -123 -113l-106 47q29 96 82 149.5t129 53.5q34 0 67.5 -10t50.5 -19.5t50 -29.5q4 -3 24 -17t27.5 -18t23 -12.5t28.5 -11.5t26 -3q37 0 69 29t50 84l106 -35q-27 -102 -82 -158.5t-123 -56.5q-33 0 -69 13t-56 25t-55 36q-77 47 -119 47zM932 997h166
v-997h-160v158h-2q-61 -81 -151 -125.5t-197 -44.5q-211 0 -350.5 139.5t-139.5 364.5q0 222 138.5 370t349.5 148q103 0 192 -42t152 -120h2v149zM602 139q139 0 237.5 99t98.5 254t-95 259.5t-239 104.5t-241 -100.5t-97 -263.5q0 -153 93 -253t243 -100z" />
    <glyph glyph-name="adieresis" unicode="&#xe4;" horiz-adv-x="1245" 
d="M432 1182q-51 0 -85 33t-34 83q0 48 34.5 82.5t84.5 34.5q49 0 84 -34.5t35 -82.5q0 -49 -34.5 -82.5t-84.5 -33.5zM803 1184q-49 0 -83 33.5t-34 80.5q0 46 34 80.5t83 34.5t83 -34.5t34 -80.5q0 -47 -34 -80.5t-83 -33.5zM932 997h166v-997h-160v158h-2
q-61 -81 -151 -125.5t-197 -44.5q-211 0 -350.5 139.5t-139.5 364.5q0 222 138.5 370t349.5 148q103 0 192 -42t152 -120h2v149zM602 139q139 0 237.5 99t98.5 254t-95 259.5t-239 104.5t-241 -100.5t-97 -263.5q0 -153 93 -253t243 -100z" />
    <glyph glyph-name="aring" unicode="&#xe5;" horiz-adv-x="1245" 
d="M616 1100q-80 0 -138 56.5t-58 137.5t56 138t140 57t142.5 -56t58.5 -139q0 -79 -58 -136.5t-143 -57.5zM618 1384q-36 0 -62 -26t-26 -62q0 -37 25.5 -61.5t62.5 -24.5q36 0 62.5 25.5t26.5 60.5t-27 61.5t-62 26.5zM932 997h166v-997h-160v158h-2q-61 -81 -151 -125.5
t-197 -44.5q-211 0 -350.5 139.5t-139.5 364.5q0 222 138.5 370t349.5 148q103 0 192 -42t152 -120h2v149zM602 139q139 0 237.5 99t98.5 254t-95 259.5t-239 104.5t-241 -100.5t-97 -263.5q0 -153 93 -253t243 -100z" />
    <glyph glyph-name="ae" unicode="&#xe6;" horiz-adv-x="1605" 
d="M1554 514q0 -20 -6 -68h-706q15 -137 97.5 -222t205.5 -85q72 0 137 36.5t113 96.5l116 -98q-67 -87 -162.5 -136.5t-211.5 -49.5q-113 0 -204.5 53.5t-146.5 148.5h-4q-44 -88 -141 -145t-229 -57q-171 0 -258.5 83.5t-87.5 215.5q0 139 95 220t279 81l242 2v22
q0 135 -43 189.5t-139 54.5q-153 0 -291 -74l-66 133q162 95 367 95q112 0 183 -45t104 -140h2q58 88 146.5 136.5t197.5 48.5q180 0 295.5 -140t115.5 -356zM1130 856q-107 0 -183.5 -72.5t-98.5 -195.5h541q-20 122 -90.5 195t-168.5 73zM424 137q105 0 184.5 66t79.5 151
v11l-2 84h-231q-102 -2 -163 -41.5t-61 -114.5q0 -65 50.5 -110.5t142.5 -45.5z" />
    <glyph glyph-name="ccedilla" unicode="&#xe7;" horiz-adv-x="1069" 
d="M629 -10l-25 -53l2 -5q81 -5 129.5 -47t48.5 -114q0 -69 -55 -112.5t-164 -43.5q-52 0 -114 12v90q47 -14 98 -14q48 0 81.5 19.5t33.5 56.5q0 36 -44 61t-126 25v61l26 56v10q-189 23 -306.5 161t-117.5 345q0 226 140 369t360 143q115 0 222 -46.5t179 -132.5
l-114 -100q-47 58 -119.5 91.5t-159.5 33.5q-151 0 -245.5 -100t-94.5 -258q0 -160 94.5 -259.5t245.5 -99.5q85 0 160 33t123 86l114 -102q-61 -69 -159 -114.5t-213 -51.5z" />
    <glyph glyph-name="egrave" unicode="&#xe8;" horiz-adv-x="1130" 
d="M731 1141h-176l-254 291l191 -2zM1036 514q0 -16 -2 -42l-2 -26h-768q17 -140 108 -223.5t226 -83.5q175 0 281 135l116 -100q-144 -186 -403 -186q-214 0 -355 142.5t-141 367.5q0 224 136.5 368t340.5 144q207 0 335 -139.5t128 -356.5zM582 856q-118 0 -203.5 -73
t-108.5 -199h602q-21 125 -96.5 198.5t-193.5 73.5z" />
    <glyph glyph-name="eacute" unicode="&#xe9;" horiz-adv-x="1130" 
d="M913 1432l-254 -291h-174l240 289zM1036 514q0 -16 -2 -42l-2 -26h-768q17 -140 108 -223.5t226 -83.5q175 0 281 135l116 -100q-144 -186 -403 -186q-214 0 -355 142.5t-141 367.5q0 224 136.5 368t340.5 144q207 0 335 -139.5t128 -356.5zM582 856q-118 0 -203.5 -73
t-108.5 -199h602q-21 125 -96.5 198.5t-193.5 73.5z" />
    <glyph glyph-name="ecircumflex" unicode="&#xea;" horiz-adv-x="1130" 
d="M584 1321l-148 -182h-168l238 293h153l244 -293h-168l-147 182h-4zM1036 514q0 -16 -2 -42l-2 -26h-768q17 -140 108 -223.5t226 -83.5q175 0 281 135l116 -100q-144 -186 -403 -186q-214 0 -355 142.5t-141 367.5q0 224 136.5 368t340.5 144q207 0 335 -139.5
t128 -356.5zM582 856q-118 0 -203.5 -73t-108.5 -199h602q-21 125 -96.5 198.5t-193.5 73.5z" />
    <glyph glyph-name="edieresis" unicode="&#xeb;" horiz-adv-x="1130" 
d="M401 1182q-51 0 -84.5 33t-33.5 83q0 48 34 82.5t84 34.5q49 0 84 -34.5t35 -82.5q0 -49 -34.5 -82.5t-84.5 -33.5zM772 1184q-49 0 -83 33.5t-34 80.5q0 46 34 80.5t83 34.5t83 -34.5t34 -80.5q0 -47 -34 -80.5t-83 -33.5zM1036 514q0 -16 -2 -42l-2 -26h-768
q17 -140 108 -223.5t226 -83.5q175 0 281 135l116 -100q-144 -186 -403 -186q-214 0 -355 142.5t-141 367.5q0 224 136.5 368t340.5 144q207 0 335 -139.5t128 -356.5zM582 856q-118 0 -203.5 -73t-108.5 -199h602q-21 125 -96.5 198.5t-193.5 73.5z" />
    <glyph glyph-name="igrave" unicode="&#xec;" horiz-adv-x="512" 
d="M166 1141l-184 291l186 -2l170 -289h-172zM172 0v997h166v-997h-166z" />
    <glyph glyph-name="iacute" unicode="&#xed;" horiz-adv-x="512" 
d="M180 1141l240 289l188 2l-254 -291h-174zM172 0v997h166v-997h-166z" />
    <glyph glyph-name="icircumflex" unicode="&#xee;" horiz-adv-x="512" 
d="M328 1432l243 -293h-168l-147 182h-4l-148 -182h-167l237 293h154zM172 0v997h166v-997h-166z" />
    <glyph glyph-name="idieresis" unicode="&#xef;" horiz-adv-x="512" 
d="M88 1182q-50 0 -83.5 33.5t-33.5 82.5q0 48 34 82.5t83 34.5q50 0 84.5 -34.5t34.5 -82.5q0 -50 -34 -83t-85 -33zM420 1184q-48 0 -82.5 33.5t-34.5 80.5q0 46 35 80.5t82 34.5q49 0 83 -34.5t34 -80.5q0 -47 -34 -80.5t-83 -33.5zM172 0v997h166v-997h-166z" />
    <glyph glyph-name="eth" unicode="&#xf0;" horiz-adv-x="1216" 
d="M1118 512v-4q0 -225 -143.5 -372.5t-370.5 -147.5q-215 0 -360.5 139.5t-145.5 353.5q0 223 139 363.5t351 140.5q158 0 280 -88h4q-105 212 -303 346l-149 -115l-76 86l119 95q-93 47 -180 75l79 132q126 -45 230 -105l143 113l76 -92l-117 -91q199 -146 311.5 -360
t112.5 -469zM606 139q150 0 246 101.5t96 251.5q0 149 -98 245.5t-246 96.5q-147 0 -242.5 -100t-95.5 -242q0 -154 98 -253.5t242 -99.5z" />
    <glyph glyph-name="ntilde" unicode="&#xf1;" horiz-adv-x="1187" 
d="M463 1272q-79 0 -123 -113l-107 47q29 96 82 149.5t129 53.5q34 0 67.5 -10t50.5 -19.5t50 -29.5q4 -3 24 -17t27.5 -18t23 -12.5t28.5 -11.5t26 -3q37 0 69 29t50 84l107 -35q-27 -102 -82 -158.5t-123 -56.5q-33 0 -69 13t-56 25t-55 36q-77 47 -119 47zM688 1010
q167 0 263 -105t96 -313v-592h-166v545q0 166 -64 238.5t-180 72.5q-143 0 -228 -95.5t-85 -262.5v-498h-166v997h166v-174h2q63 89 157.5 138t204.5 49z" />
    <glyph glyph-name="ograve" unicode="&#xf2;" horiz-adv-x="1222" 
d="M559 1141l-254 291l191 -2l239 -289h-176zM612 -12q-152 0 -270.5 67.5t-182 183.5t-63.5 259q0 219 143.5 365.5t372.5 146.5q222 0 367 -143.5t145 -368.5t-145 -367.5t-367 -142.5zM612 139q146 0 245 101t99 258q0 158 -98.5 258t-245.5 100q-154 0 -251 -103
t-97 -255t97.5 -255.5t250.5 -103.5z" />
    <glyph glyph-name="oacute" unicode="&#xf3;" horiz-adv-x="1222" 
d="M520 1141l240 289l188 2l-254 -291h-174zM612 -12q-152 0 -270.5 67.5t-182 183.5t-63.5 259q0 219 143.5 365.5t372.5 146.5q222 0 367 -143.5t145 -368.5t-145 -367.5t-367 -142.5zM612 139q146 0 245 101t99 258q0 158 -98.5 258t-245.5 100q-154 0 -251 -103
t-97 -255t97.5 -255.5t250.5 -103.5z" />
    <glyph glyph-name="ocircumflex" unicode="&#xf4;" horiz-adv-x="1222" 
d="M608 1321l-147 -182h-168l237 293h154l244 -293h-168l-148 182h-4zM612 1010q222 0 367 -143.5t145 -368.5t-145 -367.5t-367 -142.5q-152 0 -270.5 67.5t-182 183.5t-63.5 259q0 219 143.5 365.5t372.5 146.5zM612 139q146 0 245 101t99 258q0 158 -98.5 258t-245.5 100
q-154 0 -251 -103t-97 -255t97.5 -255.5t250.5 -103.5z" />
    <glyph glyph-name="otilde" unicode="&#xf5;" horiz-adv-x="1222" 
d="M774 1151q-33 0 -69 13t-56 25t-55 36q-77 47 -119 47q-79 0 -123 -113l-106 47q29 96 82 149.5t129 53.5q34 0 67.5 -10t50.5 -19.5t50 -29.5q4 -3 24 -17t27.5 -18t23 -12.5t28.5 -11.5t26 -3q37 0 68.5 29t49.5 84l107 -35q-27 -102 -82 -158.5t-123 -56.5zM612 -12
q-152 0 -270.5 67.5t-182 183.5t-63.5 259q0 219 143.5 365.5t372.5 146.5q222 0 367 -143.5t145 -368.5t-145 -367.5t-367 -142.5zM612 139q146 0 245 101t99 258q0 158 -98.5 258t-245.5 100q-154 0 -251 -103t-97 -255t97.5 -255.5t250.5 -103.5z" />
    <glyph glyph-name="odieresis" unicode="&#xf6;" horiz-adv-x="1222" 
d="M426 1182q-51 0 -85 33t-34 83q0 48 34.5 82.5t84.5 34.5q49 0 84 -34.5t35 -82.5q0 -49 -34.5 -82.5t-84.5 -33.5zM797 1184q-49 0 -83 33.5t-34 80.5q0 46 34 80.5t83 34.5t82.5 -34t33.5 -81q0 -48 -33.5 -81t-82.5 -33zM612 -12q-152 0 -270.5 67.5t-182 183.5
t-63.5 259q0 219 143.5 365.5t372.5 146.5q222 0 367 -143.5t145 -368.5t-145 -367.5t-367 -142.5zM612 139q146 0 245 101t99 258q0 158 -98.5 258t-245.5 100q-154 0 -251 -103t-97 -255t97.5 -255.5t250.5 -103.5z" />
    <glyph glyph-name="divide" unicode="&#xf7;" horiz-adv-x="1189" 
d="M594 846q-51 0 -85 33.5t-34 83.5q0 48 34.5 82t84.5 34q49 0 84 -34.5t35 -81.5q0 -49 -34.5 -83t-84.5 -34zM129 489v154h958v-154h-958zM594 39q-51 0 -85 33.5t-34 83.5q0 48 34.5 82t84.5 34q49 0 84 -34.5t35 -81.5q0 -49 -34.5 -83t-84.5 -34z" />
    <glyph glyph-name="oslash" unicode="&#xf8;" horiz-adv-x="1222" 
d="M1145 952l-125 -133q104 -136 104 -321q0 -225 -145 -367.5t-367 -142.5q-163 0 -295 82l-108 -117l-96 88l106 113q-123 142 -123 344q0 219 143.5 365.5t372.5 146.5q180 0 318 -101l123 129zM264 498q0 -130 70 -222l485 515q-90 65 -207 65q-154 0 -251 -103
t-97 -255zM956 498q0 115 -53 198l-473 -508q81 -49 182 -49q146 0 245 101t99 258z" />
    <glyph glyph-name="ugrave" unicode="&#xf9;" horiz-adv-x="1155" 
d="M721 1141h-176l-254 291l190 -2zM842 997h166v-997h-166v166h-2q-60 -86 -145.5 -132t-182.5 -46q-177 0 -276 103.5t-99 311.5v594h166v-546q0 -166 60.5 -239t183.5 -73q124 0 209.5 101.5t85.5 273.5v483z" />
    <glyph glyph-name="uacute" unicode="&#xfa;" horiz-adv-x="1155" 
d="M911 1432l-254 -291h-174l240 289zM842 997h166v-997h-166v166h-2q-60 -86 -145.5 -132t-182.5 -46q-177 0 -276 103.5t-99 311.5v594h166v-546q0 -166 60.5 -239t183.5 -73q124 0 209.5 101.5t85.5 273.5v483z" />
    <glyph glyph-name="ucircumflex" unicode="&#xfb;" horiz-adv-x="1155" 
d="M571 1321l-147 -182h-168l238 293h153l244 -293h-168l-148 182h-4zM842 997h166v-997h-166v166h-2q-60 -86 -145.5 -132t-182.5 -46q-177 0 -276 103.5t-99 311.5v594h166v-546q0 -166 60.5 -239t183.5 -73q124 0 209.5 101.5t85.5 273.5v483z" />
    <glyph glyph-name="udieresis" unicode="&#xfc;" horiz-adv-x="1155" 
d="M389 1182q-51 0 -85 33t-34 83q0 48 34.5 82.5t84.5 34.5q49 0 84 -34.5t35 -82.5q0 -49 -34.5 -82.5t-84.5 -33.5zM760 1184q-49 0 -83 33.5t-34 80.5q0 46 34 80.5t83 34.5t83 -34.5t34 -80.5q0 -47 -34 -80.5t-83 -33.5zM842 997h166v-997h-166v166h-2
q-60 -86 -145.5 -132t-182.5 -46q-177 0 -276 103.5t-99 311.5v594h166v-546q0 -166 60.5 -239t183.5 -73q124 0 209.5 101.5t85.5 273.5v483z" />
    <glyph glyph-name="yacute" unicode="&#xfd;" horiz-adv-x="1081" 
d="M850 1432l-254 -291h-174l240 289zM854 997h176l-563 -1403h-176l178 447l-422 956h178l324 -759h4z" />
    <glyph glyph-name="thorn" unicode="&#xfe;" horiz-adv-x="1251" 
d="M668 1010q211 0 349 -148t138 -370q0 -225 -139 -364.5t-348 -139.5q-104 0 -191.5 41.5t-148.5 117.5h-4v-553h-164v1913h166v-657h2q63 77 151.5 118.5t188.5 41.5zM651 139q150 0 243 100t93 253q0 163 -96.5 263.5t-241.5 100.5q-141 0 -235.5 -105t-94.5 -259
t98 -253.5t234 -99.5z" />
    <glyph glyph-name="ydieresis" unicode="&#xff;" horiz-adv-x="1081" 
d="M356 1182q-51 0 -84.5 33t-33.5 83q0 48 34 82.5t84 34.5q49 0 84 -34.5t35 -82.5q0 -49 -34.5 -82.5t-84.5 -33.5zM727 1184q-49 0 -83 33.5t-34 80.5q0 46 34 80.5t83 34.5t83 -34.5t34 -80.5q0 -47 -34 -80.5t-83 -33.5zM854 997h176l-563 -1403h-176l178 447
l-422 956h178l324 -759h4z" />
    <glyph glyph-name="Amacron" unicode="&#x100;" horiz-adv-x="1396" 
d="M991 1843v-141h-588v141h588zM1153 0l-129 354h-649l-129 -354h-189l551 1454h178l555 -1454h-188zM432 510h535l-267 727h-4z" />
    <glyph glyph-name="amacron" unicode="&#x101;" horiz-adv-x="1245" 
d="M911 1362v-141h-587v141h587zM932 997h166v-997h-160v158h-2q-61 -81 -151 -125.5t-197 -44.5q-211 0 -350.5 139.5t-139.5 364.5q0 222 138.5 370t349.5 148q103 0 192 -42t152 -120h2v149zM602 139q139 0 237.5 99t98.5 254t-95 259.5t-239 104.5t-241 -100.5
t-97 -263.5q0 -153 93 -253t243 -100z" />
    <glyph glyph-name="Abreve" unicode="&#x102;" horiz-adv-x="1396" 
d="M698 1616q-119 0 -203 76t-94 211h136q5 -73 47.5 -118.5t113.5 -45.5q70 0 113.5 45t48.5 119h133q-9 -130 -90 -208.5t-205 -78.5zM1153 0l-129 354h-649l-129 -354h-189l551 1454h178l555 -1454h-188zM432 510h535l-267 727h-4z" />
    <glyph glyph-name="abreve" unicode="&#x103;" horiz-adv-x="1245" 
d="M618 1135q-119 0 -202.5 75.5t-93.5 210.5h135q5 -73 47.5 -118.5t113.5 -45.5q70 0 113.5 45t48.5 119h133q-9 -130 -90 -208t-205 -78zM932 997h166v-997h-160v158h-2q-61 -81 -151 -125.5t-197 -44.5q-211 0 -350.5 139.5t-139.5 364.5q0 222 138.5 370t349.5 148
q103 0 192 -42t152 -120h2v149zM602 139q139 0 237.5 99t98.5 254t-95 259.5t-239 104.5t-241 -100.5t-97 -263.5q0 -153 93 -253t243 -100z" />
    <glyph glyph-name="Aogonek" unicode="&#x104;" horiz-adv-x="1396" 
d="M1346 -246l12 -108q-62 -27 -139 -27q-95 0 -150 46t-55 126q0 52 36.5 110t100.5 103l-127 350h-649l-129 -354h-189l551 1454h178l555 -1454h-24q-75 -21 -120.5 -70t-45.5 -102q0 -92 100 -92q60 0 95 18zM432 510h535l-267 727h-4z" />
    <glyph glyph-name="aogonek" unicode="&#x105;" horiz-adv-x="1245" 
d="M1118 -246l12 -108q-62 -27 -139 -27q-95 0 -150 46t-55 126q0 56 40 116t112 105v146h-2q-61 -81 -151 -125.5t-197 -44.5q-211 0 -350.5 139.5t-139.5 364.5q0 222 138.5 370t349.5 148q103 0 192 -42t152 -120h2v149h166v-997h-8q-75 -21 -120.5 -70t-45.5 -102
q0 -92 100 -92q59 0 94 18zM602 139q139 0 237.5 99t98.5 254t-95 259.5t-239 104.5t-241 -100.5t-97 -263.5q0 -153 93 -253t243 -100z" />
    <glyph glyph-name="Cacute" unicode="&#x106;" horiz-adv-x="1490" 
d="M743 1620l240 289l188 2l-253 -291h-175zM846 -10q-149 0 -279.5 48t-230 138.5t-157.5 231t-58 313.5q0 156 48.5 291.5t138.5 237t228.5 160t309.5 58.5q159 0 306 -68t261 -210l-133 -111q-84 105 -196.5 162t-237.5 57q-246 0 -392.5 -160t-146.5 -417
q0 -127 41 -233t113 -177.5t171 -111t214 -39.5q260 0 434 217l133 -113q-220 -274 -567 -274z" />
    <glyph glyph-name="cacute" unicode="&#x107;" horiz-adv-x="1069" 
d="M500 1141l239 289l189 2l-254 -291h-174zM590 -12q-216 0 -355 142t-139 368t140 369t360 143q115 0 222 -46.5t179 -132.5l-114 -100q-47 58 -119.5 91.5t-159.5 33.5q-151 0 -245.5 -100t-94.5 -258q0 -160 94.5 -259.5t245.5 -99.5q85 0 160 33t123 86l114 -102
q-66 -74 -174.5 -121t-236.5 -47z" />
    <glyph glyph-name="Ccircumflex" unicode="&#x108;" horiz-adv-x="1490" 
d="M840 1802l-148 -182h-168l238 293h153l244 -293h-168l-147 182h-4zM846 160q260 0 434 217l133 -113q-220 -274 -567 -274q-149 0 -279.5 48t-230 138.5t-157.5 231t-58 313.5q0 156 48.5 291.5t138.5 237t228.5 160t309.5 58.5q159 0 306 -68t261 -210l-133 -111
q-84 105 -196.5 162t-237.5 57q-246 0 -392.5 -160t-146.5 -417q0 -127 41 -233t113 -177.5t171 -111t214 -39.5z" />
    <glyph glyph-name="ccircumflex" unicode="&#x109;" horiz-adv-x="1069" 
d="M604 1321l-147 -182h-168l237 293h154l244 -293h-168l-148 182h-4zM887 258l114 -102q-66 -74 -174.5 -121t-236.5 -47q-216 0 -355 142t-139 368t140 369t360 143q115 0 222 -46.5t179 -132.5l-114 -100q-47 58 -119.5 91.5t-159.5 33.5q-151 0 -245.5 -100t-94.5 -258
q0 -160 94.5 -259.5t245.5 -99.5q85 0 160 33t123 86z" />
    <glyph glyph-name="Cdotaccent" unicode="&#x10a;" horiz-adv-x="1490" 
d="M844 1663q-51 0 -85 33.5t-34 83.5q0 48 34.5 82t84.5 34q49 0 84 -34.5t35 -81.5q0 -49 -34.5 -83t-84.5 -34zM846 -10q-149 0 -279.5 48t-230 138.5t-157.5 231t-58 313.5q0 156 48.5 291.5t138.5 237t228.5 160t309.5 58.5q159 0 306 -68t261 -210l-133 -111
q-84 105 -196.5 162t-237.5 57q-246 0 -392.5 -160t-146.5 -417q0 -127 41 -233t113 -177.5t171 -111t214 -39.5q260 0 434 217l133 -113q-220 -274 -567 -274z" />
    <glyph glyph-name="cdotaccent" unicode="&#x10b;" horiz-adv-x="1069" 
d="M608 1182q-51 0 -85 33t-34 83q0 48 34.5 82.5t84.5 34.5q49 0 84 -34.5t35 -82.5q0 -49 -34.5 -82.5t-84.5 -33.5zM590 -12q-216 0 -355 142t-139 368t140 369t360 143q115 0 222 -46.5t179 -132.5l-114 -100q-47 58 -119.5 91.5t-159.5 33.5q-151 0 -245.5 -100
t-94.5 -258q0 -160 94.5 -259.5t245.5 -99.5q85 0 160 33t123 86l114 -102q-66 -74 -174.5 -121t-236.5 -47z" />
    <glyph glyph-name="Ccaron" unicode="&#x10c;" horiz-adv-x="1490" 
d="M913 1620h-151l-238 293h168l148 -184h4l147 184h168zM846 160q260 0 434 217l133 -113q-220 -274 -567 -274q-149 0 -279.5 48t-230 138.5t-157.5 231t-58 313.5q0 156 48.5 291.5t138.5 237t228.5 160t309.5 58.5q159 0 306 -68t261 -210l-133 -111q-84 105 -196.5 162
t-237.5 57q-246 0 -392.5 -160t-146.5 -417q0 -127 41 -233t113 -177.5t171 -111t214 -39.5z" />
    <glyph glyph-name="ccaron" unicode="&#x10d;" horiz-adv-x="1069" 
d="M678 1139h-152l-237 293h168l147 -185h4l148 185h168zM887 258l114 -102q-66 -74 -174.5 -121t-236.5 -47q-216 0 -355 142t-139 368t140 369t360 143q115 0 222 -46.5t179 -132.5l-114 -100q-47 58 -119.5 91.5t-159.5 33.5q-151 0 -245.5 -100t-94.5 -258
q0 -160 94.5 -259.5t245.5 -99.5q85 0 160 33t123 86z" />
    <glyph glyph-name="Dcaron" unicode="&#x10e;" horiz-adv-x="1495" 
d="M803 1620h-152l-237 293h168l147 -184h4l148 184h168zM621 1454q227 0 398.5 -92.5t263 -257.5t91.5 -379q0 -160 -52 -294t-147.5 -229.5t-236 -148.5t-311.5 -53h-443v1454h437zM614 162q260 0 419 157.5t159 405.5q0 251 -157.5 409t-411.5 158h-261v-1130h252z" />
    <glyph glyph-name="dcaron" unicode="&#x10f;" horiz-adv-x="1390" 
d="M1305 1581h165l-102 -377h-121zM926 848v659h166v-1507h-158v158h-4q-61 -81 -149.5 -125.5t-194.5 -44.5q-211 0 -350.5 139.5t-139.5 364.5q0 222 138.5 370t349.5 148q101 0 190 -42t150 -120h2zM600 139q136 0 234 99.5t98 253.5t-94.5 259t-235.5 105
q-144 0 -241 -100.5t-97 -263.5q0 -153 93 -253t243 -100z" />
    <glyph glyph-name="Dcroat" unicode="&#x110;" horiz-adv-x="1495" 
d="M621 1454q227 0 398.5 -92.5t263 -257.5t91.5 -379q0 -160 -52 -294t-147.5 -229.5t-236 -148.5t-311.5 -53h-443v801h-176v155h176v498h437zM614 162q260 0 419 157.5t159 405.5q0 251 -157.5 409t-411.5 158h-261v-336h252v-155h-252v-639h252z" />
    <glyph glyph-name="dcroat" unicode="&#x111;" horiz-adv-x="1247" 
d="M1233 1294v-133h-141v-1161h-158v158h-4q-61 -81 -149.5 -125.5t-194.5 -44.5q-211 0 -350.5 139.5t-139.5 364.5q0 222 138.5 370t349.5 148q101 0 190 -42t150 -120h2v313h-246v133h246v213h166v-213h141zM600 139q136 0 234 99.5t98 253.5t-94.5 259t-235.5 105
q-144 0 -241 -100.5t-97 -263.5q0 -153 93 -253t243 -100z" />
    <glyph glyph-name="Emacron" unicode="&#x112;" horiz-adv-x="1224" 
d="M344 1702v141h588v-141h-588zM184 0v1454h891v-164h-710v-485h583v-164h-583v-477h753v-164h-934z" />
    <glyph glyph-name="emacron" unicode="&#x113;" horiz-adv-x="1130" 
d="M881 1362v-141h-588v141h588zM1036 514q0 -16 -2 -42l-2 -26h-768q17 -140 108 -223.5t226 -83.5q175 0 281 135l116 -100q-144 -186 -403 -186q-214 0 -355 142.5t-141 367.5q0 224 136.5 368t340.5 144q207 0 335 -139.5t128 -356.5zM582 856q-118 0 -203.5 -73
t-108.5 -199h602q-21 125 -96.5 198.5t-193.5 73.5z" />
    <glyph glyph-name="Ebreve" unicode="&#x114;" horiz-adv-x="1224" 
d="M639 1616q-119 0 -203 76t-94 211h135q5 -73 47.5 -118.5t114.5 -45.5q70 0 113.5 45t48.5 119h133q-9 -130 -90 -208.5t-205 -78.5zM184 0v1454h891v-164h-710v-485h583v-164h-583v-477h753v-164h-934z" />
    <glyph glyph-name="ebreve" unicode="&#x115;" horiz-adv-x="1130" 
d="M588 1135q-119 0 -203 75.5t-94 210.5h135q5 -73 47.5 -118.5t114.5 -45.5q70 0 113.5 45t48.5 119h133q-9 -130 -90 -208t-205 -78zM1036 514q0 -16 -2 -42l-2 -26h-768q17 -140 108 -223.5t226 -83.5q175 0 281 135l116 -100q-144 -186 -403 -186q-214 0 -355 142.5
t-141 367.5q0 224 136.5 368t340.5 144q207 0 335 -139.5t128 -356.5zM582 856q-118 0 -203.5 -73t-108.5 -199h602q-21 125 -96.5 198.5t-193.5 73.5z" />
    <glyph glyph-name="Edotaccent" unicode="&#x116;" horiz-adv-x="1224" 
d="M639 1663q-51 0 -85 33.5t-34 83.5q0 48 34.5 82t84.5 34q49 0 84 -34.5t35 -81.5q0 -49 -34.5 -83t-84.5 -34zM184 0v1454h891v-164h-710v-485h583v-164h-583v-477h753v-164h-934z" />
    <glyph glyph-name="edotaccent" unicode="&#x117;" horiz-adv-x="1130" 
d="M588 1182q-51 0 -85 33t-34 83q0 48 34.5 82.5t84.5 34.5q49 0 84 -34.5t35 -82.5q0 -49 -34.5 -82.5t-84.5 -33.5zM1036 514q0 -16 -2 -42l-2 -26h-768q17 -140 108 -223.5t226 -83.5q175 0 281 135l116 -100q-144 -186 -403 -186q-214 0 -355 142.5t-141 367.5
q0 224 136.5 368t340.5 144q207 0 335 -139.5t128 -356.5zM582 856q-118 0 -203.5 -73t-108.5 -199h602q-21 125 -96.5 198.5t-193.5 73.5z" />
    <glyph glyph-name="Eogonek" unicode="&#x118;" horiz-adv-x="1224" 
d="M1137 -246l12 -108q-62 -27 -139 -27q-95 0 -150 46t-55 126q0 51 34 106.5t95 100.5v2h-750v1454h891v-164h-710v-485h583v-164h-583v-477h753v-164h-10q-75 -21 -120.5 -70t-45.5 -102q0 -92 100 -92q60 0 95 18z" />
    <glyph glyph-name="eogonek" unicode="&#x119;" horiz-adv-x="1130" 
d="M1036 514q0 -16 -2 -42l-2 -26h-768q17 -140 108 -223.5t226 -83.5q175 0 281 135l116 -100q-99 -126 -256 -168q-172 -73 -172 -174q0 -37 26.5 -61.5t76.5 -24.5q25 0 42.5 2.5t26.5 6t27 12.5l10 -113q-56 -27 -139 -27q-103 0 -160 46t-57 126q0 45 27.5 96.5
t78.5 92.5v4q-190 22 -310 160.5t-120 345.5q0 224 136.5 368t340.5 144q207 0 335 -139.5t128 -356.5zM582 856q-118 0 -203.5 -73t-108.5 -199h602q-21 125 -96.5 198.5t-193.5 73.5z" />
    <glyph glyph-name="Ecaron" unicode="&#x11a;" horiz-adv-x="1224" 
d="M709 1620h-152l-238 293h168l148 -184h4l147 184h168zM365 164h753v-164h-934v1454h891v-164h-710v-485h583v-164h-583v-477z" />
    <glyph glyph-name="ecaron" unicode="&#x11b;" horiz-adv-x="1130" 
d="M657 1139h-151l-238 293h168l148 -185h4l147 185h168zM1036 514q0 -16 -2 -42l-2 -26h-768q17 -140 108 -223.5t226 -83.5q175 0 281 135l116 -100q-144 -186 -403 -186q-214 0 -355 142.5t-141 367.5q0 224 136.5 368t340.5 144q207 0 335 -139.5t128 -356.5zM582 856
q-118 0 -203.5 -73t-108.5 -199h602q-21 125 -96.5 198.5t-193.5 73.5z" />
    <glyph glyph-name="Gcircumflex" unicode="&#x11c;" horiz-adv-x="1562" 
d="M831 1802l-147 -182h-168l238 293h153l244 -293h-168l-147 182h-5zM813 750h600v-576q-102 -87 -250.5 -135.5t-314.5 -48.5q-156 0 -290 52t-230.5 146t-151.5 232.5t-55 304.5q0 214 88 382.5t253 264.5t380 96q155 0 299 -56t256 -173l-127 -109q-177 168 -430 168
q-232 0 -382.5 -158t-150.5 -415q0 -163 66.5 -292.5t190.5 -203t284 -73.5q233 0 387 110v320h-422v164z" />
    <glyph glyph-name="gcircumflex" unicode="&#x11d;" horiz-adv-x="1226" 
d="M582 1321l-148 -182h-168l238 293h153l244 -293h-168l-147 182h-4zM915 997h164v-921q0 -111 -28 -199.5t-85.5 -155.5t-152.5 -103t-223 -36q-226 0 -406 109l39 153q94 -53 176.5 -78.5t182.5 -25.5q162 0 249 82.5t87 210.5v139h-5q-125 -154 -338 -154
q-204 0 -343.5 138t-139.5 356q0 212 136.5 355t338.5 143q100 0 190 -39.5t154 -112.5h4v139zM588 174q149 0 241.5 97.5t92.5 248.5q0 148 -95.5 241t-238.5 93q-142 0 -234 -95.5t-92 -240.5q0 -155 94 -249.5t232 -94.5z" />
    <glyph glyph-name="Gbreve" unicode="&#x11e;" horiz-adv-x="1562" 
d="M836 1616q-119 0 -203 76t-94 211h135q5 -73 47.5 -118.5t114.5 -45.5q70 0 113 45t48 119h133q-9 -130 -90 -208.5t-204 -78.5zM813 750h600v-576q-102 -87 -250.5 -135.5t-314.5 -48.5q-156 0 -290 52t-230.5 146t-151.5 232.5t-55 304.5q0 214 88 382.5t253 264.5
t380 96q155 0 299 -56t256 -173l-127 -109q-177 168 -430 168q-232 0 -382.5 -158t-150.5 -415q0 -163 66.5 -292.5t190.5 -203t284 -73.5q233 0 387 110v320h-422v164z" />
    <glyph glyph-name="gbreve" unicode="&#x11f;" horiz-adv-x="1226" 
d="M586 1135q-119 0 -203 75.5t-94 210.5h135q5 -73 47.5 -118.5t114.5 -45.5q70 0 113.5 45t48.5 119h133q-9 -130 -90 -208t-205 -78zM915 997h164v-921q0 -111 -28 -199.5t-85.5 -155.5t-152.5 -103t-223 -36q-226 0 -406 109l39 153q94 -53 176.5 -78.5t182.5 -25.5
q162 0 249 82.5t87 210.5v139h-5q-125 -154 -338 -154q-204 0 -343.5 138t-139.5 356q0 212 136.5 355t338.5 143q100 0 190 -39.5t154 -112.5h4v139zM588 174q149 0 241.5 97.5t92.5 248.5q0 148 -95.5 241t-238.5 93q-142 0 -234 -95.5t-92 -240.5q0 -155 94 -249.5
t232 -94.5z" />
    <glyph glyph-name="Gdotaccent" unicode="&#x120;" horiz-adv-x="1562" 
d="M836 1663q-51 0 -85 33.5t-34 83.5q0 48 34.5 82t84.5 34q49 0 83.5 -34t34.5 -82q0 -49 -34 -83t-84 -34zM813 750h600v-576q-102 -87 -250.5 -135.5t-314.5 -48.5q-156 0 -290 52t-230.5 146t-151.5 232.5t-55 304.5q0 214 88 382.5t253 264.5t380 96q155 0 299 -56
t256 -173l-127 -109q-177 168 -430 168q-232 0 -382.5 -158t-150.5 -415q0 -163 66.5 -292.5t190.5 -203t284 -73.5q233 0 387 110v320h-422v164z" />
    <glyph glyph-name="gdotaccent" unicode="&#x121;" horiz-adv-x="1226" 
d="M586 1182q-51 0 -85 33t-34 83q0 48 34.5 82.5t84.5 34.5q49 0 84 -34.5t35 -82.5q0 -49 -34.5 -82.5t-84.5 -33.5zM915 997h164v-921q0 -111 -28 -199.5t-85.5 -155.5t-152.5 -103t-223 -36q-226 0 -406 109l39 153q94 -53 176.5 -78.5t182.5 -25.5q162 0 249 82.5
t87 210.5v139h-5q-125 -154 -338 -154q-204 0 -343.5 138t-139.5 356q0 212 136.5 355t338.5 143q100 0 190 -39.5t154 -112.5h4v139zM588 174q149 0 241.5 97.5t92.5 248.5q0 148 -95.5 241t-238.5 93q-142 0 -234 -95.5t-92 -240.5q0 -155 94 -249.5t232 -94.5z" />
    <glyph glyph-name="Gcommaaccent" unicode="&#x122;" horiz-adv-x="1562" 
d="M813 750h600v-576q-102 -87 -250.5 -135.5t-314.5 -48.5q-156 0 -290 52t-230.5 146t-151.5 232.5t-55 304.5q0 214 88 382.5t253 264.5t380 96q155 0 299 -56t256 -173l-127 -109q-177 168 -430 168q-232 0 -382.5 -158t-150.5 -415q0 -163 66.5 -292.5t190.5 -203
t284 -73.5q233 0 387 110v320h-422v164zM758 -109h151q11 -45 11 -104q0 -98 -63.5 -155.5t-168.5 -65.5l-41 100q67 14 95 46.5t28 84.5q0 39 -12 94z" />
    <glyph glyph-name="gcommaaccent" unicode="&#x123;" horiz-adv-x="1226" 
d="M676 1137h-152q-10 41 -10 104q0 98 63 155.5t168 65.5l41 -100q-67 -14 -94.5 -46t-27.5 -85q0 -39 12 -94zM915 997h164v-921q0 -111 -28 -199.5t-85.5 -155.5t-152.5 -103t-223 -36q-226 0 -406 109l39 153q94 -53 176.5 -78.5t182.5 -25.5q162 0 249 82.5t87 210.5
v139h-5q-125 -154 -338 -154q-204 0 -343.5 138t-139.5 356q0 212 136.5 355t338.5 143q100 0 190 -39.5t154 -112.5h4v139zM588 174q149 0 241.5 97.5t92.5 248.5q0 148 -95.5 241t-238.5 93q-142 0 -234 -95.5t-92 -240.5q0 -155 94 -249.5t232 -94.5z" />
    <glyph glyph-name="Hcircumflex" unicode="&#x124;" horiz-adv-x="1486" 
d="M743 1802l-147 -182h-168l238 293h153l244 -293h-168l-147 182h-5zM1124 1454h179v-1454h-179v608h-762v-608h-178v1454h178v-682h762v682z" />
    <glyph glyph-name="hcircumflex" unicode="&#x125;" horiz-adv-x="1196" 
d="M475 1825l-147 -183h-168l237 293h154l244 -293h-168l-148 183h-4zM694 1010q169 0 266 -102.5t97 -309.5v-598h-166v551q0 305 -244 305q-150 0 -236.5 -94t-86.5 -260v-502h-166v1507h166v-673h4q61 86 155.5 131t210.5 45z" />
    <glyph glyph-name="Hbar" unicode="&#x126;" horiz-adv-x="1486" 
d="M1427 1196v-139h-124v-1057h-179v608h-762v-608h-178v1057h-121v139h121v258h178v-258h762v258h179v-258h124zM1124 772v285h-762v-285h762z" />
    <glyph glyph-name="hbar" unicode="&#x127;" horiz-adv-x="1196" 
d="M694 1010q169 0 266 -102.5t97 -309.5v-598h-166v551q0 305 -244 305q-150 0 -236.5 -94t-86.5 -260v-502h-166v1161h-144v133h144v213h166v-213h243v-133h-243v-327h4q61 86 155.5 131t210.5 45z" />
    <glyph glyph-name="Itilde" unicode="&#x128;" horiz-adv-x="569" 
d="M444 1632q-33 0 -69 13t-56 25t-55 36q-77 47 -119 47q-78 0 -122 -113l-107 48q29 95 82 148.5t129 53.5q34 0 67.5 -10t50.5 -19.5t50 -29.5q4 -3 24 -17t27.5 -18t23 -12.5t28.5 -11.5t26 -3q37 0 69 29t50 84l106 -35q-27 -102 -82 -158.5t-123 -56.5zM195 0v1454
h180v-1454h-180z" />
    <glyph glyph-name="itilde" unicode="&#x129;" horiz-adv-x="512" 
d="M418 1151q-33 0 -69 13t-56 25t-55 36q-5 3 -16.5 10.5t-16.5 10t-15 8t-16 8t-15 5.5t-18 4t-18 1q-31 0 -59.5 -30.5t-47.5 -82.5l-108 47q30 94 81.5 148.5t116.5 54.5q14 0 27 -1.5t22.5 -3t22.5 -7t18.5 -7t19.5 -9.5t16.5 -9.5t18.5 -11t17 -10.5q4 -3 24 -17
t27.5 -18t23 -12.5t28.5 -11.5t26 -3q37 0 69 29t50 84l107 -35q-27 -102 -82 -158.5t-123 -56.5zM172 0v997h166v-997h-166z" />
    <glyph glyph-name="Imacron" unicode="&#x12a;" horiz-adv-x="569" 
d="M-12 1702v141h587v-141h-587zM195 0v1454h180v-1454h-180z" />
    <glyph glyph-name="imacron" unicode="&#x12b;" horiz-adv-x="512" 
d="M-39 1221v141h588v-141h-588zM172 0v997h166v-997h-166z" />
    <glyph glyph-name="Ibreve" unicode="&#x12c;" horiz-adv-x="569" 
d="M283 1616q-119 0 -203 76t-94 211h135q5 -73 47.5 -118.5t114.5 -45.5q70 0 113 45t48 119h134q-9 -130 -90 -208.5t-205 -78.5zM195 0v1454h180v-1454h-180z" />
    <glyph glyph-name="ibreve" unicode="&#x12d;" horiz-adv-x="512" 
d="M256 1135q-112 0 -186.5 75t-83.5 211h135q3 -74 37.5 -119t97.5 -45q61 0 96 44.5t37 119.5h135q-9 -132 -80 -209t-188 -77zM172 0v997h166v-997h-166z" />
    <glyph glyph-name="Iogonek" unicode="&#x12e;" horiz-adv-x="569" 
d="M383 -246l12 -108q-62 -27 -139 -27q-95 0 -150 46t-55 126q0 54 38 112t106 103v1448h180v-1454h-21q-75 -21 -120.5 -70t-45.5 -102q0 -43 25 -67.5t76 -24.5q59 0 94 18z" />
    <glyph glyph-name="iogonek" unicode="&#x12f;" horiz-adv-x="512" 
d="M256 1182q-51 0 -85 33t-34 83q0 48 34.5 82.5t84.5 34.5q49 0 84 -34.5t35 -82.5q0 -49 -34.5 -82.5t-84.5 -33.5zM266 -264q59 0 94 18l13 -108q-62 -27 -140 -27q-95 0 -149.5 46t-54.5 126q0 54 38 112t105 103v991h166v-997h-6q-75 -21 -120.5 -70t-45.5 -102
q0 -92 100 -92z" />
    <glyph glyph-name="Idotaccent" unicode="&#x130;" horiz-adv-x="569" 
d="M283 1663q-51 0 -85 33.5t-34 83.5q0 48 34.5 82t84.5 34q49 0 83.5 -34t34.5 -82q0 -49 -34 -83t-84 -34zM195 0v1454h180v-1454h-180z" />
    <glyph glyph-name="dotlessi" unicode="&#x131;" horiz-adv-x="512" 
d="M172 0v997h166v-997h-166z" />
    <glyph glyph-name="IJ" unicode="&#x132;" horiz-adv-x="1587" 
d="M195 0v1454h180v-1454h-180zM1016 -10q-102 0 -205.5 47.5t-175.5 136.5l100 131q55 -63 129 -104t146 -41q239 0 239 317v977h176v-981q0 -239 -98.5 -361t-310.5 -122z" />
    <glyph glyph-name="ij" unicode="&#x133;" horiz-adv-x="978" 
d="M256 1182q-51 0 -85 33t-34 83q0 48 34.5 82.5t84.5 34.5q49 0 84 -34.5t35 -82.5q0 -49 -34.5 -82.5t-84.5 -33.5zM752 1182q-51 0 -85 33t-34 83q0 48 34.5 82.5t84.5 34.5q49 0 83.5 -34.5t34.5 -82.5q0 -49 -34 -82.5t-84 -33.5zM172 0v997h166v-997h-166zM580 -418
q-95 0 -172 33l26 147q54 -28 105 -28q59 0 94 40t35 122v1101h166v-1101q0 -146 -68 -230t-186 -84z" />
    <glyph glyph-name="Jcircumflex" unicode="&#x134;" horiz-adv-x="1017" 
d="M840 1913l243 -293h-168l-147 182h-4l-148 -182h-167l237 293h154zM680 477v977h176v-981q0 -239 -99 -361t-311 -122q-101 0 -204.5 47.5t-175.5 136.5l100 131q56 -64 129 -104.5t145 -40.5q240 0 240 317z" />
    <glyph glyph-name="jcircumflex" unicode="&#x135;" horiz-adv-x="466" 
d="M311 1432l244 -293h-168l-147 182h-4l-148 -182h-168l238 293h153zM156 -104v1101h166v-1101q0 -146 -68 -230t-186 -84q-95 0 -172 33l26 147q54 -28 105 -28q59 0 94 40t35 122z" />
    <glyph glyph-name="Kcommaaccent" unicode="&#x136;" horiz-adv-x="1331" 
d="M692 793l580 -793h-223l-474 647h-6l-207 -246v-401h-178v1454h178v-799h5l661 799h227zM600 -109h152q10 -41 10 -104q0 -98 -63.5 -155.5t-168.5 -65.5l-41 100q67 14 95 46.5t28 84.5q0 39 -12 94z" />
    <glyph glyph-name="kcommaaccent" unicode="&#x137;" horiz-adv-x="1067" 
d="M647 584l375 -584h-191l-294 457h-5l-208 -232v-225h-164v1507h164v-1054h4l489 544h203zM485 -109h152q10 -41 10 -104q0 -98 -63 -155.5t-168 -65.5l-41 100q67 14 95 46.5t28 84.5q0 34 -13 94z" />
    <glyph glyph-name="kgreenlandic" unicode="&#x138;" horiz-adv-x="1067" 
d="M537 457h-5l-208 -232v-225h-164v997h164v-544h4l491 544h201l-373 -413l377 -584h-193z" />
    <glyph glyph-name="Lacute" unicode="&#x139;" horiz-adv-x="1150" 
d="M399 1622l240 289l188 2l-254 -291h-174zM184 0v1454h178v-1290h721v-164h-899z" />
    <glyph glyph-name="lacute" unicode="&#x13a;" horiz-adv-x="512" 
d="M174 1649l240 288l188 2l-254 -290h-174zM172 0v1507h166v-1507h-166z" />
    <glyph glyph-name="Lcommaaccent" unicode="&#x13b;" horiz-adv-x="1150" 
d="M184 0v1454h178v-1290h721v-164h-899zM475 -434l-41 100q67 14 95 46.5t28 84.5q0 39 -12 94h151q11 -45 11 -104q0 -98 -63.5 -155.5t-168.5 -65.5z" />
    <glyph glyph-name="lcommaaccent" unicode="&#x13c;" horiz-adv-x="512" 
d="M172 0v1507h166v-1507h-166zM106 -434l-40 100q67 14 94.5 46t27.5 85q0 39 -12 94h152q10 -41 10 -104q0 -98 -63.5 -155.5t-168.5 -65.5z" />
    <glyph glyph-name="Lcaron" unicode="&#x13d;" horiz-adv-x="1150" 
d="M627 1204l57 377h166l-100 -377h-123zM184 0v1454h178v-1290h721v-164h-899z" />
    <glyph glyph-name="lcaron" unicode="&#x13e;" horiz-adv-x="636" 
d="M494 1204l57 377h164l-101 -377h-120zM172 0v1507h166v-1507h-166z" />
    <glyph glyph-name="Ldot" unicode="&#x13f;" horiz-adv-x="1150" 
d="M184 0v1454h178v-1290h721v-164h-899zM1509 780q-50 0 -84 33.5t-34 81.5q0 50 33.5 83.5t84.5 33.5q48 0 82.5 -34t34.5 -83q0 -47 -35 -81t-82 -34z" />
    <glyph glyph-name="ldot" unicode="&#x140;" horiz-adv-x="770" 
d="M172 0v1507h166v-1507h-166zM637 399q-51 0 -85 33.5t-34 81.5q0 50 34 83.5t85 33.5q48 0 82.5 -34t34.5 -83q0 -47 -35 -81t-82 -34z" />
    <glyph glyph-name="Lslash" unicode="&#x141;" horiz-adv-x="1179" 
d="M391 164h721v-164h-899v584l-166 -78v149l166 80v719h178v-635l180 86v-151l-180 -86v-504z" />
    <glyph glyph-name="lslash" unicode="&#x142;" horiz-adv-x="548" 
d="M494 846v-160l-129 -59v-627h-166v549l-136 -64v158l136 64v800h166v-723z" />
    <glyph glyph-name="Nacute" unicode="&#x143;" horiz-adv-x="1548" 
d="M1020 1913l-254 -291h-174l239 289zM1186 1454h178v-1454h-182l-815 1147h-5v-1147h-178v1454h176l822 -1159h4v1159z" />
    <glyph glyph-name="nacute" unicode="&#x144;" horiz-adv-x="1187" 
d="M899 1432l-254 -291h-174l240 289zM688 1010q167 0 263 -105t96 -313v-592h-166v545q0 166 -64 238.5t-180 72.5q-143 0 -228 -95.5t-85 -262.5v-498h-166v997h166v-174h2q63 89 157.5 138t204.5 49z" />
    <glyph glyph-name="Ncommaaccent" unicode="&#x145;" horiz-adv-x="1548" 
d="M1186 1454h178v-1454h-182l-815 1147h-5v-1147h-178v1454h176l822 -1159h4v1159zM692 -109h152q10 -41 10 -104q0 -98 -63 -155.5t-168 -65.5l-41 100q67 14 95 46.5t28 84.5q0 34 -13 94z" />
    <glyph glyph-name="ncommaaccent" unicode="&#x146;" horiz-adv-x="1187" 
d="M688 1010q167 0 263 -105t96 -313v-592h-166v545q0 166 -64 238.5t-180 72.5q-143 0 -228 -95.5t-85 -262.5v-498h-166v997h166v-174h2q63 89 157.5 138t204.5 49zM522 -109h152q10 -41 10 -104q0 -98 -63 -155.5t-168 -65.5l-41 100q67 14 95 46.5t28 84.5q0 34 -13 94z
" />
    <glyph glyph-name="Ncaron" unicode="&#x147;" horiz-adv-x="1548" 
d="M842 1620h-152l-237 293h168l147 -184h4l148 184h167zM1186 1454h178v-1454h-182l-815 1147h-5v-1147h-178v1454h176l822 -1159h4v1159z" />
    <glyph glyph-name="ncaron" unicode="&#x148;" horiz-adv-x="1187" 
d="M670 1139h-152l-237 293h168l147 -185h4l148 185h167zM688 1010q167 0 263 -105t96 -313v-592h-166v545q0 166 -64 238.5t-180 72.5q-143 0 -228 -95.5t-85 -262.5v-498h-166v997h166v-174h2q63 89 157.5 138t204.5 49z" />
    <glyph glyph-name="napostrophe" unicode="&#x149;" horiz-adv-x="1333" 
d="M10 1057l58 397h163l-100 -397h-121zM834 1010q167 0 262.5 -105t95.5 -313v-592h-166v545q0 166 -64 238.5t-180 72.5q-143 0 -228 -95.5t-85 -262.5v-498h-166v997h166v-174h2q63 89 158 138t205 49z" />
    <glyph glyph-name="Eng" unicode="&#x14a;" horiz-adv-x="1548" 
d="M1186 1454h178v-1388v-170q0 -147 -70 -230.5t-198 -83.5q-89 0 -172 33l26 141q50 -30 105 -30q58 0 94.5 42t36.5 121v107l-819 1153h-5v-1149h-178v1454h174l822 -1159h6v1159z" />
    <glyph glyph-name="eng" unicode="&#x14b;" horiz-adv-x="1157" 
d="M672 1010q169 0 257.5 -106.5t88.5 -315.5v-692q0 -146 -68 -230t-186 -84q-95 0 -172 33l26 141q50 -30 105 -30q58 0 93.5 42t35.5 121v648q0 170 -55.5 244.5t-178.5 74.5q-122 0 -208 -99t-86 -261v-496h-166v997h166v-172h4q60 86 155.5 135.5t188.5 49.5z" />
    <glyph glyph-name="Omacron" unicode="&#x14c;" horiz-adv-x="1697" 
d="M557 1702v141h588v-141h-588zM852 -12q-214 0 -381.5 97t-258.5 265t-91 377t91 377.5t258.5 266t381.5 97.5q153 0 286.5 -54t230 -149.5t152.5 -235t56 -302.5t-56 -301.5t-152.5 -234t-230.5 -149.5t-286 -54zM852 158q149 0 272 72t195 202.5t72 294.5
q0 165 -72 296.5t-194.5 203t-272.5 71.5q-159 0 -285 -77t-194 -207t-68 -287t68 -286.5t194 -206t285 -76.5z" />
    <glyph glyph-name="omacron" unicode="&#x14d;" horiz-adv-x="1222" 
d="M317 1221v141h588v-141h-588zM612 -12q-152 0 -270.5 67.5t-182 183.5t-63.5 259q0 219 143.5 365.5t372.5 146.5q222 0 367 -143.5t145 -368.5t-145 -367.5t-367 -142.5zM612 139q146 0 245 101t99 258q0 158 -98.5 258t-245.5 100q-154 0 -251 -103t-97 -255
t97.5 -255.5t250.5 -103.5z" />
    <glyph glyph-name="Obreve" unicode="&#x14e;" horiz-adv-x="1697" 
d="M852 1616q-119 0 -203 76t-94 211h135q5 -73 47.5 -118.5t114.5 -45.5q70 0 113.5 45t48.5 119h133q-9 -130 -90 -208.5t-205 -78.5zM852 -12q-214 0 -381.5 97t-258.5 265t-91 377t91 377.5t258.5 266t381.5 97.5q153 0 286.5 -54t230 -149.5t152.5 -235t56 -302.5
t-56 -301.5t-152.5 -234t-230.5 -149.5t-286 -54zM852 158q149 0 272 72t195 202.5t72 294.5q0 165 -72 296.5t-194.5 203t-272.5 71.5q-159 0 -285 -77t-194 -207t-68 -287t68 -286.5t194 -206t285 -76.5z" />
    <glyph glyph-name="obreve" unicode="&#x14f;" horiz-adv-x="1222" 
d="M612 1135q-119 0 -203 75.5t-94 210.5h136q5 -73 47.5 -118.5t113.5 -45.5q70 0 113.5 45t48.5 119h133q-9 -130 -90 -208t-205 -78zM612 -12q-152 0 -270.5 67.5t-182 183.5t-63.5 259q0 219 143.5 365.5t372.5 146.5q222 0 367 -143.5t145 -368.5t-145 -367.5
t-367 -142.5zM612 139q146 0 245 101t99 258q0 158 -98.5 258t-245.5 100q-154 0 -251 -103t-97 -255t97.5 -255.5t250.5 -103.5z" />
    <glyph glyph-name="Ohungarumlaut" unicode="&#x150;" horiz-adv-x="1697" 
d="M600 1622l240 289l176 2l-254 -291h-162zM942 1622l240 289l176 2l-254 -291h-162zM852 -12q-214 0 -381.5 97t-258.5 265t-91 377t91 377.5t258.5 266t381.5 97.5q153 0 286.5 -54t230 -149.5t152.5 -235t56 -302.5t-56 -301.5t-152.5 -234t-230.5 -149.5t-286 -54z
M852 158q149 0 272 72t195 202.5t72 294.5q0 165 -72 296.5t-194.5 203t-272.5 71.5q-159 0 -285 -77t-194 -207t-68 -287t68 -286.5t194 -206t285 -76.5z" />
    <glyph glyph-name="ohungarumlaut" unicode="&#x151;" horiz-adv-x="1222" 
d="M342 1141l240 289l176 2l-254 -291h-162zM684 1141l240 289l176 2l-254 -291h-162zM612 -12q-152 0 -270.5 67.5t-182 183.5t-63.5 259q0 219 143.5 365.5t372.5 146.5q222 0 367 -143.5t145 -368.5t-145 -367.5t-367 -142.5zM612 139q146 0 245 101t99 258
q0 158 -98.5 258t-245.5 100q-154 0 -251 -103t-97 -255t97.5 -255.5t250.5 -103.5z" />
    <glyph glyph-name="OE" unicode="&#x152;" horiz-adv-x="1964" 
d="M1108 164h750v-164h-928h-74q-214 0 -383 97.5t-260.5 263.5t-91.5 368q0 203 91.5 368.5t260.5 261.5t383 95h129h832v-164h-709v-487h588v-164h-588v-475zM856 168h74v1120h-74q-152 1 -278 -69.5t-199.5 -199.5t-73.5 -290q0 -120 43 -225t117 -179t175.5 -116
t215.5 -41z" />
    <glyph glyph-name="oe" unicode="&#x153;" horiz-adv-x="1660" 
d="M1602 514q0 -28 -5 -68h-657q11 -140 79.5 -223.5t188.5 -83.5q68 0 131.5 37t104.5 96l115 -98q-58 -84 -154.5 -135t-204.5 -51q-120 0 -208.5 52.5t-141.5 145.5h-4q-57 -94 -146 -146t-196 -52q-128 0 -227 67t-152 182.5t-53 260.5q0 219 125 365.5t313 146.5
q103 0 190.5 -53.5t145.5 -149.5h2q57 96 146 149.5t202 53.5q175 0 290.5 -140.5t115.5 -355.5zM504 139q111 0 188.5 101.5t77.5 257.5q0 157 -75 257.5t-185 100.5q-115 0 -192.5 -103t-77.5 -255q0 -154 73 -256.5t191 -102.5zM1192 856q-103 0 -168 -72.5t-80 -197.5
h494q-18 124 -83 197t-163 73z" />
    <glyph glyph-name="Racute" unicode="&#x154;" horiz-adv-x="1325" 
d="M903 1913l-254 -291h-174l240 289zM1221 0h-215l-369 555h-275v-555h-178v1454h516q123 0 216.5 -33.5t151 -95t86 -142t28.5 -179.5q0 -181 -91 -289.5t-255 -143.5v-2zM362 1290v-571h291q174 0 259 78.5t85 210.5q0 137 -84 209.5t-235 72.5h-316z" />
    <glyph glyph-name="racute" unicode="&#x155;" horiz-adv-x="731" 
d="M686 1432l-254 -291h-174l240 289zM651 1010q31 0 41 -2v-185q-46 4 -65 4q-139 0 -221 -96.5t-82 -249.5v-481h-166v997h166v-176h2q56 90 140.5 139.5t184.5 49.5z" />
    <glyph glyph-name="Rcommaaccent" unicode="&#x156;" horiz-adv-x="1325" 
d="M836 569l385 -569h-215l-369 555h-275v-555h-178v1454h516q123 0 216.5 -33.5t151 -95t86 -142t28.5 -179.5q0 -181 -91 -289.5t-255 -143.5v-2zM362 1290v-571h291q174 0 259 78.5t85 210.5q0 137 -84 209.5t-235 72.5h-316zM569 -109h152q10 -41 10 -104
q0 -98 -63 -155.5t-168 -65.5l-41 100q67 14 95 46.5t28 84.5q0 34 -13 94z" />
    <glyph glyph-name="rcommaaccent" unicode="&#x157;" horiz-adv-x="731" 
d="M651 1010q31 0 41 -2v-185q-46 4 -65 4q-139 0 -221 -96.5t-82 -249.5v-481h-166v997h166v-176h2q56 90 140.5 139.5t184.5 49.5zM166 -109h151q11 -45 11 -104q0 -98 -63.5 -155.5t-168.5 -65.5l-41 100q67 14 95 46.5t28 84.5q0 39 -12 94z" />
    <glyph glyph-name="Rcaron" unicode="&#x158;" horiz-adv-x="1325" 
d="M725 1620h-152l-237 293h168l147 -184h4l148 184h168zM1221 0h-215l-369 555h-275v-555h-178v1454h516q123 0 216.5 -33.5t151 -95t86 -142t28.5 -179.5q0 -181 -91 -289.5t-255 -143.5v-2zM362 1290v-571h291q174 0 259 78.5t85 210.5q0 137 -84 209.5t-235 72.5h-316z
" />
    <glyph glyph-name="rcaron" unicode="&#x159;" horiz-adv-x="731" 
d="M508 1139h-152l-237 293h168l147 -185h4l148 185h168zM326 821q56 90 140.5 139.5t184.5 49.5q31 0 41 -2v-185q-46 4 -65 4q-139 0 -221 -96.5t-82 -249.5v-481h-166v997h166v-176h2z" />
    <glyph glyph-name="Sacute" unicode="&#x15a;" horiz-adv-x="1196" 
d="M496 1620l239 289l189 2l-254 -291h-174zM606 -12q-142 0 -276.5 56t-239.5 169l115 135q75 -93 183.5 -142.5t219.5 -49.5q135 0 216 60t81 163q0 33 -8 61t-19.5 49t-34.5 41t-44 34t-56.5 30t-64 27t-74.5 29l-24 9q-56 21 -92.5 36t-87 39t-83 46.5t-68 55
t-56.5 67.5t-34.5 81t-13.5 99q0 162 129 272.5t316 112.5q248 0 461 -170l-109 -139q-84 70 -176 107t-176 37q-107 0 -182.5 -56.5t-75.5 -154.5q0 -23 5 -43.5t11.5 -37t23.5 -33.5l28 -28t38.5 -26.5t41 -23.5t50.5 -23.5t52.5 -22t58.5 -23.5q182 -70 244 -103
q139 -76 183 -188q24 -63 24 -143q0 -97 -40.5 -176.5t-109 -129t-155 -76.5t-181.5 -27z" />
    <glyph glyph-name="sacute" unicode="&#x15b;" horiz-adv-x="903" 
d="M352 1141l240 289l188 2l-254 -291h-174zM463 -12q-232 0 -391 143l86 125q64 -59 134.5 -89t170.5 -30q86 0 137 38.5t51 94.5q0 31 -15 53.5t-47.5 41t-69.5 32.5t-95 34q-7 2 -10 3q-70 25 -116.5 47.5t-92 58t-68 85.5t-22.5 116q0 116 93.5 192.5t235.5 76.5
q190 0 342 -123l-86 -131q-118 102 -264 102q-60 0 -106.5 -32.5t-46.5 -84.5q0 -28 13 -50.5t42.5 -41.5t57 -32t75.5 -31q160 -62 190 -77q104 -50 137 -121q22 -48 21 -116q0 -124 -92 -204t-264 -80z" />
    <glyph glyph-name="Scircumflex" unicode="&#x15c;" horiz-adv-x="1196" 
d="M592 1802l-148 -182h-168l238 293h154l243 -293h-168l-147 182h-4zM641 831q182 -70 244 -103q139 -76 183 -188q24 -63 24 -143q0 -97 -40.5 -176.5t-109 -129t-155 -76.5t-181.5 -27q-142 0 -276.5 56t-239.5 169l115 135q75 -93 183.5 -142.5t219.5 -49.5
q135 0 216 60t81 163q0 33 -8 61t-19.5 49t-34.5 41t-44 34t-56.5 30t-64 27t-74.5 29l-24 9q-56 21 -92.5 36t-87 39t-83 46.5t-68 55t-56.5 67.5t-34.5 81t-13.5 99q0 162 129 272.5t316 112.5q248 0 461 -170l-109 -139q-84 70 -176 107t-176 37q-107 0 -182.5 -56.5
t-75.5 -154.5q0 -23 5 -43.5t11.5 -37t23.5 -33.5l28 -28t38.5 -26.5t41 -23.5t50.5 -23.5t52.5 -22t58.5 -23.5z" />
    <glyph glyph-name="scircumflex" unicode="&#x15d;" horiz-adv-x="903" 
d="M461 1321l-148 -182h-168l238 293h154l243 -293h-168l-147 182h-4zM471 586q160 -62 190 -77q104 -50 137 -121q22 -48 21 -116q0 -124 -92 -204t-264 -80q-232 0 -391 143l86 125q64 -59 134.5 -89t170.5 -30q86 0 137 38.5t51 94.5q0 31 -15 53.5t-47.5 41t-69.5 32.5
t-95 34q-7 2 -10 3q-70 25 -116.5 47.5t-92 58t-68 85.5t-22.5 116q0 116 93.5 192.5t235.5 76.5q190 0 342 -123l-86 -131q-118 102 -264 102q-60 0 -106.5 -32.5t-46.5 -84.5q0 -28 13 -50.5t42.5 -41.5t57 -32t75.5 -31z" />
    <glyph glyph-name="Scedilla" unicode="&#x15e;" horiz-adv-x="1196" 
d="M633 -12l-25 -51l2 -5q81 -5 129.5 -47t48.5 -114q0 -69 -55 -112.5t-164 -43.5q-52 0 -114 12v90q47 -14 98 -14q48 0 81.5 19.5t33.5 56.5q0 36 -44 61t-126 25v61l30 66q-255 26 -438 221l115 135q75 -93 183.5 -142.5t219.5 -49.5q135 0 216 60t81 163q0 33 -8 61
t-19.5 49t-34.5 41t-44 34t-56.5 30t-64 27t-74.5 29l-24 9q-56 21 -92.5 36t-87 39t-83 46.5t-68 55t-56.5 67.5t-34.5 81t-13.5 99q0 162 129 272.5t316 112.5q248 0 461 -170l-109 -139q-84 70 -176 107t-176 37q-107 0 -182.5 -56.5t-75.5 -154.5q0 -23 5 -43.5
t11.5 -37t23.5 -33.5l28 -28t38.5 -26.5t41 -23.5t50.5 -23.5t52.5 -22t58.5 -23.5q182 -70 244 -103q139 -76 183 -188q24 -63 24 -143q0 -124 -65.5 -217t-168 -140t-225.5 -52z" />
    <glyph glyph-name="scedilla" unicode="&#x15f;" horiz-adv-x="903" 
d="M471 586q160 -62 190 -77q104 -50 137 -121q22 -48 21 -116q0 -124 -92 -204t-264 -80h-4l-23 -51l2 -5q81 -5 129.5 -47t48.5 -114q0 -69 -55 -112.5t-164 -43.5q-52 0 -114 12v90q47 -14 98 -14q48 0 81.5 19.5t33.5 56.5q0 36 -44 61t-126 25v61l32 70
q-164 26 -286 135l86 125q64 -59 134.5 -89t170.5 -30q86 0 137 38.5t51 94.5q0 31 -15 53.5t-47.5 41t-69.5 32.5t-95 34q-7 2 -10 3q-70 25 -116.5 47.5t-92 58t-68 85.5t-22.5 116q0 116 93.5 192.5t235.5 76.5q190 0 342 -123l-86 -131q-118 102 -264 102
q-60 0 -106.5 -32.5t-46.5 -84.5q0 -28 13 -50.5t42.5 -41.5t57 -32t75.5 -31z" />
    <glyph glyph-name="Scaron" unicode="&#x160;" horiz-adv-x="1196" 
d="M666 1620h-152l-238 293h168l148 -184h4l147 184h168zM641 831q182 -70 244 -103q139 -76 183 -188q24 -63 24 -143q0 -97 -40.5 -176.5t-109 -129t-155 -76.5t-181.5 -27q-142 0 -276.5 56t-239.5 169l115 135q75 -93 183.5 -142.5t219.5 -49.5q135 0 216 60t81 163
q0 33 -8 61t-19.5 49t-34.5 41t-44 34t-56.5 30t-64 27t-74.5 29l-24 9q-56 21 -92.5 36t-87 39t-83 46.5t-68 55t-56.5 67.5t-34.5 81t-13.5 99q0 162 129 272.5t316 112.5q248 0 461 -170l-109 -139q-84 70 -176 107t-176 37q-107 0 -182.5 -56.5t-75.5 -154.5
q0 -23 5 -43.5t11.5 -37t23.5 -33.5l28 -28t38.5 -26.5t41 -23.5t50.5 -23.5t52.5 -22t58.5 -23.5z" />
    <glyph glyph-name="scaron" unicode="&#x161;" horiz-adv-x="903" 
d="M535 1139h-152l-238 293h168l148 -185h4l147 185h168zM471 586q160 -62 190 -77q104 -50 137 -121q22 -48 21 -116q0 -124 -92 -204t-264 -80q-232 0 -391 143l86 125q64 -59 134.5 -89t170.5 -30q86 0 137 38.5t51 94.5q0 31 -15 53.5t-47.5 41t-69.5 32.5t-95 34
q-7 2 -10 3q-70 25 -116.5 47.5t-92 58t-68 85.5t-22.5 116q0 116 93.5 192.5t235.5 76.5q190 0 342 -123l-86 -131q-118 102 -264 102q-60 0 -106.5 -32.5t-46.5 -84.5q0 -28 13 -50.5t42.5 -41.5t57 -32t75.5 -31z" />
    <glyph glyph-name="uni0162" unicode="&#x162;" horiz-adv-x="1181" 
d="M600 0l-29 -63l2 -5q81 -5 130 -47t49 -114q0 -69 -55.5 -112.5t-164.5 -43.5q-52 0 -114 12v90q47 -14 98 -14q48 0 81.5 19.5t33.5 56.5q0 36 -44 61t-126 25v61l39 82v1282h-437v164h1053v-164h-438v-1290h-78z" />
    <glyph glyph-name="uni0163" unicode="&#x163;" horiz-adv-x="745" 
d="M406 -68q81 -5 129.5 -47t48.5 -114q0 -69 -55 -112.5t-164 -43.5q-53 0 -115 12v90q47 -14 98 -14q48 0 81.5 19.5t33.5 56.5q0 36 -44 61t-126 25v61l37 80q-150 54 -150 291v557h-127v143h127v340l166 19v-359h332v-143h-332v-532q0 -93 27.5 -136t95.5 -43
q77 0 168 52l45 -146q-108 -61 -242 -61h-12l-25 -51z" />
    <glyph glyph-name="Tcaron" unicode="&#x164;" horiz-adv-x="1181" 
d="M657 1620h-151l-238 293h168l148 -184h4l147 184h168zM63 1454h1053v-164h-438v-1290h-178v1290h-437v164z" />
    <glyph glyph-name="tcaron" unicode="&#x165;" horiz-adv-x="745" 
d="M483 1204l60 377h164l-103 -377h-121zM440 -12q-260 0 -260 309v557h-127v143h127v340l166 19v-359h332v-143h-332v-532q0 -93 27.5 -136t95.5 -43q77 0 168 52l45 -146q-108 -61 -242 -61z" />
    <glyph glyph-name="Tbar" unicode="&#x166;" horiz-adv-x="1181" 
d="M1116 1290h-438v-477h246v-149h-246v-664h-178v664h-236v149h236v477h-437v164h1053v-164z" />
    <glyph glyph-name="tbar" unicode="&#x167;" horiz-adv-x="745" 
d="M637 195l45 -146q-108 -61 -242 -61q-260 0 -260 309v201h-108v133h108v223h-127v143h127v340l166 19v-359h332v-143h-332v-223h279v-133h-279v-176q0 -93 27.5 -136t95.5 -43q77 0 168 52z" />
    <glyph glyph-name="Utilde" unicode="&#x168;" horiz-adv-x="1456" 
d="M889 1632q-33 0 -69 13t-56 25t-55 36q-77 47 -119 47q-79 0 -123 -113l-107 48q29 95 82 148.5t129 53.5q34 0 67.5 -10t50.5 -19.5t50 -29.5q4 -3 24 -17t27.5 -18t23 -12.5t28.5 -11.5t26 -3q37 0 69 29t50 84l107 -35q-27 -102 -82 -158.5t-123 -56.5zM725 -12
q-253 0 -407 160.5t-154 443.5v862h178v-850q0 -202 104.5 -324t278.5 -122q173 0 280 119.5t107 326.5v850h178v-862q0 -280 -152.5 -442t-412.5 -162z" />
    <glyph glyph-name="utilde" unicode="&#x169;" horiz-adv-x="1155" 
d="M438 1272q-79 0 -123 -113l-106 47q29 96 82 149.5t129 53.5q34 0 67.5 -10t50.5 -19.5t50 -29.5q4 -3 24 -17t27.5 -18t23 -12.5t28.5 -11.5t26 -3q37 0 69 29t50 84l106 -35q-27 -102 -82 -158.5t-123 -56.5q-33 0 -69 13t-56 25t-55 36q-77 47 -119 47zM842 997h166
v-997h-166v166h-2q-60 -86 -145.5 -132t-182.5 -46q-177 0 -276 103.5t-99 311.5v594h166v-546q0 -166 60.5 -239t183.5 -73q124 0 209.5 101.5t85.5 273.5v483z" />
    <glyph glyph-name="Umacron" unicode="&#x16a;" horiz-adv-x="1456" 
d="M432 1702v141h588v-141h-588zM725 -12q-253 0 -407 160.5t-154 443.5v862h178v-850q0 -202 104.5 -324t278.5 -122q173 0 280 119.5t107 326.5v850h178v-862q0 -280 -152.5 -442t-412.5 -162z" />
    <glyph glyph-name="umacron" unicode="&#x16b;" horiz-adv-x="1155" 
d="M868 1362v-141h-587v141h587zM842 997h166v-997h-166v166h-2q-60 -86 -145.5 -132t-182.5 -46q-177 0 -276 103.5t-99 311.5v594h166v-546q0 -166 60.5 -239t183.5 -73q124 0 209.5 101.5t85.5 273.5v483z" />
    <glyph glyph-name="Ubreve" unicode="&#x16c;" horiz-adv-x="1456" 
d="M727 1616q-119 0 -203 76t-94 211h135q5 -73 47.5 -118.5t114.5 -45.5q70 0 113.5 45t48.5 119h133q-9 -130 -90 -208.5t-205 -78.5zM725 -12q-253 0 -407 160.5t-154 443.5v862h178v-850q0 -202 104.5 -324t278.5 -122q173 0 280 119.5t107 326.5v850h178v-862
q0 -280 -152.5 -442t-412.5 -162z" />
    <glyph glyph-name="ubreve" unicode="&#x16d;" horiz-adv-x="1155" 
d="M575 1135q-119 0 -202.5 75.5t-93.5 210.5h135q5 -73 47.5 -118.5t113.5 -45.5q70 0 113.5 45t48.5 119h133q-9 -130 -90 -208t-205 -78zM842 997h166v-997h-166v166h-2q-60 -86 -145.5 -132t-182.5 -46q-177 0 -276 103.5t-99 311.5v594h166v-546q0 -166 60.5 -239
t183.5 -73q124 0 209.5 101.5t85.5 273.5v483z" />
    <glyph glyph-name="Uring" unicode="&#x16e;" horiz-adv-x="1456" 
d="M725 1581q-80 0 -138.5 57t-58.5 138q0 80 56.5 137t140.5 57t142.5 -55.5t58.5 -138.5q0 -79 -58 -137t-143 -58zM727 1692q35 0 61.5 25.5t26.5 60.5t-26.5 61.5t-61.5 26.5q-36 0 -62 -26t-26 -62q0 -37 25.5 -61.5t62.5 -24.5zM725 -12q-253 0 -407 160.5t-154 443.5
v862h178v-850q0 -202 104.5 -324t278.5 -122q173 0 280 119.5t107 326.5v850h178v-862q0 -280 -152.5 -442t-412.5 -162z" />
    <glyph glyph-name="uring" unicode="&#x16f;" horiz-adv-x="1155" 
d="M573 1100q-80 0 -138 56.5t-58 137.5t56 138t140 57t142.5 -56t58.5 -139q0 -79 -58 -136.5t-143 -57.5zM575 1384q-36 0 -62 -26t-26 -62q0 -37 25.5 -61.5t62.5 -24.5q36 0 62.5 25.5t26.5 60.5t-27 61.5t-62 26.5zM842 997h166v-997h-166v166h-2q-60 -86 -145.5 -132
t-182.5 -46q-177 0 -276 103.5t-99 311.5v594h166v-546q0 -166 60.5 -239t183.5 -73q124 0 209.5 101.5t85.5 273.5v483z" />
    <glyph glyph-name="Uhungarumlaut" unicode="&#x170;" horiz-adv-x="1456" 
d="M461 1620l239 289l177 2l-254 -291h-162zM803 1620l239 289l177 2l-254 -291h-162zM725 -12q-253 0 -407 160.5t-154 443.5v862h178v-850q0 -202 104.5 -324t278.5 -122q173 0 280 119.5t107 326.5v850h178v-862q0 -280 -152.5 -442t-412.5 -162z" />
    <glyph glyph-name="uhungarumlaut" unicode="&#x171;" horiz-adv-x="1155" 
d="M723 1432l-254 -291h-162l240 289zM811 1141h-162l240 289l176 2zM842 514v483h166v-997h-166v166h-2q-60 -86 -145.5 -132t-182.5 -46q-177 0 -276 103.5t-99 311.5v594h166v-546q0 -166 60.5 -239t183.5 -73q124 0 209.5 101.5t85.5 273.5z" />
    <glyph glyph-name="Uogonek" unicode="&#x172;" horiz-adv-x="1456" 
d="M1112 1454h178v-862q0 -232 -106.5 -386t-296.5 -200h2q-75 -21 -120.5 -70t-45.5 -102q0 -92 100 -92q60 0 95 18l12 -108q-62 -27 -139 -27q-95 0 -150 46t-55 126q0 46 27.5 97t78.5 92v2q-239 11 -383.5 171t-144.5 433v862h178v-850q0 -202 104.5 -324t278.5 -122
q173 0 280 119.5t107 326.5v850z" />
    <glyph glyph-name="uogonek" unicode="&#x173;" horiz-adv-x="1155" 
d="M1028 -246l12 -108q-62 -27 -139 -27q-95 0 -150 46t-55 126q0 54 38.5 113t107.5 104v158h-2q-60 -86 -145.5 -132t-182.5 -46q-177 0 -276 103.5t-99 311.5v594h166v-546q0 -166 60.5 -239t183.5 -73q124 0 209.5 101.5t85.5 273.5v483h166v-997h-9q-74 -21 -119.5 -70
t-45.5 -102q0 -92 100 -92q59 0 94 18z" />
    <glyph glyph-name="Wcircumflex" unicode="&#x174;" horiz-adv-x="2097" 
d="M1047 1802l-148 -182h-168l238 293h153l244 -293h-168l-147 182h-4zM1835 1454h190l-464 -1454h-172l-336 1192h-2l-342 -1192h-172l-465 1454h190l359 -1161h4l327 1161h195l328 -1165h2z" />
    <glyph glyph-name="wcircumflex" unicode="&#x175;" horiz-adv-x="1572" 
d="M782 1321l-147 -182h-168l238 293h153l244 -293h-168l-148 182h-4zM1346 997h167l-346 -997h-155l-226 727h-2l-227 -727h-151l-347 997h168l254 -745h4l228 745h143l231 -745h5z" />
    <glyph glyph-name="Ycircumflex" unicode="&#x176;" horiz-adv-x="1236" 
d="M618 1802l-147 -182h-168l238 293h153l244 -293h-168l-147 182h-5zM995 1454h207l-495 -805v-649h-179v649l-493 805h205l376 -627h5z" />
    <glyph glyph-name="ycircumflex" unicode="&#x177;" horiz-adv-x="1081" 
d="M539 1321l-148 -182h-168l238 293h153l244 -293h-168l-147 182h-4zM854 997h176l-563 -1403h-176l178 447l-422 956h178l324 -759h4z" />
    <glyph glyph-name="Ydieresis" unicode="&#x178;" horiz-adv-x="1236" 
d="M436 1663q-51 0 -85 33.5t-34 83.5q0 48 34.5 82t84.5 34q49 0 84 -34.5t35 -81.5q0 -49 -34.5 -83t-84.5 -34zM807 1665q-49 0 -83 33.5t-34 81.5q0 46 34 80t83 34t83 -34t34 -80q0 -48 -34 -81.5t-83 -33.5zM995 1454h207l-495 -805v-649h-179v649l-493 805h205
l376 -627h5z" />
    <glyph glyph-name="Zacute" unicode="&#x179;" horiz-adv-x="1265" 
d="M877 1913l-254 -291h-174l239 289zM348 164h789v-164h-1016v141l776 1147v2h-735v164h968v-141z" />
    <glyph glyph-name="zacute" unicode="&#x17a;" horiz-adv-x="972" 
d="M735 1432l-254 -291h-174l240 289zM887 879l-584 -732v-4h582v-143h-805v123l577 727v4h-546v143h776v-118z" />
    <glyph glyph-name="Zdotaccent" unicode="&#x17b;" horiz-adv-x="1265" 
d="M629 1663q-51 0 -85 33.5t-34 83.5q0 48 34.5 82t84.5 34q49 0 84 -34.5t35 -81.5q0 -49 -34.5 -83t-84.5 -34zM348 164h789v-164h-1016v141l776 1147v2h-735v164h968v-141z" />
    <glyph glyph-name="zdotaccent" unicode="&#x17c;" horiz-adv-x="972" 
d="M487 1182q-51 0 -84.5 33t-33.5 83q0 48 34 82.5t84 34.5q49 0 84 -34.5t35 -82.5q0 -49 -34.5 -82.5t-84.5 -33.5zM887 879l-584 -732v-4h582v-143h-805v123l577 727v4h-546v143h776v-118z" />
    <glyph glyph-name="Zcaron" unicode="&#x17d;" horiz-adv-x="1265" 
d="M698 1620h-151l-238 293h168l148 -184h4l147 184h168zM348 164h789v-164h-1016v141l776 1147v2h-735v164h968v-141z" />
    <glyph glyph-name="zcaron" unicode="&#x17e;" horiz-adv-x="972" 
d="M557 1139h-151l-238 293h168l147 -185h4l148 185h168zM887 879l-584 -732v-4h582v-143h-805v123l577 727v4h-546v143h776v-118z" />
    <glyph glyph-name="longs" unicode="&#x17f;" horiz-adv-x="659" 
d="M201 0v854h-123v143h123v201q0 159 72 241.5t206 82.5q127 0 234 -64l-37 -143q-97 51 -174 51q-137 0 -137 -182v-1184h-164z" />
    <glyph glyph-name="uni018F" unicode="&#x18f;" horiz-adv-x="1466" 
d="M698 1468q187 0 334.5 -93.5t230.5 -263t83 -386.5q0 -213 -80.5 -381.5t-225 -262t-327.5 -93.5q-124 0 -232.5 46t-191.5 132t-131.5 220.5t-48.5 301.5q0 58 4 72h1050q-11 242 -139 390t-330 148q-165 0 -329 -84l-82 150q183 104 415 104zM707 158q178 0 297.5 119
t150.5 321h-864q19 -197 133 -318.5t283 -121.5z" />
    <glyph glyph-name="florin" unicode="&#x192;" horiz-adv-x="1101" 
d="M209 -256q-92 0 -160 24t-106 60l63 119q79 -49 174 -49q79 0 127 47.5t62 158.5l94 709h-158l21 145h157l31 240q45 322 330 322q87 0 156 -24t110 -58l-68 -119q-77 47 -174 47q-79 0 -126.5 -47t-61.5 -160l-25 -201h306l-21 -145h-305l-98 -745q-23 -166 -104.5 -245
t-223.5 -79z" />
    <glyph glyph-name="uni019D" unicode="&#x19d;" horiz-adv-x="1548" 
d="M1186 1454h178v-1454h-182l-815 1147h-5v-1147v-104q0 -147 -69.5 -230.5t-196.5 -83.5q-89 0 -172 33l29 141q49 -30 102 -30q58 0 93.5 42t35.5 121v533v1032h176l822 -1159h4v1159z" />
    <glyph glyph-name="Ohorn" unicode="&#x1a0;" horiz-adv-x="1781" 
d="M1546 1585h170v-149q0 -291 -219 -351v-2q80 -160 80 -356q0 -163 -56 -301.5t-152.5 -234t-230.5 -149.5t-286 -54q-214 0 -381.5 97t-258.5 265t-91 377t91 377.5t258.5 266t381.5 97.5q179 0 330 -72.5t248 -203.5q70 20 93 79.5t23 174.5v139zM852 158q149 0 272 72
t195 202.5t72 294.5q0 165 -72 296.5t-194.5 203t-272.5 71.5q-159 0 -285 -77t-194 -207t-68 -287t68 -286.5t194 -206t285 -76.5z" />
    <glyph glyph-name="ohorn" unicode="&#x1a1;" horiz-adv-x="1384" 
d="M1167 1157h170v-149q0 -149 -58.5 -238.5t-172.5 -114.5l-2 -4q20 -78 20 -153q0 -225 -145 -367.5t-367 -142.5q-152 0 -270.5 67.5t-182 183.5t-63.5 259q0 219 143.5 365.5t372.5 146.5q145 0 262 -64.5t183 -179.5q34 11 56.5 31.5t34 54.5t15.5 72t4 94v139z
M612 139q146 0 245 101t99 258q0 158 -98.5 258t-245.5 100q-154 0 -251 -103t-97 -255t97.5 -255.5t250.5 -103.5z" />
    <glyph glyph-name="Uhorn" unicode="&#x1af;" horiz-adv-x="1622" 
d="M1436 1585h170v-149q0 -174 -81 -267t-235 -96v-481q0 -280 -152.5 -442t-412.5 -162q-253 0 -407 160.5t-154 443.5v862h178v-850q0 -202 104.5 -324t278.5 -122q173 0 280 119.5t107 326.5v850h178v-268q89 13 117.5 73.5t28.5 186.5v139z" />
    <glyph glyph-name="uhorn" unicode="&#x1b0;" horiz-adv-x="1351" 
d="M1149 1157h170v-149q0 -173 -79.5 -265.5t-231.5 -97.5v-645h-166v166h-2q-60 -86 -145.5 -132t-182.5 -46q-177 0 -276 103.5t-99 311.5v594h166v-546q0 -166 60.5 -239t183.5 -73q124 0 209.5 101.5t85.5 273.5v483h166v-237q86 13 113.5 72.5t27.5 185.5v139z" />
    <glyph glyph-name="Gcaron" unicode="&#x1e6;" horiz-adv-x="1562" 
d="M905 1620h-151l-238 293h168l147 -184h5l147 184h168zM813 750h600v-576q-102 -87 -250.5 -135.5t-314.5 -48.5q-156 0 -290 52t-230.5 146t-151.5 232.5t-55 304.5q0 214 88 382.5t253 264.5t380 96q155 0 299 -56t256 -173l-127 -109q-177 168 -430 168
q-232 0 -382.5 -158t-150.5 -415q0 -163 66.5 -292.5t190.5 -203t284 -73.5q233 0 387 110v320h-422v164z" />
    <glyph glyph-name="gcaron" unicode="&#x1e7;" horiz-adv-x="1226" 
d="M655 1139h-151l-238 293h168l148 -185h4l147 185h168zM915 997h164v-921q0 -111 -28 -199.5t-85.5 -155.5t-152.5 -103t-223 -36q-226 0 -406 109l39 153q94 -53 176.5 -78.5t182.5 -25.5q162 0 249 82.5t87 210.5v139h-5q-125 -154 -338 -154q-204 0 -343.5 138
t-139.5 356q0 212 136.5 355t338.5 143q100 0 190 -39.5t154 -112.5h4v139zM588 174q149 0 241.5 97.5t92.5 248.5q0 148 -95.5 241t-238.5 93q-142 0 -234 -95.5t-92 -240.5q0 -155 94 -249.5t232 -94.5z" />
    <glyph glyph-name="uni01EA" unicode="&#x1ea;" horiz-adv-x="1697" 
d="M967 -4q-69 -23 -110.5 -70t-41.5 -98q0 -92 100 -92q60 0 95 18l12 -108q-62 -27 -139 -27q-95 0 -150 46t-55 126q0 48 30 101t85 94v4q-198 13 -352 112.5t-237 262.5t-83 362q0 209 91 377.5t258.5 266t381.5 97.5q153 0 286.5 -54t230 -149.5t152.5 -235t56 -302.5
q0 -294 -170.5 -493t-439.5 -238zM305 727q0 -157 68 -286.5t194 -206t285 -76.5q149 0 272 72t195 202.5t72 294.5q0 165 -72 296.5t-194.5 203t-272.5 71.5q-159 0 -285 -77t-194 -207t-68 -287z" />
    <glyph glyph-name="uni01EB" unicode="&#x1eb;" horiz-adv-x="1222" 
d="M694 -6q-66 -24 -105.5 -70.5t-39.5 -95.5q0 -92 100 -92q59 0 94 18l13 -108q-62 -27 -140 -27q-95 0 -149.5 46t-54.5 126q0 49 31.5 103.5t88.5 97.5q-197 26 -316.5 166.5t-119.5 339.5q0 219 143.5 365.5t372.5 146.5q222 0 367 -143.5t145 -368.5q0 -203 -120 -340
t-310 -164zM264 498q0 -152 97.5 -255.5t250.5 -103.5q146 0 245 101t99 258q0 158 -98.5 258t-245.5 100q-154 0 -251 -103t-97 -255z" />
    <glyph glyph-name="Aringacute" unicode="&#x1fa;" horiz-adv-x="1396" 
d="M696 1579q-80 0 -138 57t-58 138t56 137.5t140 56.5q93 0 152 -65l141 100h201l-293 -215v-14q0 -79 -58 -137t-143 -58zM698 1864q-36 0 -62 -26t-26 -62q0 -37 25.5 -61.5t62.5 -24.5q35 0 61.5 25.5t26.5 60.5t-26.5 61.5t-61.5 26.5zM1153 0l-129 354h-649l-129 -354
h-189l551 1454h178l555 -1454h-188zM432 510h535l-267 727h-4z" />
    <glyph glyph-name="aringacute" unicode="&#x1fb;" horiz-adv-x="1249" 
d="M618 1100q-80 0 -138 56.5t-58 137.5t56 138t140 57q81 0 140 -53l139 96l199 2l-279 -207q2 -10 2 -33q0 -79 -58 -136.5t-143 -57.5zM621 1384q-37 0 -63 -26t-26 -62t26 -61t63 -25q35 0 61.5 25.5t26.5 60.5t-26.5 61.5t-61.5 26.5zM932 997h166v-997h-160v158h-2
q-61 -81 -151 -125.5t-197 -44.5q-211 0 -350.5 139.5t-139.5 364.5q0 222 138.5 370t349.5 148q103 0 192 -42t152 -120h2v149zM602 139q139 0 237.5 99t98.5 254t-95 259.5t-239 104.5t-241 -100.5t-97 -263.5q0 -153 93 -253t243 -100z" />
    <glyph glyph-name="AEacute" unicode="&#x1fc;" horiz-adv-x="1929" 
d="M1294 1913l-254 -291h-174l240 289zM1065 164h760v-164h-934v352h-496l-188 -352h-191l783 1454h985v-164h-719v-485h598v-164h-598v-477zM481 510h410v756h-4z" />
    <glyph glyph-name="aeacute" unicode="&#x1fd;" horiz-adv-x="1605" 
d="M1135 1434l-254 -291h-174l239 289zM1554 514q0 -20 -6 -68h-706q15 -137 97.5 -222t205.5 -85q72 0 137 36.5t113 96.5l116 -98q-67 -87 -162.5 -136.5t-211.5 -49.5q-113 0 -204.5 53.5t-146.5 148.5h-4q-44 -88 -141 -145t-229 -57q-171 0 -258.5 83.5t-87.5 215.5
q0 139 95 220t279 81l242 2v22q0 135 -43 189.5t-139 54.5q-153 0 -291 -74l-66 133q162 95 367 95q112 0 183 -45t104 -140h2q58 88 146.5 136.5t197.5 48.5q180 0 295.5 -140t115.5 -356zM1130 856q-107 0 -183.5 -72.5t-98.5 -195.5h541q-20 122 -90.5 195t-168.5 73z
M424 137q105 0 184.5 66t79.5 151v11l-2 84h-231q-102 -2 -163 -41.5t-61 -114.5q0 -65 50.5 -110.5t142.5 -45.5z" />
    <glyph glyph-name="Oslashacute" unicode="&#x1fe;" horiz-adv-x="1697" 
d="M1174 1913l-254 -291h-175l240 289zM1585 1399l-172 -185q164 -204 164 -487q0 -163 -56 -301.5t-152.5 -234t-230.5 -149.5t-286 -54q-252 0 -442 137l-166 -178l-109 98l166 178q-180 205 -180 504q0 209 91 377.5t258.5 266t381.5 97.5q266 0 461 -153l168 180z
M305 727q0 -214 121 -369l764 824q-144 116 -338 116q-159 0 -285 -77t-194 -207t-68 -287zM1391 727q0 198 -105 348l-756 -817q140 -100 322 -100q149 0 272 72t195 202.5t72 294.5z" />
    <glyph glyph-name="oslashacute" unicode="&#x1ff;" horiz-adv-x="1222" 
d="M946 1434l-254 -291h-174l240 289zM1145 952l-125 -133q104 -136 104 -321q0 -225 -145 -367.5t-367 -142.5q-163 0 -295 82l-108 -117l-96 88l106 113q-123 142 -123 344q0 219 143.5 365.5t372.5 146.5q180 0 318 -101l123 129zM264 498q0 -130 70 -222l485 515
q-90 65 -207 65q-154 0 -251 -103t-97 -255zM956 498q0 115 -53 198l-473 -508q81 -49 182 -49q146 0 245 101t99 258z" />
    <glyph glyph-name="Scommaaccent" unicode="&#x218;" horiz-adv-x="1196" 
d="M606 -12q-142 0 -276.5 56t-239.5 169l115 135q75 -93 183.5 -142.5t219.5 -49.5q135 0 216 60t81 163q0 33 -8 61t-19.5 49t-34.5 41t-44 34t-56.5 30t-64 27t-74.5 29l-24 9q-56 21 -92.5 36t-87 39t-83 46.5t-68 55t-56.5 67.5t-34.5 81t-13.5 99q0 162 129 272.5
t316 112.5q248 0 461 -170l-109 -139q-84 70 -176 107t-176 37q-107 0 -182.5 -56.5t-75.5 -154.5q0 -23 5 -43.5t11.5 -37t23.5 -33.5l28 -28t38.5 -26.5t41 -23.5t50.5 -23.5t52.5 -22t58.5 -23.5q182 -70 244 -103q139 -76 183 -188q24 -63 24 -143q0 -97 -40.5 -176.5
t-109 -129t-155 -76.5t-181.5 -27zM467 -434l-41 100q67 14 95 46.5t28 84.5q0 39 -12 94h151q10 -41 10 -104q0 -98 -63 -155.5t-168 -65.5z" />
    <glyph glyph-name="scommaaccent" unicode="&#x219;" horiz-adv-x="903" 
d="M463 -12q-232 0 -391 143l86 125q64 -59 134.5 -89t170.5 -30q86 0 137 38.5t51 94.5q0 31 -15 53.5t-47.5 41t-69.5 32.5t-95 34q-7 2 -10 3q-70 25 -116.5 47.5t-92 58t-68 85.5t-22.5 116q0 116 93.5 192.5t235.5 76.5q190 0 342 -123l-86 -131q-118 102 -264 102
q-60 0 -106.5 -32.5t-46.5 -84.5q0 -28 13 -50.5t42.5 -41.5t57 -32t75.5 -31q160 -62 190 -77q104 -50 137 -121q22 -48 21 -116q0 -124 -92 -204t-264 -80zM295 -434l-41 100q67 14 95 46.5t28 84.5q0 39 -12 94h151q10 -41 10 -104q0 -98 -63 -155.5t-168 -65.5z" />
    <glyph glyph-name="uni021A" unicode="&#x21a;" horiz-adv-x="1181" 
d="M500 0v1290h-437v164h1053v-164h-438v-1290h-178zM430 -434l-41 100q67 14 95 46.5t28 84.5q0 39 -12 94h151q11 -45 11 -104q0 -98 -63.5 -155.5t-168.5 -65.5z" />
    <glyph glyph-name="uni021B" unicode="&#x21b;" horiz-adv-x="745" 
d="M440 -12q-260 0 -260 309v557h-127v143h127v340l166 19v-359h332v-143h-332v-532q0 -93 27.5 -136t95.5 -43q77 0 168 52l45 -146q-108 -61 -242 -61zM262 -434l-41 100q67 14 95 46.5t28 84.5q0 39 -12 94h151q11 -45 11 -104q0 -98 -63.5 -155.5t-168.5 -65.5z" />
    <glyph glyph-name="uni0232" unicode="&#x232;" horiz-adv-x="1236" 
d="M915 1843v-141h-587v141h587zM995 1454h207l-495 -805v-649h-179v649l-493 805h205l376 -627h5z" />
    <glyph glyph-name="uni0233" unicode="&#x233;" horiz-adv-x="1081" 
d="M836 1362v-141h-588v141h588zM854 997h176l-563 -1403h-176l178 447l-422 956h178l324 -759h4z" />
    <glyph glyph-name="uni0237" unicode="&#x237;" horiz-adv-x="466" 
d="M68 -418q-95 0 -172 33l26 147q54 -28 105 -28q59 0 94 40t35 122v1101h166v-1101q0 -146 -68 -230t-186 -84z" />
    <glyph glyph-name="uni0259" unicode="&#x259;" horiz-adv-x="1140" 
d="M535 1010q140 0 255 -61.5t184.5 -179.5t69.5 -271q0 -224 -138 -367t-347 -143t-338 138t-129 355q0 46 4 70h778q-17 143 -110.5 224t-237.5 81q-131 0 -282 -74l-66 133q185 95 357 95zM557 139q125 0 208 73t105 200h-612q12 -122 96.5 -197.5t202.5 -75.5z" />
    <glyph glyph-name="uni0272" unicode="&#x272;" horiz-adv-x="1187" 
d="M688 1010q167 0 263 -105t96 -313v-592h-166v545q0 166 -64 238.5t-180 72.5q-143 0 -228 -95.5t-85 -262.5v-498v-104q0 -147 -67 -230.5t-187 -83.5q-95 0 -172 33l26 141q49 -30 105 -30q58 0 93.5 42t35.5 121v533v575h166v-174h2q63 89 157.5 138t204.5 49z" />
    <glyph glyph-name="circumflex" unicode="&#x2c6;" horiz-adv-x="1013" 
d="M655 1106l-147 182h-4l-148 -182h-168l238 293h154l243 -293h-168z" />
    <glyph glyph-name="caron" unicode="&#x2c7;" horiz-adv-x="1013" 
d="M655 1399h168l-245 -293h-152l-238 293h168l148 -185h4z" />
    <glyph glyph-name="breve" unicode="&#x2d8;" horiz-adv-x="954" 
d="M477 1102q-119 0 -203 76t-94 211h135q5 -73 47.5 -118.5t114.5 -45.5q70 0 113.5 45t48.5 119h133q-9 -130 -90 -208.5t-205 -78.5z" />
    <glyph glyph-name="dotaccent" unicode="&#x2d9;" horiz-adv-x="1011" 
d="M506 1149q-51 0 -85 33.5t-34 83.5q0 48 34.5 82t84.5 34q49 0 84 -34.5t35 -81.5q0 -49 -34.5 -83t-84.5 -34z" />
    <glyph glyph-name="ring" unicode="&#x2da;" horiz-adv-x="942" 
d="M469 1067q-80 0 -138.5 57t-58.5 138q0 80 56.5 137t140.5 57t142.5 -55.5t58.5 -138.5q0 -79 -58 -137t-143 -58zM471 1178q35 0 61.5 25.5t26.5 60.5t-26.5 61.5t-61.5 26.5q-36 0 -62 -26t-26 -62q0 -37 25.5 -61.5t62.5 -24.5z" />
    <glyph glyph-name="ogonek" unicode="&#x2db;" horiz-adv-x="958" 
d="M557 -381q-95 0 -150 46t-55 126q0 61 48 127.5t132 110.5l123 -29q-75 -21 -120.5 -70t-45.5 -102q0 -43 25 -67.5t76 -24.5q59 0 94 18l12 -108q-62 -27 -139 -27z" />
    <glyph glyph-name="tilde" unicode="&#x2dc;" horiz-adv-x="1034" 
d="M680 1118q-33 0 -69 13t-56 25t-55 36q-77 47 -119 47q-79 0 -123 -113l-106 48q61 202 210 202q34 0 67.5 -10t50.5 -19.5t50 -29.5q4 -3 24 -17t27.5 -18t23 -12.5t28.5 -11.5t26 -3q37 0 69 29t50 84l107 -35q-27 -102 -82 -158.5t-123 -56.5z" />
    <glyph glyph-name="hungarumlaut" unicode="&#x2dd;" horiz-adv-x="1056" 
d="M154 1108l239 289l176 2l-254 -291h-161zM496 1108l239 289l176 2l-254 -291h-161z" />
    <glyph glyph-name="gravecomb" unicode="&#x300;" horiz-adv-x="0" 
d="M25 1108l-254 291l190 -2l240 -289h-176z" />
    <glyph glyph-name="acutecomb" unicode="&#x301;" horiz-adv-x="0" 
d="M-180 1108l239 289l189 2l-254 -291h-174z" />
    <glyph glyph-name="uni0302" unicode="&#x302;" horiz-adv-x="0" 
d="M147 1106l-147 182h-4l-148 -182h-167l237 293h154l243 -293h-168z" />
    <glyph glyph-name="tildecomb" unicode="&#x303;" horiz-adv-x="0" 
d="M162 1118q-33 0 -69 13t-56 25t-55 36q-77 47 -119 47q-79 0 -123 -113l-107 48q29 95 82 148.5t129 53.5q34 0 67.5 -10t50.5 -19.5t50 -29.5q4 -3 24 -17t27.5 -18t23 -12.5t28.5 -11.5t26 -3q37 0 69 29t50 84l107 -35q-27 -102 -82 -158.5t-123 -56.5z" />
    <glyph glyph-name="uni0304" unicode="&#x304;" horiz-adv-x="0" 
d="M-295 1188v141h588v-141h-588z" />
    <glyph glyph-name="uni0306" unicode="&#x306;" horiz-adv-x="0" 
d="M0 1102q-119 0 -203 76t-94 211h135q5 -73 47.5 -118.5t114.5 -45.5q70 0 113.5 45t48.5 119h133q-9 -130 -90 -208.5t-205 -78.5z" />
    <glyph glyph-name="uni0307" unicode="&#x307;" horiz-adv-x="0" 
d="M0 1149q-51 0 -85 33.5t-34 83.5q0 48 34.5 82t84.5 34q49 0 84 -34.5t35 -81.5q0 -49 -34.5 -83t-84.5 -34z" />
    <glyph glyph-name="uni0308" unicode="&#x308;" horiz-adv-x="0" 
d="M-186 1149q-51 0 -85 33.5t-34 83.5q0 48 34.5 82t84.5 34q49 0 83.5 -34t34.5 -82q0 -49 -34 -83t-84 -34zM184 1151q-49 0 -82.5 33.5t-33.5 81.5q0 46 33.5 80t82.5 34t83 -34t34 -80q0 -48 -34 -81.5t-83 -33.5z" />
    <glyph glyph-name="hookabovecomb" unicode="&#x309;" horiz-adv-x="0" 
d="M-51 1059q-31 31 -31 55q0 22 26.5 42.5t58.5 34.5t58.5 37t26.5 48q0 59 -80 59q-85 0 -143 -65l-72 65q40 42 100.5 68.5t126.5 26.5q87 0 137 -43t50 -109q0 -59 -46.5 -100t-127.5 -64l-15 -55h-69z" />
    <glyph glyph-name="uni030A" unicode="&#x30a;" horiz-adv-x="0" 
d="M-2 1067q-80 0 -138.5 57t-58.5 138q0 80 56.5 137t140.5 57t142.5 -55.5t58.5 -138.5q0 -79 -58 -137t-143 -58zM0 1178q35 0 61.5 25.5t26.5 60.5t-26.5 61.5t-61.5 26.5q-36 0 -62 -26t-26 -62q0 -37 25.5 -61.5t62.5 -24.5z" />
    <glyph glyph-name="uni030B" unicode="&#x30b;" horiz-adv-x="0" 
d="M-254 1108l240 289l176 2l-254 -291h-162zM88 1108l240 289l176 2l-254 -291h-162z" />
    <glyph glyph-name="uni030C" unicode="&#x30c;" horiz-adv-x="0" 
d="M147 1399h168l-245 -293h-152l-237 293h167l148 -185h4z" />
    <glyph glyph-name="uni0312" unicode="&#x312;" horiz-adv-x="0" 
d="M160 1432l41 -101q-67 -14 -95 -46.5t-28 -84.5q0 -38 12 -94h-151q-11 45 -11 104q0 98 63.5 156t168.5 66z" />
    <glyph glyph-name="uni031B" unicode="&#x31b;" horiz-adv-x="0" 
d="M-27 942l-2 111q46 2 77.5 15t51 33t30 54t14 70t3.5 90v139h170v-149q0 -183 -88 -275.5t-256 -87.5z" />
    <glyph glyph-name="dotbelowcomb" unicode="&#x323;" horiz-adv-x="0" 
d="M0 -227q51 0 85 -33.5t34 -83.5q0 -48 -34.5 -82.5t-84.5 -34.5q-49 0 -84 34.5t-35 82.5q0 49 34.5 83t84.5 34z" />
    <glyph glyph-name="uni0326" unicode="&#x326;" horiz-adv-x="0" 
d="M-160 -434l-41 100q67 14 95 46.5t28 84.5q0 39 -12 94h151q11 -45 11 -104q0 -98 -63.5 -155.5t-168.5 -65.5z" />
    <glyph glyph-name="uni0327" unicode="&#x327;" horiz-adv-x="0" 
d="M-16 -68q81 -5 129.5 -47t48.5 -114q0 -69 -55 -112.5t-164 -43.5q-53 0 -115 12v90q47 -14 98 -14q48 0 81.5 19.5t33.5 56.5q0 36 -44 61t-126 25v61l41 86h104l-34 -75z" />
    <glyph glyph-name="uni0328" unicode="&#x328;" horiz-adv-x="0" 
d="M-109 -381q-95 0 -149.5 46t-54.5 126q0 61 48 127.5t132 110.5l123 -29q-75 -21 -120.5 -70t-45.5 -102q0 -92 100 -92q59 0 94 18l13 -108q-62 -27 -140 -27z" />
    <glyph glyph-name="uni0335" unicode="&#x335;" horiz-adv-x="0" 
d="M-272 498v118h553v-118h-553z" />
    <glyph glyph-name="uni0374" unicode="&#x374;" horiz-adv-x="503" 
d="M70 983l110 504h172l-135 -504h-147z" />
    <glyph glyph-name="uni0375" unicode="&#x375;" horiz-adv-x="503" 
d="M131 -299l111 504h172l-135 -504h-148z" />
    <glyph glyph-name="uni037E" unicode="&#x37e;" horiz-adv-x="464" 
d="M227 774q-50 0 -84 33.5t-34 81.5q0 50 33.5 83.5t84.5 33.5q48 0 82.5 -34t34.5 -83q0 -47 -35 -81t-82 -34zM68 -266l65 491h182l-125 -491h-122z" />
    <glyph glyph-name="tonos" unicode="&#x384;" horiz-adv-x="950" 
d="M338 1108l121 336h192l-151 -336h-162z" />
    <glyph glyph-name="dieresistonos" unicode="&#x385;" horiz-adv-x="1126" 
d="M438 1108l72 336h154l-99 -336h-127zM264 1149q-50 0 -84.5 34t-34.5 83q0 47 35 81.5t84 34.5t84 -34.5t35 -81.5q0 -49 -34.5 -83t-84.5 -34zM811 1151q-49 0 -83 33.5t-34 81.5q0 46 34 80t83 34q47 0 82 -34t35 -80q0 -47 -35 -81t-82 -34z" />
    <glyph glyph-name="Alphatonos" unicode="&#x386;" horiz-adv-x="1396" 
d="M1153 0l-129 354h-649l-129 -354h-189l551 1454h178l555 -1454h-188zM358 1444l-182 -336h-160l152 336h190zM432 510h535l-267 727h-4z" />
    <glyph glyph-name="anoteleia" unicode="&#x387;" horiz-adv-x="493" 
d="M248 774q-51 0 -85 33.5t-34 81.5q0 50 34 83.5t85 33.5q48 0 82.5 -34t34.5 -83q0 -47 -35 -81t-82 -34z" />
    <glyph glyph-name="Epsilontonos" unicode="&#x388;" horiz-adv-x="1224" 
d="M184 0v1454h891v-164h-710v-485h583v-164h-583v-477h753v-164h-934zM-303 1112l151 336h191l-182 -336h-160z" />
    <glyph glyph-name="Etatonos" unicode="&#x389;" horiz-adv-x="1486" 
d="M184 0v1454h178v-682h762v682h179v-1454h-179v608h-762v-608h-178zM-305 1112l151 336h191l-182 -336h-160z" />
    <glyph glyph-name="Iotatonos" unicode="&#x38a;" horiz-adv-x="569" 
d="M195 0v1454h180v-1454h-180zM-311 1112l151 336h191l-183 -336h-159z" />
    <glyph glyph-name="Omicrontonos" unicode="&#x38c;" horiz-adv-x="1697" 
d="M852 -12q-214 0 -381.5 97t-258.5 265t-91 377t91 377.5t258.5 266t381.5 97.5q153 0 286.5 -54t230 -149.5t152.5 -235t56 -302.5t-56 -301.5t-152.5 -234t-230.5 -149.5t-286 -54zM-168 1112l152 336h190l-182 -336h-160zM852 158q149 0 272 72t195 202.5t72 294.5
q0 165 -72 296.5t-194.5 203t-272.5 71.5q-159 0 -285 -77t-194 -207t-68 -287t68 -286.5t194 -206t285 -76.5z" />
    <glyph glyph-name="Upsilontonos" unicode="&#x38e;" horiz-adv-x="1236" 
d="M995 1454h207l-495 -805v-649h-179v649l-493 805h205l376 -627h5zM-395 1112l151 336h191l-183 -336h-159z" />
    <glyph glyph-name="Omegatonos" unicode="&#x38f;" horiz-adv-x="1597" 
d="M1174 168v-4h282v-164h-545v164q175 101 278 262.5t103 345.5q0 234 -136 379t-357 145t-358.5 -145.5t-137.5 -378.5q0 -184 103 -345.5t278 -262.5v-164h-545v164h285v4q-142 110 -223.5 269.5t-81.5 336.5q0 202 85 359.5t240 245t355 87.5q303 0 490.5 -192.5
t187.5 -499.5q0 -177 -80.5 -336.5t-222.5 -269.5zM-45 1448h190l-182 -336h-160z" />
    <glyph glyph-name="iotadieresistonos" unicode="&#x390;" horiz-adv-x="550" 
d="M182 1141l72 336h154l-99 -336h-127zM8 1182q-50 0 -84.5 33.5t-34.5 82.5q0 48 35 82.5t84 34.5t84 -34.5t35 -82.5q0 -49 -34.5 -82.5t-84.5 -33.5zM555 1184q-49 0 -83 33.5t-34 80.5q0 46 34 80.5t83 34.5q47 0 82 -34.5t35 -80.5q0 -47 -34.5 -80.5t-82.5 -33.5z
M377 -12q-211 0 -211 239v770h166v-718q0 -78 15.5 -108t68.5 -30q34 0 96 17l18 -140q-84 -30 -153 -30z" />
    <glyph glyph-name="Alpha" unicode="&#x391;" horiz-adv-x="1396" 
d="M1153 0l-129 354h-649l-129 -354h-189l551 1454h178l555 -1454h-188zM432 510h535l-267 727h-4z" />
    <glyph glyph-name="Beta" unicode="&#x392;" horiz-adv-x="1308" 
d="M899 764q133 -28 217 -123t84 -248q0 -179 -123 -286t-362 -107h-531v1454h475q222 0 345.5 -87t123.5 -267q0 -111 -58.5 -201.5t-170.5 -130.5v-4zM362 1290v-461h295q55 0 104.5 13t92 39.5t67.5 73.5t25 110q0 225 -323 225h-261zM666 164q160 0 254 62.5t94 183.5
q0 123 -88 191.5t-252 68.5h-312v-506h304z" />
    <glyph glyph-name="Gamma" unicode="&#x393;" horiz-adv-x="1161" 
d="M184 0v1454h916v-164h-738v-1290h-178z" />
    <glyph glyph-name="uni0394" unicode="&#x394;" horiz-adv-x="1366" 
d="M772 1454l518 -1315v-139h-145h-1049h-20v139l514 1315h182zM279 164h804l-399 1067h-4z" />
    <glyph glyph-name="Epsilon" unicode="&#x395;" horiz-adv-x="1224" 
d="M184 0v1454h891v-164h-710v-485h583v-164h-583v-477h753v-164h-934z" />
    <glyph glyph-name="Zeta" unicode="&#x396;" horiz-adv-x="1265" 
d="M348 164h789v-164h-1016v141l776 1147v2h-735v164h968v-141z" />
    <glyph glyph-name="Eta" unicode="&#x397;" horiz-adv-x="1486" 
d="M184 0v1454h178v-682h762v682h179v-1454h-179v608h-762v-608h-178z" />
    <glyph glyph-name="Theta" unicode="&#x398;" horiz-adv-x="1720" 
d="M852 -12q-214 0 -381.5 97t-258.5 265t-91 377t91 377.5t258.5 266t381.5 97.5q153 0 286.5 -54t230 -149.5t152.5 -235t56 -302.5t-56 -301.5t-152.5 -234t-230.5 -149.5t-286 -54zM852 158q149 0 272 72t195 202.5t72 294.5q0 165 -72 296.5t-194.5 203t-272.5 71.5
q-159 0 -285 -77t-194 -207t-68 -287t68 -286.5t194 -206t285 -76.5zM510 637v164h700v-164h-700z" />
    <glyph glyph-name="Iota" unicode="&#x399;" horiz-adv-x="569" 
d="M195 0v1454h180v-1454h-180z" />
    <glyph glyph-name="Kappa" unicode="&#x39a;" horiz-adv-x="1331" 
d="M575 647h-6l-207 -246v-401h-178v1454h178v-799h5l661 799h227l-563 -661l580 -793h-223z" />
    <glyph glyph-name="Lambda" unicode="&#x39b;" horiz-adv-x="1380" 
d="M1126 0l-436 1202h-4l-432 -1202h-193l537 1454h182l541 -1454h-195z" />
    <glyph glyph-name="Mu" unicode="&#x39c;" horiz-adv-x="1800" 
d="M1438 1454h178v-1454h-178v1114h-4l-473 -821h-121l-473 821h-5v-1114h-178v1454h181l534 -940h4z" />
    <glyph glyph-name="Nu" unicode="&#x39d;" horiz-adv-x="1548" 
d="M1186 1454h178v-1454h-182l-815 1147h-5v-1147h-178v1454h176l822 -1159h4v1159z" />
    <glyph glyph-name="Xi" unicode="&#x39e;" horiz-adv-x="1290" 
d="M147 1286v168h998v-168h-998zM242 633v168h805v-168h-805zM133 0v170h1024v-170h-1024z" />
    <glyph glyph-name="Omicron" unicode="&#x39f;" horiz-adv-x="1697" 
d="M852 -12q-214 0 -381.5 97t-258.5 265t-91 377t91 377.5t258.5 266t381.5 97.5q153 0 286.5 -54t230 -149.5t152.5 -235t56 -302.5t-56 -301.5t-152.5 -234t-230.5 -149.5t-286 -54zM852 158q149 0 272 72t195 202.5t72 294.5q0 165 -72 296.5t-194.5 203t-272.5 71.5
q-159 0 -285 -77t-194 -207t-68 -287t68 -286.5t194 -206t285 -76.5z" />
    <glyph glyph-name="Pi" unicode="&#x3a0;" horiz-adv-x="1435" 
d="M184 0v1454h1067v-1454h-178v1290h-711v-1290h-178z" />
    <glyph glyph-name="Rho" unicode="&#x3a1;" horiz-adv-x="1265" 
d="M184 0v1454h510q124 0 218 -33.5t151 -95t85 -142t28 -179.5q0 -223 -138 -336t-374 -113h-302v-555h-178zM362 719h285q175 0 258.5 78.5t83.5 210.5q0 136 -82.5 209t-230.5 73h-314v-571z" />
    <glyph glyph-name="Sigma" unicode="&#x3a3;" horiz-adv-x="1189" 
d="M1098 1290h-754v-4l385 -555l-387 -565v-2h756v-164h-983v129l409 602l-409 590v133h983v-164z" />
    <glyph glyph-name="Tau" unicode="&#x3a4;" horiz-adv-x="1181" 
d="M500 0v1290h-437v164h1053v-164h-438v-1290h-178z" />
    <glyph glyph-name="Upsilon" unicode="&#x3a5;" horiz-adv-x="1236" 
d="M995 1454h207l-495 -805v-649h-179v649l-493 805h205l376 -627h5z" />
    <glyph glyph-name="Phi" unicode="&#x3a6;" horiz-adv-x="1667" 
d="M1567 731q0 -258 -172 -419t-469 -183v-129h-181v129q-299 22 -471 183t-172 419q0 268 172.5 438t470.5 193v113h181v-113q297 -25 469 -194.5t172 -436.5zM287 731q0 -186 122.5 -303t340.5 -137v909q-218 -22 -340.5 -146.5t-122.5 -322.5zM922 291q216 20 337 137
t121 303q0 197 -120.5 321.5t-337.5 147.5v-909z" />
    <glyph glyph-name="Chi" unicode="&#x3a7;" horiz-adv-x="1366" 
d="M1085 0l-399 586h-4l-399 -586h-211l497 727l-491 727h205l399 -588h4l397 588h207l-489 -729l495 -725h-211z" />
    <glyph glyph-name="Psi" unicode="&#x3a8;" horiz-adv-x="1619" 
d="M1300 1454h179l-2 -520q0 -584 -580 -590v-344h-178v344q-288 3 -433 152.5t-145 437.5l2 520h179l-3 -504q0 -219 93 -327.5t307 -112.5v944h178v-944q207 5 304 110.5t97 329.5z" />
    <glyph glyph-name="uni03A9" unicode="&#x3a9;" horiz-adv-x="1597" 
d="M1174 168v-4h282v-164h-545v164q175 101 278 262.5t103 345.5q0 234 -136 379t-357 145t-358.5 -145.5t-137.5 -378.5q0 -184 103 -345.5t278 -262.5v-164h-545v164h285v4q-142 110 -223.5 269.5t-81.5 336.5q0 202 85 359.5t240 245t355 87.5q303 0 490.5 -192.5
t187.5 -499.5q0 -177 -80.5 -336.5t-222.5 -269.5z" />
    <glyph glyph-name="Iotadieresis" unicode="&#x3aa;" horiz-adv-x="569" 
d="M51 1663q-51 0 -85 33.5t-34 83.5q0 48 34.5 82t84.5 34q49 0 84 -34.5t35 -81.5q0 -49 -34.5 -83t-84.5 -34zM516 1665q-49 0 -83 33.5t-34 81.5q0 46 34 80t83 34q47 0 82 -34t35 -80q0 -47 -35 -81t-82 -34zM195 0v1454h180v-1454h-180z" />
    <glyph glyph-name="Upsilondieresis" unicode="&#x3ab;" horiz-adv-x="1236" 
d="M375 1663q-51 0 -85 33.5t-34 83.5q0 48 34.5 82t84.5 34q49 0 84 -34.5t35 -81.5q0 -49 -34.5 -83t-84.5 -34zM840 1665q-49 0 -83 33.5t-34 81.5q0 46 34 80t83 34q47 0 81.5 -34t34.5 -80q0 -47 -34.5 -81t-81.5 -34zM995 1454h207l-495 -805v-649h-179v649l-493 805
h205l376 -627h5z" />
    <glyph glyph-name="alphatonos" unicode="&#x3ac;" horiz-adv-x="1234" 
d="M838 1479l-152 -336h-162l121 336h193zM1192 154l16 -138q-72 -28 -141 -28q-77 0 -119.5 47t-50.5 127h-4q-128 -174 -344 -174q-203 0 -331 140t-128 364q0 223 132 370.5t339 147.5q112 0 205 -49.5t152 -143.5h2l8 180h157l-47 -483v-221q0 -76 16.5 -114t65.5 -38
q35 0 72 13zM567 139q132 0 224.5 97.5t107.5 255.5q0 164 -85.5 264t-229.5 100q-138 0 -231 -101t-93 -263q0 -153 84.5 -253t222.5 -100z" />
    <glyph glyph-name="epsilontonos" unicode="&#x3ad;" horiz-adv-x="1003" 
d="M750 1479l-152 -336h-162l121 336h193zM862 225l76 -123q-103 -64 -210.5 -89t-238.5 -25q-178 0 -282.5 72t-104.5 208q0 86 45 152t134 100q-72 34 -111 90.5t-39 118.5q0 128 97 204t276 77q93 2 209 -23t215 -82l-68 -125q-169 78 -336 78q-109 -1 -167 -38.5
t-58 -102.5q0 -49 54 -90.5t157 -42.5h172v-148h-195q-107 0 -159 -47t-52 -102q0 -74 66 -111t188 -37q180 0 332 86z" />
    <glyph glyph-name="etatonos" unicode="&#x3ae;" horiz-adv-x="1181" 
d="M827 1479l-151 -336h-162l121 336h192zM686 1010q166 0 261 -105.5t95 -312.5v-998h-165v951q0 311 -244 311q-138 0 -222.5 -97t-84.5 -263v-496h-166v997h166v-170h4q63 88 156 135.5t200 47.5z" />
    <glyph glyph-name="iotatonos" unicode="&#x3af;" horiz-adv-x="550" 
d="M170 1141l121 336h192l-151 -336h-162zM377 -12q-211 0 -211 239v770h166v-718q0 -78 15.5 -108t68.5 -30q34 0 96 17l18 -140q-84 -30 -153 -30z" />
    <glyph glyph-name="upsilondieresistonos" unicode="&#x3b0;" horiz-adv-x="1144" 
d="M500 1143l71 336h154l-98 -336h-127zM326 1184q-50 0 -84.5 33.5t-34.5 82.5q0 48 35 82.5t84 34.5t83.5 -34.5t34.5 -82.5q0 -49 -34 -82.5t-84 -33.5zM872 1186q-49 0 -82.5 33t-33.5 81q0 47 33.5 81t82.5 34q47 0 82 -34.5t35 -80.5q0 -47 -34.5 -80.5t-82.5 -33.5z
M571 -12q-198 0 -317 125.5t-119 361.5v522h166v-499q0 -180 75.5 -269.5t194.5 -89.5q126 0 199.5 88t73.5 271v499h164v-522q0 -239 -115.5 -363t-321.5 -124z" />
    <glyph glyph-name="alpha" unicode="&#x3b1;" horiz-adv-x="1234" 
d="M1192 154l16 -138q-72 -28 -141 -28q-77 0 -119.5 47t-50.5 127h-4q-128 -174 -344 -174q-203 0 -331 140t-128 364q0 223 132 370.5t339 147.5q112 0 205 -49.5t152 -143.5h2l8 180h157l-47 -483v-221q0 -76 16.5 -114t65.5 -38q35 0 72 13zM567 139q132 0 224.5 97.5
t107.5 255.5q0 164 -85.5 264t-229.5 100q-138 0 -231 -101t-93 -263q0 -153 84.5 -253t222.5 -100z" />
    <glyph glyph-name="beta" unicode="&#x3b2;" horiz-adv-x="1204" 
d="M854 817q122 -52 191 -153.5t69 -225.5q0 -203 -126 -326.5t-333 -123.5t-327 145h-2v-539h-166v1420q0 251 123 379.5t329 128.5q194 0 310 -105t116 -268q0 -237 -184 -330v-2zM639 137q140 0 223.5 81.5t83.5 211.5q0 124 -89.5 208.5t-250.5 84.5h-86v143h78
q70 1 122 20t80.5 46.5t46 65.5t22.5 69.5t5 67.5q0 99 -68 166t-188 67q-131 0 -211.5 -85t-80.5 -259v-563q0 -134 87.5 -229t225.5 -95z" />
    <glyph glyph-name="gamma" unicode="&#x3b3;" horiz-adv-x="1073" 
d="M1022 997l-401 -1013q7 -31 11.5 -62.5t6.5 -80.5t2.5 -68t0 -92t-0.5 -87h-164v86.5t-1.5 96t-6 79t-15 94.5t-26.5 83l-377 964h180l306 -811h4l301 811h180z" />
    <glyph glyph-name="delta" unicode="&#x3b4;" horiz-adv-x="1177" 
d="M756 965q67 -31 123 -72.5t105.5 -100t77.5 -138.5t28 -173q0 -148 -66.5 -261.5t-178.5 -172.5t-249 -59q-146 0 -261.5 64.5t-179 178.5t-63.5 256q0 166 86.5 287t233.5 191q-170 106 -170 270q0 121 98 202.5t266 84.5q247 0 428 -105l-67 -133q-159 84 -342 84
q-97 0 -158 -36.5t-61 -98.5q0 -55 38 -95t140 -89q88 -45 172 -84zM596 139q137 0 231.5 93t94.5 249q0 140 -85 232.5t-241 158.5q-20 7 -43 19q-135 -55 -213 -161t-78 -243q0 -150 92.5 -249t241.5 -99z" />
    <glyph glyph-name="epsilon" unicode="&#x3b5;" horiz-adv-x="1003" 
d="M862 225l76 -123q-103 -64 -210.5 -89t-238.5 -25q-178 0 -282.5 72t-104.5 208q0 86 45 152t134 100q-72 34 -111 90.5t-39 118.5q0 128 97 204t276 77q93 2 209 -23t215 -82l-68 -125q-169 78 -336 78q-109 -1 -167 -38.5t-58 -102.5q0 -49 54 -90.5t157 -42.5h172
v-148h-195q-107 0 -159 -47t-52 -102q0 -74 66 -111t188 -37q180 0 332 86z" />
    <glyph glyph-name="zeta" unicode="&#x3b6;" horiz-adv-x="940" 
d="M944 1380q-144 -106 -264 -217t-215 -227t-148.5 -233.5t-54.5 -221.5q0 -36 5.5 -67t20.5 -56.5t30.5 -46t44 -39t51 -32t62.5 -29t68 -25.5t77 -26q170 -53 236.5 -112t66.5 -163q0 -83 -45.5 -166.5t-110.5 -152.5l-141 74q75 86 96 124q31 53 31 99q0 56 -46.5 89
t-193.5 77q-80 25 -134 47t-113 59t-94 81.5t-57.5 112t-21.5 152.5q1 106 46.5 220t128.5 226t189 219t238 214v6h-534v141h782v-127z" />
    <glyph glyph-name="eta" unicode="&#x3b7;" horiz-adv-x="1181" 
d="M686 1010q166 0 261 -105.5t95 -312.5v-998h-165v951q0 311 -244 311q-138 0 -222.5 -97t-84.5 -263v-496h-166v997h166v-170h4q63 88 156 135.5t200 47.5z" />
    <glyph glyph-name="theta" unicode="&#x3b8;" horiz-adv-x="1198" 
d="M598 1522q89 0 164.5 -28t139 -88t108 -149t69.5 -216.5t25 -284.5q0 -132 -17.5 -245t-56 -210.5t-96.5 -166t-143.5 -107.5t-192.5 -39q-112 0 -202.5 44.5t-159.5 135.5t-106.5 240.5t-37.5 347.5q0 130 17.5 242.5t56 210t96.5 166.5t143.5 108t192.5 39zM598 1368
q-154 0 -238 -141t-96 -387h672q-12 259 -101 393.5t-237 134.5zM598 139q161 0 246 147.5t94 409.5h-676q9 -274 97.5 -415.5t238.5 -141.5z" />
    <glyph glyph-name="iota" unicode="&#x3b9;" horiz-adv-x="550" 
d="M377 -12q-211 0 -211 239v770h166v-718q0 -78 15.5 -108t68.5 -30q34 0 96 17l18 -140q-84 -30 -153 -30z" />
    <glyph glyph-name="kappa" unicode="&#x3ba;" horiz-adv-x="1165" 
d="M547 463h-2l-221 -217v-246h-166v997h166v-538h4l551 538h211l-424 -415l454 -582h-207z" />
    <glyph glyph-name="lambda" unicode="&#x3bb;" horiz-adv-x="1112" 
d="M887 0q-25 69 -130 359.5t-161 443.5h-4l-350 -803h-181l453 1016q-53 147 -59 164q-36 98 -81.5 144t-111.5 46q-46 0 -104 -16l-23 139q94 29 166 29q113 0 184.5 -78t132.5 -242q349 -941 445 -1202h-176z" />
    <glyph glyph-name="uni03BC" unicode="&#x3bc;" horiz-adv-x="1175" 
d="M860 997h166v-997h-152l-10 164h-4q-57 -84 -139.5 -130t-177.5 -46q-157 0 -234 106l-2 -2q10 -120 10 -217v-281h-165v1403h165v-528q0 -167 67 -248.5t191 -81.5q123 0 204 99t81 264v495z" />
    <glyph glyph-name="nu" unicode="&#x3bd;" horiz-adv-x="1071" 
d="M842 997h180l-406 -997h-159l-408 997h178l308 -786h6z" />
    <glyph glyph-name="xi" unicode="&#x3be;" horiz-adv-x="985" 
d="M600 168q192 -72 265 -132t73 -159q0 -71 -47.5 -159t-108.5 -152l-141 74q127 141 127 221q0 54 -49 86.5t-199 85.5q-72 26 -128 51.5t-114 63.5t-96 81t-62 102.5t-24 129.5q0 111 73 208.5t200 149.5v6q-199 97 -199 318q0 91 35.5 165t94 119.5t130.5 70t148 24.5
q211 0 395 -105l-70 -133q-159 84 -307 84q-117 0 -186.5 -65.5t-69.5 -165.5q0 -131 99.5 -192.5t277.5 -61.5h137v-144h-219q-169 0 -269 -80.5t-100 -187.5t82.5 -174t251.5 -129z" />
    <glyph glyph-name="omicron" unicode="&#x3bf;" horiz-adv-x="1189" 
d="M596 -12q-223 0 -364.5 144.5t-141.5 365.5q0 223 141.5 367.5t364.5 144.5q220 0 362 -143t142 -369t-142 -368t-362 -142zM596 139q141 0 237.5 101.5t96.5 257.5q0 158 -95.5 258t-238.5 100q-148 0 -243 -101.5t-95 -256.5q0 -154 95.5 -256.5t242.5 -102.5z" />
    <glyph glyph-name="pi" unicode="&#x3c0;" horiz-adv-x="1243" 
d="M1198 997v-143h-188v-854h-166v854h-455v-854h-166v854h-170v143h1145z" />
    <glyph glyph-name="rho" unicode="&#x3c1;" horiz-adv-x="1222" 
d="M625 1010q220 0 364 -148t144 -370t-136.5 -363t-339.5 -141q-224 0 -350 157h-2v-551h-166v898q0 228 135.5 373t350.5 145zM625 139q150 0 245 101t95 252q0 161 -98 262.5t-242 101.5q-143 0 -234.5 -104t-91.5 -260q0 -155 94 -254t232 -99z" />
    <glyph glyph-name="uni03C2" unicode="&#x3c2;" horiz-adv-x="1028" 
d="M760 -436l-142 76q3 3 20 22t21 23.5t18 21.5t18.5 24t15 22t14 25t9 24t7.5 27.5t2 27.5q0 54 -41 86.5t-157 74.5q-86 32 -146.5 60.5t-123.5 72.5t-101.5 94.5t-63 124t-24.5 162.5q0 211 138.5 344.5t365.5 133.5q109 0 215 -47t178 -132l-113 -100q-48 58 -121 91.5
t-155 33.5q-154 0 -246 -91.5t-92 -234.5q0 -74 24.5 -131t78 -100.5t117 -75.5t161.5 -67q149 -54 212.5 -116.5t63.5 -164.5q0 -47 -12.5 -91t-40 -87t-46 -66.5t-54.5 -66.5z" />
    <glyph glyph-name="sigma" unicode="&#x3c3;" horiz-adv-x="1210" 
d="M1171 854h-274v-2q190 -155 190 -385q0 -207 -138 -343t-359 -136q-217 0 -356.5 136.5t-139.5 362.5q0 222 141 366t365 144h571v-143zM592 139q147 0 236.5 98.5t89.5 249.5q0 116 -56 210.5t-153 156.5h-109q-149 0 -243.5 -105.5t-94.5 -261.5q0 -157 95.5 -252.5
t234.5 -95.5z" />
    <glyph glyph-name="tau" unicode="&#x3c4;" horiz-adv-x="942" 
d="M575 -12q-130 0 -188.5 73t-58.5 226v567h-293v143h846v-143h-387v-526q0 -100 25 -143.5t104 -43.5q81 0 180 54l43 -146q-125 -61 -271 -61z" />
    <glyph glyph-name="upsilon" unicode="&#x3c5;" horiz-adv-x="1144" 
d="M571 -12q-198 0 -317 125.5t-119 361.5v522h166v-499q0 -180 75.5 -269.5t194.5 -89.5q126 0 199.5 88t73.5 271v499h164v-522q0 -239 -115.5 -363t-321.5 -124z" />
    <glyph glyph-name="phi" unicode="&#x3c6;" horiz-adv-x="1435" 
d="M1341 535q0 -149 -65.5 -270t-193 -194.5t-296.5 -76.5v-400h-165v400q-228 5 -374.5 142t-146.5 362q0 157 51.5 281t155.5 243l164 -49q-100 -104 -151.5 -223.5t-51.5 -237.5q0 -157 97 -257.5t256 -111.5v484q0 191 87.5 287t235.5 96q170 0 283.5 -135.5
t113.5 -339.5zM786 143q184 7 286 115.5t102 271.5q0 131 -61 229.5t-157 98.5q-170 0 -170 -256v-459z" />
    <glyph glyph-name="chi" unicode="&#x3c7;" horiz-adv-x="1060" 
d="M1028 -260l19 -133q-51 -25 -113 -25q-81 0 -133 49t-101 150l-172 371h-4l-301 -558h-182l408 721l-216 428q-29 61 -58 88t-71 27q-8 0 -24.5 -2.5t-22.5 -3.5l-18 133q58 25 117 25q80 0 132 -50t95 -149l154 -334l284 520h180l-385 -680l234 -469q30 -61 59 -88.5
t66 -27.5q29 0 53 8z" />
    <glyph glyph-name="psi" unicode="&#x3c8;" horiz-adv-x="1447" 
d="M1149 997h166v-526q0 -234 -137 -357.5t-373 -125.5v-394h-166v394q-232 2 -367 125.5t-135 357.5v526h166v-501q0 -90 26 -159t72.5 -110.5t106 -62t131.5 -21.5v1160h166v-1160q155 2 249.5 89t94.5 264v501z" />
    <glyph glyph-name="omega" unicode="&#x3c9;" horiz-adv-x="1552" 
d="M1249 1022q102 -110 153.5 -239t51.5 -304q0 -221 -107 -356t-268 -135q-223 0 -301 213h-4q-81 -213 -303 -213q-160 0 -266.5 135t-106.5 356q0 175 51.5 304t153.5 239l150 -39q-85 -100 -136 -229.5t-51 -259.5q0 -165 63 -260t163 -95q96 0 149 97t53 266v246h164
v-246q0 -169 53 -266t150 -97q100 0 161.5 94.5t61.5 260.5q0 130 -50 260t-134 229z" />
    <glyph glyph-name="iotadieresis" unicode="&#x3ca;" horiz-adv-x="550" 
d="M18 1182q-51 0 -84.5 33t-33.5 83q0 48 34 82.5t84 34.5q49 0 84 -34.5t35 -82.5q0 -49 -34.5 -82.5t-84.5 -33.5zM483 1184q-49 0 -82.5 33t-33.5 81q0 47 33.5 81t82.5 34q47 0 82 -34.5t35 -80.5q0 -47 -34.5 -80.5t-82.5 -33.5zM377 -12q-211 0 -211 239v770h166
v-718q0 -78 15.5 -108t68.5 -30q34 0 96 17l18 -140q-84 -30 -153 -30z" />
    <glyph glyph-name="upsilondieresis" unicode="&#x3cb;" horiz-adv-x="1144" 
d="M340 1184q-51 0 -85 33t-34 83q0 48 34.5 82.5t84.5 34.5q49 0 84 -34.5t35 -82.5q0 -49 -34.5 -82.5t-84.5 -33.5zM805 1186q-49 0 -83 33.5t-34 80.5q0 46 34 80.5t83 34.5q47 0 82 -34.5t35 -80.5q0 -47 -34.5 -80.5t-82.5 -33.5zM571 -12q-198 0 -317 125.5
t-119 361.5v522h166v-499q0 -180 75.5 -269.5t194.5 -89.5q126 0 199.5 88t73.5 271v499h164v-522q0 -239 -115.5 -363t-321.5 -124z" />
    <glyph glyph-name="omicrontonos" unicode="&#x3cc;" horiz-adv-x="1189" 
d="M514 1143l121 336h192l-151 -336h-162zM596 -12q-223 0 -364.5 144.5t-141.5 365.5q0 223 141.5 367.5t364.5 144.5q220 0 362 -143t142 -369t-142 -368t-362 -142zM596 139q141 0 237.5 101.5t96.5 257.5q0 158 -95.5 258t-238.5 100q-148 0 -243 -101.5t-95 -256.5
q0 -154 95.5 -256.5t242.5 -102.5z" />
    <glyph glyph-name="upsilontonos" unicode="&#x3cd;" horiz-adv-x="1144" 
d="M492 1143l120 336h193l-152 -336h-161zM571 -12q-198 0 -317 125.5t-119 361.5v522h166v-499q0 -180 75.5 -269.5t194.5 -89.5q126 0 199.5 88t73.5 271v499h164v-522q0 -239 -115.5 -363t-321.5 -124z" />
    <glyph glyph-name="omegatonos" unicode="&#x3ce;" horiz-adv-x="1552" 
d="M1010 1479l-152 -336h-162l121 336h193zM1249 1022q102 -110 153.5 -239t51.5 -304q0 -221 -107 -356t-268 -135q-223 0 -301 213h-4q-81 -213 -303 -213q-160 0 -266.5 135t-106.5 356q0 175 51.5 304t153.5 239l150 -39q-85 -100 -136 -229.5t-51 -259.5
q0 -165 63 -260t163 -95q96 0 149 97t53 266v246h164v-246q0 -169 53 -266t150 -97q100 0 161.5 94.5t61.5 260.5q0 130 -50 260t-134 229z" />
    <glyph glyph-name="uni03D7" unicode="&#x3d7;" horiz-adv-x="1198" 
d="M649 575q125 -385 492 -462v-95q-204 -248 -367.5 -354t-372.5 -106q-219 0 -385 100l33 152q72 -53 160 -81t172 -28q144 0 276 71.5t269 221.5v4q-289 125 -394 451h-2l-206 -220v-229h-166v997h166v-546h4l514 546h205z" />
    <glyph glyph-name="Wgrave" unicode="&#x1e80;" horiz-adv-x="2097" 
d="M1133 1620h-177l-254 291l191 -2zM1835 1454h190l-464 -1454h-172l-336 1192h-2l-342 -1192h-172l-465 1454h190l359 -1161h4l327 1161h195l328 -1165h2z" />
    <glyph glyph-name="wgrave" unicode="&#x1e81;" horiz-adv-x="1572" 
d="M870 1141h-176l-254 291l191 -2zM1346 997h167l-346 -997h-155l-226 727h-2l-227 -727h-151l-347 997h168l254 -745h4l228 745h143l231 -745h5z" />
    <glyph glyph-name="Wacute" unicode="&#x1e82;" horiz-adv-x="2097" 
d="M1405 1911l-254 -291h-174l240 289zM1835 1454h190l-464 -1454h-172l-336 1192h-2l-342 -1192h-172l-465 1454h190l359 -1161h4l327 1161h195l328 -1165h2z" />
    <glyph glyph-name="wacute" unicode="&#x1e83;" horiz-adv-x="1572" 
d="M1130 1432l-253 -291h-175l240 289zM1346 997h167l-346 -997h-155l-226 727h-2l-227 -727h-151l-347 997h168l254 -745h4l228 745h143l231 -745h5z" />
    <glyph glyph-name="Wdieresis" unicode="&#x1e84;" horiz-adv-x="2097" 
d="M864 1663q-51 0 -85 33.5t-34 83.5q0 48 34.5 82t84.5 34q49 0 84 -34.5t35 -81.5q0 -49 -34.5 -83t-84.5 -34zM1235 1665q-49 0 -83 33.5t-34 81.5q0 46 34 80t83 34t83 -34t34 -80q0 -48 -34 -81.5t-83 -33.5zM1835 1454h190l-464 -1454h-172l-336 1192h-2l-342 -1192
h-172l-465 1454h190l359 -1161h4l327 1161h195l328 -1165h2z" />
    <glyph glyph-name="wdieresis" unicode="&#x1e85;" horiz-adv-x="1572" 
d="M600 1182q-51 0 -85 33t-34 83q0 48 34.5 82.5t84.5 34.5q49 0 84 -34.5t35 -82.5q0 -49 -34.5 -82.5t-84.5 -33.5zM971 1184q-49 0 -83 33.5t-34 80.5q0 46 34 80.5t83 34.5t82.5 -34t33.5 -81q0 -48 -33.5 -81t-82.5 -33zM1346 997h167l-346 -997h-155l-226 727h-2
l-227 -727h-151l-347 997h168l254 -745h4l228 745h143l231 -745h5z" />
    <glyph glyph-name="uni1E9E" unicode="&#x1e9e;" horiz-adv-x="1521" 
d="M1008 831q179 -70 235 -100q138 -74 184 -180q29 -66 29 -154q0 -97 -40 -176.5t-107 -129t-151 -76.5t-175 -27q-118 0 -237 45t-216 135l84 162q75 -86 175 -131t196 -45q128 0 207.5 60t79.5 165q0 56 -21 97t-66.5 71t-94.5 51.5t-128 50.5l-18 6q-93 34 -211 90
l21 33l258 494v2q-219 31 -342 31q-182 0 -266.5 -71.5t-84.5 -236.5l-2 -997h-178l2 1008q0 460 508 460q105 0 274 -24t334 -62l-284 -534l4 -4z" />
    <glyph glyph-name="uni1EA0" unicode="&#x1ea0;" horiz-adv-x="1396" 
d="M1341 0h-188l-129 354h-649l-129 -354h-189l551 1454h178zM432 510h535l-267 727h-4zM698 -227q51 0 85 -33.5t34 -83.5q0 -48 -34.5 -82.5t-84.5 -34.5q-49 0 -83.5 34.5t-34.5 82.5q0 49 34 83t84 34z" />
    <glyph glyph-name="uni1EA1" unicode="&#x1ea1;" horiz-adv-x="1245" 
d="M932 997h166v-997h-160v158h-2q-61 -81 -151 -125.5t-197 -44.5q-211 0 -350.5 139.5t-139.5 364.5q0 222 138.5 370t349.5 148q103 0 192 -42t152 -120h2v149zM602 139q139 0 237.5 99t98.5 254t-95 259.5t-239 104.5t-241 -100.5t-97 -263.5q0 -153 93 -253t243 -100z
M604 -227q51 0 85 -33.5t34 -83.5q0 -48 -34.5 -82.5t-84.5 -34.5q-49 0 -84 34.5t-35 82.5q0 49 34.5 83t84.5 34z" />
    <glyph glyph-name="uni1EA2" unicode="&#x1ea2;" horiz-adv-x="1396" 
d="M707 1847q-86 0 -144 -65l-71 65q40 42 100.5 68.5t126.5 26.5q87 0 136.5 -42.5t49.5 -109.5q0 -59 -46.5 -100t-127.5 -64l-14 -55h-70q-31 31 -31 55q0 22 26.5 42.5t58.5 34.5t58.5 37t26.5 48q0 59 -79 59zM1153 0l-129 354h-649l-129 -354h-189l551 1454h178
l555 -1454h-188zM432 510h535l-267 727h-4z" />
    <glyph glyph-name="uni1EA3" unicode="&#x1ea3;" horiz-adv-x="1245" 
d="M627 1366q-85 0 -144 -66l-71 66q40 42 100.5 68t126.5 26q87 0 136.5 -42.5t49.5 -108.5q0 -59 -46.5 -100t-127.5 -64l-14 -55h-70q-30 30 -30 55q0 22 26.5 42.5t58.5 34.5t58.5 37t26.5 48q0 59 -80 59zM932 997h166v-997h-160v158h-2q-61 -81 -151 -125.5
t-197 -44.5q-211 0 -350.5 139.5t-139.5 364.5q0 222 138.5 370t349.5 148q103 0 192 -42t152 -120h2v149zM602 139q139 0 237.5 99t98.5 254t-95 259.5t-239 104.5t-241 -100.5t-97 -263.5q0 -153 93 -253t243 -100z" />
    <glyph glyph-name="uni1EA4" unicode="&#x1ea4;" horiz-adv-x="1396" 
d="M1401 1946l-293 -291h-135l241 289zM694 1757l-147 -182h-168l237 293h154l244 -293h-168l-148 182h-4zM608 1454h178l555 -1454h-188l-129 354h-649l-129 -354h-189zM432 510h535l-267 727h-4z" />
    <glyph glyph-name="uni1EA5" unicode="&#x1ea5;" horiz-adv-x="1245" 
d="M1268 1604l-295 -291h-133l241 291h187zM616 1319l-147 -182h-168l238 293h153l244 -293h-168l-147 182h-5zM932 848v149h166v-997h-160v158h-2q-61 -81 -151 -125.5t-197 -44.5q-211 0 -350.5 139.5t-139.5 364.5q0 222 138.5 370t349.5 148q103 0 192 -42t152 -120h2z
M602 139q139 0 237.5 99t98.5 254t-95 259.5t-239 104.5t-241 -100.5t-97 -263.5q0 -153 93 -253t243 -100z" />
    <glyph glyph-name="uni1EA6" unicode="&#x1ea6;" horiz-adv-x="1396" 
d="M1217 1657h-134l-254 289h187zM696 1757l-147 -182h-168l237 293h154l244 -293h-168l-148 182h-4zM1153 0l-129 354h-649l-129 -354h-189l551 1454h178l555 -1454h-188zM432 510h535l-267 727h-4z" />
    <glyph glyph-name="uni1EA7" unicode="&#x1ea7;" horiz-adv-x="1245" 
d="M1057 1313h-133l-254 291h186zM610 1319l-147 -182h-168l237 293h154l244 -293h-168l-148 182h-4zM932 997h166v-997h-160v158h-2q-61 -81 -151 -125.5t-197 -44.5q-211 0 -350.5 139.5t-139.5 364.5q0 222 138.5 370t349.5 148q103 0 192 -42t152 -120h2v149zM602 139
q139 0 237.5 99t98.5 254t-95 259.5t-239 104.5t-241 -100.5t-97 -263.5q0 -153 93 -253t243 -100z" />
    <glyph glyph-name="uni1EA8" unicode="&#x1ea8;" horiz-adv-x="1396" 
d="M1104 1866q-84 0 -143 -66l-70 68q38 41 99 67.5t126 26.5q83 0 131.5 -44t48.5 -110q0 -112 -168 -163l-12 -56h-72q-30 33 -30 56q0 22 25.5 42.5t56.5 34.5t56.5 36.5t25.5 47.5q0 29 -21.5 44.5t-52.5 15.5zM694 1757l-147 -182h-168l237 293h154l244 -293h-168
l-148 182h-4zM1153 0l-129 354h-649l-129 -354h-189l551 1454h178l555 -1454h-188zM432 510h535l-267 727h-4z" />
    <glyph glyph-name="uni1EA9" unicode="&#x1ea9;" horiz-adv-x="1245" 
d="M944 1536q-90 0 -143 -63l-72 65q40 42 100.5 68t126.5 26q83 0 131 -42.5t48 -108.5q0 -113 -168 -166l-13 -53h-69q-31 31 -31 55q0 22 25.5 42.5t55.5 34.5t55.5 37t25.5 48q0 29 -20.5 43t-51.5 14zM614 1319l-147 -182h-168l238 293h153l244 -293h-168l-148 182h-4z
M932 848v149h166v-997h-160v158h-2q-61 -81 -151 -125.5t-197 -44.5q-211 0 -350.5 139.5t-139.5 364.5q0 222 138.5 370t349.5 148q103 0 192 -42t152 -120h2zM602 139q139 0 237.5 99t98.5 254t-95 259.5t-239 104.5t-241 -100.5t-97 -263.5q0 -153 93 -253t243 -100z" />
    <glyph glyph-name="uni1EAA" unicode="&#x1eaa;" horiz-adv-x="1396" 
d="M571 1880q-58 0 -94 -82l-90 33q24 68 68 106.5t102 38.5q65 0 152 -53q64 -35 100 -35q72 0 102 82l90 -24q-25 -74 -71 -114t-105 -40t-143 47q-70 41 -111 41zM690 1669l-155 -164h-158l237 250h154l244 -250h-158l-156 164h-8zM1153 0l-129 354h-649l-129 -354h-189
l551 1454h178l555 -1454h-188zM432 510h535l-267 727h-4z" />
    <glyph glyph-name="uni1EAB" unicode="&#x1eab;" horiz-adv-x="1245" 
d="M485 1583q-31 0 -59 -30t-47 -83l-109 48q30 94 82 148t117 54q14 0 27 -1.5t22.5 -3t22.5 -7t18.5 -7t19.5 -9.5t16.5 -9.5t18.5 -11t17 -10.5q4 -3 24 -17t27.5 -18t23 -12.5t28.5 -11.5t26 -3q37 0 69 29t50 84l106 -35q-27 -102 -82 -158.5t-123 -56.5q-33 0 -69 13
t-56 25t-55 36q-5 3 -16.5 10.5t-16.5 10t-15 8t-16 8t-15 5.5t-18 4t-18 1zM537 1430h153l244 -293h-168l-148 182h-4l-147 -182h-168zM932 997h166v-997h-160v158h-2q-61 -81 -151 -125.5t-197 -44.5q-211 0 -350.5 139.5t-139.5 364.5q0 222 138.5 370t349.5 148
q103 0 192 -42t152 -120h2v149zM602 139q139 0 237.5 99t98.5 254t-95 259.5t-239 104.5t-241 -100.5t-97 -263.5q0 -153 93 -253t243 -100z" />
    <glyph glyph-name="uni1EAC" unicode="&#x1eac;" horiz-adv-x="1396" 
d="M694 1800l-147 -182h-168l237 293h154l244 -293h-168l-148 182h-4zM1341 0h-188l-129 354h-649l-129 -354h-189l551 1454h178zM432 510h535l-267 727h-4zM698 -227q51 0 85 -33.5t34 -83.5q0 -48 -34.5 -82.5t-84.5 -34.5q-49 0 -83.5 34.5t-34.5 82.5q0 49 34 83t84 34z
" />
    <glyph glyph-name="uni1EAD" unicode="&#x1ead;" horiz-adv-x="1245" 
d="M614 1319l-147 -182h-168l238 293h153l244 -293h-168l-148 182h-4zM932 997h166v-997h-160v158h-2q-61 -81 -151 -125.5t-197 -44.5q-211 0 -350.5 139.5t-139.5 364.5q0 222 138.5 370t349.5 148q103 0 192 -42t152 -120h2v149zM602 139q139 0 237.5 99t98.5 254
t-95 259.5t-239 104.5t-241 -100.5t-97 -263.5q0 -153 93 -253t243 -100zM604 -227q51 0 85 -33.5t34 -83.5q0 -48 -34.5 -82.5t-84.5 -34.5q-49 0 -84 34.5t-35 82.5q0 49 34.5 83t84.5 34z" />
    <glyph glyph-name="uni1EAE" unicode="&#x1eae;" horiz-adv-x="1396" 
d="M1051 1939l-289 -213l-148 3l250 210h187zM698 1530q-113 0 -192.5 59t-112.5 164h119q47 -121 186 -121q137 0 187 121h119q-32 -105 -113 -164t-193 -59zM1153 0l-129 354h-649l-129 -354h-189l551 1454h178l555 -1454h-188zM432 510h535l-267 727h-4z" />
    <glyph glyph-name="uni1EAF" unicode="&#x1eaf;" horiz-adv-x="1245" 
d="M911 1735l-254 -291h-174l240 289zM616 1133q-119 0 -203 75.5t-94 210.5h136q5 -73 47.5 -118.5t113.5 -45.5q70 0 113.5 45t48.5 119h133q-9 -130 -90 -208t-205 -78zM932 997h166v-997h-160v158h-2q-61 -81 -151 -125.5t-197 -44.5q-211 0 -350.5 139.5t-139.5 364.5
q0 222 138.5 370t349.5 148q103 0 192 -42t152 -120h2v149zM602 139q139 0 237.5 99t98.5 254t-95 259.5t-239 104.5t-241 -100.5t-97 -263.5q0 -153 93 -253t243 -100z" />
    <glyph glyph-name="uni1EB0" unicode="&#x1eb0;" horiz-adv-x="1396" 
d="M784 1729l-147 -3l-287 213h185zM512 1753q50 -121 186 -121q140 0 187 121h119q-32 -105 -112.5 -164t-193.5 -59q-112 0 -192.5 59t-112.5 164h119zM1153 0l-129 354h-649l-129 -354h-189l551 1454h178l555 -1454h-188zM432 510h535l-267 727h-4z" />
    <glyph glyph-name="uni1EB1" unicode="&#x1eb1;" horiz-adv-x="1245" 
d="M702 1444h-176l-254 291l191 -2zM459 1419q5 -73 47.5 -118.5t114.5 -45.5q70 0 113 45t48 119h133q-9 -130 -89.5 -208t-204.5 -78q-119 0 -203 75.5t-94 210.5h135zM932 997h166v-997h-160v158h-2q-61 -81 -151 -125.5t-197 -44.5q-211 0 -350.5 139.5t-139.5 364.5
q0 222 138.5 370t349.5 148q103 0 192 -42t152 -120h2v149zM602 139q139 0 237.5 99t98.5 254t-95 259.5t-239 104.5t-241 -100.5t-97 -263.5q0 -153 93 -253t243 -100z" />
    <glyph glyph-name="uni1EB2" unicode="&#x1eb2;" horiz-adv-x="1396" 
d="M702 1892q-81 0 -133 -59l-63 57q35 38 90.5 62t116.5 24q69 0 112 -36t43 -93q0 -48 -40 -83.5t-105 -57.5l-12 -39h-43q-35 9 -35 39q0 20 21 38t45.5 30t45.5 31t21 40q0 47 -64 47zM698 1530q-113 0 -192.5 59t-112.5 164h119q47 -121 186 -121q137 0 187 121h119
q-32 -105 -113 -164t-193 -59zM1153 0l-129 354h-649l-129 -354h-189l551 1454h178l555 -1454h-188zM432 510h535l-267 727h-4z" />
    <glyph glyph-name="uni1EB3" unicode="&#x1eb3;" horiz-adv-x="1245" 
d="M629 1677q-86 0 -144 -65l-71 65q40 42 100.5 68.5t126.5 26.5q87 0 136.5 -42.5t49.5 -109.5q0 -59 -46.5 -100t-127.5 -64l-14 -55h-70q-30 30 -30 55q0 22 26.5 42.5t58.5 34.5t58.5 37t26.5 48q0 59 -80 59zM621 1133q-119 0 -203 75.5t-94 210.5h135
q5 -73 47.5 -118.5t114.5 -45.5q70 0 113 45t48 119h133q-9 -130 -89.5 -208t-204.5 -78zM932 997h166v-997h-160v158h-2q-61 -81 -151 -125.5t-197 -44.5q-211 0 -350.5 139.5t-139.5 364.5q0 222 138.5 370t349.5 148q103 0 192 -42t152 -120h2v149zM602 139
q139 0 237.5 99t98.5 254t-95 259.5t-239 104.5t-241 -100.5t-97 -263.5q0 -153 93 -253t243 -100z" />
    <glyph glyph-name="uni1EB4" unicode="&#x1eb4;" horiz-adv-x="1396" 
d="M571 1880q-58 0 -94 -82l-90 33q24 68 68 106.5t102 38.5q65 0 152 -53q64 -35 100 -35q72 0 102 82l90 -24q-25 -74 -71 -114t-105 -40t-143 47q-70 41 -111 41zM698 1632q137 0 187 121h119q-32 -105 -112.5 -164t-193.5 -59t-192.5 59t-112.5 164h119
q47 -121 186 -121zM1153 0l-129 354h-649l-129 -354h-189l551 1454h178l555 -1454h-188zM432 510h535l-267 727h-4z" />
    <glyph glyph-name="uni1EB5" unicode="&#x1eb5;" horiz-adv-x="1245" 
d="M483 1583q-31 0 -59 -30t-47 -83l-109 48q30 94 82 148t117 54q14 0 27 -1.5t22.5 -3t22.5 -7t18.5 -7t19.5 -9.5t16.5 -9.5t18.5 -11t17 -10.5q4 -3 24 -17t27.5 -18t23 -12.5t28.5 -11.5t26 -3q37 0 69 29t50 84l106 -35q-27 -102 -82 -158.5t-123 -56.5q-33 0 -69 13
t-56 25t-55 36q-5 3 -16.5 10.5t-16.5 10t-15 8t-16 8t-15 5.5t-18 4t-18 1zM616 1255q70 0 113.5 45t48.5 119h133q-9 -130 -90 -208t-205 -78q-119 0 -203 75.5t-94 210.5h136q5 -73 47.5 -118.5t113.5 -45.5zM932 997h166v-997h-160v158h-2q-61 -81 -151 -125.5
t-197 -44.5q-211 0 -350.5 139.5t-139.5 364.5q0 222 138.5 370t349.5 148q103 0 192 -42t152 -120h2v149zM602 139q139 0 237.5 99t98.5 254t-95 259.5t-239 104.5t-241 -100.5t-97 -263.5q0 -153 93 -253t243 -100z" />
    <glyph glyph-name="uni1EB6" unicode="&#x1eb6;" horiz-adv-x="1396" 
d="M698 1616q-119 0 -203 76t-94 211h136q5 -73 47.5 -118.5t113.5 -45.5q70 0 113.5 45t48.5 119h133q-9 -130 -90 -208.5t-205 -78.5zM1341 0h-188l-129 354h-649l-129 -354h-189l551 1454h178zM432 510h535l-267 727h-4zM698 -227q51 0 85 -33.5t34 -83.5
q0 -48 -34.5 -82.5t-84.5 -34.5q-49 0 -83.5 34.5t-34.5 82.5q0 49 34 83t84 34z" />
    <glyph glyph-name="uni1EB7" unicode="&#x1eb7;" horiz-adv-x="1245" 
d="M618 1135q-119 0 -202.5 75.5t-93.5 210.5h135q5 -73 47.5 -118.5t113.5 -45.5q70 0 113.5 45t48.5 119h133q-9 -130 -90 -208t-205 -78zM932 997h166v-997h-160v158h-2q-61 -81 -151 -125.5t-197 -44.5q-211 0 -350.5 139.5t-139.5 364.5q0 222 138.5 370t349.5 148
q103 0 192 -42t152 -120h2v149zM602 139q139 0 237.5 99t98.5 254t-95 259.5t-239 104.5t-241 -100.5t-97 -263.5q0 -153 93 -253t243 -100zM604 -227q51 0 85 -33.5t34 -83.5q0 -48 -34.5 -82.5t-84.5 -34.5q-49 0 -84 34.5t-35 82.5q0 49 34.5 83t84.5 34z" />
    <glyph glyph-name="uni1EB8" unicode="&#x1eb8;" horiz-adv-x="1224" 
d="M184 0v1454h891v-164h-710v-485h583v-164h-583v-477h753v-164h-934zM657 -227q51 0 85 -33.5t34 -83.5q0 -48 -34.5 -82.5t-84.5 -34.5q-49 0 -83.5 34.5t-34.5 82.5q0 49 34 83t84 34z" />
    <glyph glyph-name="uni1EB9" unicode="&#x1eb9;" horiz-adv-x="1130" 
d="M1036 514q0 -16 -2 -42l-2 -26h-768q17 -140 108 -223.5t226 -83.5q175 0 281 135l116 -100q-144 -186 -403 -186q-214 0 -355 142.5t-141 367.5q0 224 136.5 368t340.5 144q207 0 335 -139.5t128 -356.5zM582 856q-118 0 -203.5 -73t-108.5 -199h602
q-21 125 -96.5 198.5t-193.5 73.5zM604 -227q51 0 85 -33.5t34 -83.5q0 -48 -34.5 -82.5t-84.5 -34.5q-49 0 -84 34.5t-35 82.5q0 49 34.5 83t84.5 34z" />
    <glyph glyph-name="uni1EBA" unicode="&#x1eba;" horiz-adv-x="1224" 
d="M588 1571q-31 31 -31 55q0 22 26.5 42.5t58.5 34.5t58.5 37t26.5 48q0 59 -80 59q-85 0 -143 -65l-72 65q40 42 100.5 68.5t126.5 26.5q87 0 137 -43t50 -109q0 -59 -46.5 -100t-127.5 -64l-15 -55h-69zM184 0v1454h891v-164h-710v-485h583v-164h-583v-477h753v-164h-934
z" />
    <glyph glyph-name="uni1EBB" unicode="&#x1ebb;" horiz-adv-x="1130" 
d="M596 1366q-84 0 -143 -66l-72 66q40 42 100.5 68t126.5 26q87 0 137 -42.5t50 -108.5q0 -59 -46.5 -100t-127.5 -64l-15 -55h-69q-31 31 -31 55q0 22 26.5 42.5t58.5 34.5t58.5 37t26.5 48q0 59 -80 59zM1036 514q0 -16 -2 -42l-2 -26h-768q17 -140 108 -223.5t226 -83.5
q175 0 281 135l116 -100q-144 -186 -403 -186q-214 0 -355 142.5t-141 367.5q0 224 136.5 368t340.5 144q207 0 335 -139.5t128 -356.5zM582 856q-118 0 -203.5 -73t-108.5 -199h602q-21 125 -96.5 198.5t-193.5 73.5z" />
    <glyph glyph-name="uni1EBC" unicode="&#x1ebc;" horiz-adv-x="1224" 
d="M801 1632q-33 0 -69 13t-56 25t-55 36q-77 47 -119 47q-79 0 -123 -113l-107 48q29 95 82 148.5t129 53.5q34 0 67.5 -10t50.5 -19.5t50 -29.5q4 -3 24 -17t27.5 -18t23 -12.5t28.5 -11.5t26 -3q37 0 69 29t50 84l107 -35q-27 -102 -82 -158.5t-123 -56.5zM184 0v1454
h891v-164h-710v-485h583v-164h-583v-477h753v-164h-934z" />
    <glyph glyph-name="uni1EBD" unicode="&#x1ebd;" horiz-adv-x="1130" 
d="M451 1272q-79 0 -123 -113l-107 47q29 96 82 149.5t129 53.5q34 0 67.5 -10t50.5 -19.5t50 -29.5q4 -3 24 -17t27.5 -18t23 -12.5t28.5 -11.5t26 -3q37 0 69 29t50 84l106 -35q-28 -102 -82 -158.5t-122 -56.5q-33 0 -69 12.5t-57 25.5t-55 36q-77 47 -118 47zM1036 514
q0 -16 -2 -42l-2 -26h-768q17 -140 108 -223.5t226 -83.5q175 0 281 135l116 -100q-144 -186 -403 -186q-214 0 -355 142.5t-141 367.5q0 224 136.5 368t340.5 144q207 0 335 -139.5t128 -356.5zM582 856q-118 0 -203.5 -73t-108.5 -199h602q-21 125 -96.5 198.5
t-193.5 73.5z" />
    <glyph glyph-name="uni1EBE" unicode="&#x1ebe;" horiz-adv-x="1224" 
d="M1341 1946l-292 -291h-136l242 289zM635 1757l-148 -182h-168l238 293h154l243 -293h-168l-147 182h-4zM365 641v-477h753v-164h-934v1454h891v-164h-710v-485h583v-164h-583z" />
    <glyph glyph-name="uni1EBF" unicode="&#x1ebf;" horiz-adv-x="1130" 
d="M1237 1604l-295 -291h-133l242 291h186zM586 1319l-148 -182h-168l238 293h154l243 -293h-168l-147 182h-4zM573 1010q207 0 335 -139.5t128 -356.5q0 -16 -2 -42l-2 -26h-768q17 -140 108 -223.5t226 -83.5q175 0 281 135l116 -100q-144 -186 -403 -186
q-214 0 -355 142.5t-141 367.5q0 224 136.5 368t340.5 144zM582 856q-118 0 -203.5 -73t-108.5 -199h602q-21 125 -96.5 198.5t-193.5 73.5z" />
    <glyph glyph-name="uni1EC0" unicode="&#x1ec0;" horiz-adv-x="1224" 
d="M1157 1657h-133l-254 289h186zM637 1757l-148 -182h-167l237 293h154l243 -293h-168l-147 182h-4zM365 641v-477h753v-164h-934v1454h891v-164h-710v-485h583v-164h-583z" />
    <glyph glyph-name="uni1EC1" unicode="&#x1ec1;" horiz-adv-x="1130" 
d="M1026 1313h-133l-254 291h186zM580 1319l-148 -182h-168l238 293h153l244 -293h-168l-147 182h-4zM1036 514q0 -16 -2 -42l-2 -26h-768q17 -140 108 -223.5t226 -83.5q175 0 281 135l116 -100q-144 -186 -403 -186q-214 0 -355 142.5t-141 367.5q0 224 136.5 368
t340.5 144q207 0 335 -139.5t128 -356.5zM582 856q-118 0 -203.5 -73t-108.5 -199h602q-21 125 -96.5 198.5t-193.5 73.5z" />
    <glyph glyph-name="uni1EC2" unicode="&#x1ec2;" horiz-adv-x="1224" 
d="M1057 1962q83 0 131.5 -44t48.5 -110q0 -112 -168 -163l-12 -56h-72q-31 34 -31 56t25.5 42.5t56.5 34.5t56.5 36.5t25.5 47.5q0 29 -21.5 44.5t-52.5 15.5q-84 0 -143 -66l-70 68q38 41 99.5 67.5t126.5 26.5zM635 1757l-148 -182h-168l238 293h154l243 -293h-168
l-147 182h-4zM365 641v-477h753v-164h-934v1454h891v-164h-710v-485h583v-164h-583z" />
    <glyph glyph-name="uni1EC3" unicode="&#x1ec3;" horiz-adv-x="1130" 
d="M926 1632q83 0 130.5 -42.5t47.5 -108.5q0 -113 -168 -166l-12 -53h-70q-31 31 -31 55q0 22 25.5 42.5t55.5 34.5t55.5 37t25.5 48q0 29 -20.5 43t-51.5 14q-90 0 -143 -63l-72 65q40 42 101 68t127 26zM584 1319l-148 -182h-168l238 293h153l244 -293h-168l-147 182h-4z
M573 1010q207 0 335 -139.5t128 -356.5q0 -16 -2 -42l-2 -26h-768q17 -140 108 -223.5t226 -83.5q175 0 281 135l116 -100q-144 -186 -403 -186q-214 0 -355 142.5t-141 367.5q0 224 136.5 368t340.5 144zM582 856q-118 0 -203.5 -73t-108.5 -199h602q-21 125 -96.5 198.5
t-193.5 73.5z" />
    <glyph glyph-name="uni1EC4" unicode="&#x1ec4;" horiz-adv-x="1224" 
d="M512 1880q-58 0 -94 -82l-90 33q24 68 68 106.5t102 38.5q64 0 151 -53q64 -35 101 -35q72 0 102 82l90 -24q-25 -74 -71 -114t-105 -40t-143 47q-70 41 -111 41zM631 1669l-156 -164h-158l238 250h154l243 -250h-157l-156 164h-8zM365 164h753v-164h-934v1454h891v-164
h-710v-485h583v-164h-583v-477z" />
    <glyph glyph-name="uni1EC5" unicode="&#x1ec5;" horiz-adv-x="1130" 
d="M455 1583q-31 0 -59.5 -30.5t-47.5 -82.5l-108 48q30 94 81.5 148t116.5 54q14 0 27 -1.5t22.5 -3t22.5 -7t18.5 -7t19.5 -9.5t16.5 -9.5t18.5 -11t17 -10.5q4 -3 24 -17t27.5 -18t23 -12.5t28.5 -11.5t26 -3q37 0 69 29t50 84l106 -35q-28 -102 -82 -158.5t-122 -56.5
q-33 0 -69 12.5t-57 25.5t-55 36q-5 3 -19 12t-19 12t-17 9t-19 8t-18 4t-22 2zM506 1430h153l244 -293h-168l-147 182h-4l-148 -182h-168zM1036 514q0 -16 -2 -42l-2 -26h-768q17 -140 108 -223.5t226 -83.5q175 0 281 135l116 -100q-144 -186 -403 -186q-214 0 -355 142.5
t-141 367.5q0 224 136.5 368t340.5 144q207 0 335 -139.5t128 -356.5zM582 856q-118 0 -203.5 -73t-108.5 -199h602q-21 125 -96.5 198.5t-193.5 73.5z" />
    <glyph glyph-name="uni1EC6" unicode="&#x1ec6;" horiz-adv-x="1224" 
d="M635 1800l-148 -182h-168l238 293h154l243 -293h-168l-147 182h-4zM365 164h753v-164h-934v1454h891v-164h-710v-485h583v-164h-583v-477zM657 -227q51 0 85 -33.5t34 -83.5q0 -48 -34.5 -82.5t-84.5 -34.5q-49 0 -83.5 34.5t-34.5 82.5q0 49 34 83t84 34z" />
    <glyph glyph-name="uni1EC7" unicode="&#x1ec7;" horiz-adv-x="1130" 
d="M584 1319l-148 -182h-168l238 293h153l244 -293h-168l-147 182h-4zM1036 514q0 -16 -2 -42l-2 -26h-768q17 -140 108 -223.5t226 -83.5q175 0 281 135l116 -100q-144 -186 -403 -186q-214 0 -355 142.5t-141 367.5q0 224 136.5 368t340.5 144q207 0 335 -139.5
t128 -356.5zM582 856q-118 0 -203.5 -73t-108.5 -199h602q-21 125 -96.5 198.5t-193.5 73.5zM604 -227q51 0 85 -33.5t34 -83.5q0 -48 -34.5 -82.5t-84.5 -34.5q-49 0 -84 34.5t-35 82.5q0 49 34.5 83t84.5 34z" />
    <glyph glyph-name="uni1EC8" unicode="&#x1ec8;" horiz-adv-x="569" 
d="M231 1571q-30 30 -30 55q0 22 26.5 42.5t58.5 34.5t58.5 37t26.5 48q0 59 -80 59q-86 0 -144 -65l-71 65q40 42 100.5 68.5t126.5 26.5q87 0 136.5 -42.5t49.5 -109.5q0 -59 -46.5 -100t-127.5 -64l-14 -55h-70zM195 0v1454h180v-1454h-180z" />
    <glyph glyph-name="uni1EC9" unicode="&#x1ec9;" horiz-adv-x="512" 
d="M205 1090q-31 31 -31 55q0 22 26.5 42.5t58.5 34.5t58.5 37t26.5 48q0 59 -80 59q-84 0 -143 -66l-72 66q40 42 100.5 68t126.5 26q87 0 137 -42.5t50 -108.5q0 -59 -46.5 -100t-127.5 -64l-15 -55h-69zM172 0v997h166v-997h-166z" />
    <glyph glyph-name="uni1ECA" unicode="&#x1eca;" horiz-adv-x="569" 
d="M195 0v1454h180v-1454h-180zM281 -227q51 0 84.5 -33.5t33.5 -83.5q0 -48 -34 -82.5t-84 -34.5q-49 0 -84 34.5t-35 82.5q0 49 34.5 83t84.5 34z" />
    <glyph glyph-name="uni1ECB" unicode="&#x1ecb;" horiz-adv-x="512" 
d="M256 1182q-51 0 -85 33t-34 83q0 48 34.5 82.5t84.5 34.5q49 0 84 -34.5t35 -82.5q0 -49 -34.5 -82.5t-84.5 -33.5zM172 0v997h166v-997h-166zM256 -227q51 0 85 -33.5t34 -83.5q0 -48 -34.5 -82.5t-84.5 -34.5q-49 0 -84 34.5t-35 82.5q0 49 34.5 83t84.5 34z" />
    <glyph glyph-name="uni1ECC" unicode="&#x1ecc;" horiz-adv-x="1697" 
d="M852 -12q-214 0 -381.5 97t-258.5 265t-91 377t91 377.5t258.5 266t381.5 97.5q153 0 286.5 -54t230 -149.5t152.5 -235t56 -302.5t-56 -301.5t-152.5 -234t-230.5 -149.5t-286 -54zM852 158q149 0 272 72t195 202.5t72 294.5q0 165 -72 296.5t-194.5 203t-272.5 71.5
q-159 0 -285 -77t-194 -207t-68 -287t68 -286.5t194 -206t285 -76.5zM852 -227q51 0 85 -33.5t34 -83.5q0 -48 -34.5 -82.5t-84.5 -34.5q-49 0 -84 34.5t-35 82.5q0 49 34.5 83t84.5 34z" />
    <glyph glyph-name="uni1ECD" unicode="&#x1ecd;" horiz-adv-x="1222" 
d="M612 -12q-152 0 -270.5 67.5t-182 183.5t-63.5 259q0 219 143.5 365.5t372.5 146.5q222 0 367 -143.5t145 -368.5t-145 -367.5t-367 -142.5zM612 139q146 0 245 101t99 258q0 158 -98.5 258t-245.5 100q-154 0 -251 -103t-97 -255t97.5 -255.5t250.5 -103.5zM612 -227
q51 0 85 -33.5t34 -83.5q0 -48 -34.5 -82.5t-84.5 -34.5q-49 0 -83.5 34.5t-34.5 82.5q0 49 34 83t84 34z" />
    <glyph glyph-name="uni1ECE" unicode="&#x1ece;" horiz-adv-x="1697" 
d="M801 1571q-31 31 -31 55q0 22 26.5 42.5t58.5 34.5t58.5 37t26.5 48q0 59 -80 59q-85 0 -143 -65l-72 65q40 42 100.5 68.5t126.5 26.5q87 0 137 -43t50 -109q0 -59 -46.5 -100t-127.5 -64l-15 -55h-69zM852 -12q-214 0 -381.5 97t-258.5 265t-91 377t91 377.5t258.5 266
t381.5 97.5q153 0 286.5 -54t230 -149.5t152.5 -235t56 -302.5t-56 -301.5t-152.5 -234t-230.5 -149.5t-286 -54zM852 158q149 0 272 72t195 202.5t72 294.5q0 165 -72 296.5t-194.5 203t-272.5 71.5q-159 0 -285 -77t-194 -207t-68 -287t68 -286.5t194 -206t285 -76.5z" />
    <glyph glyph-name="uni1ECF" unicode="&#x1ecf;" horiz-adv-x="1222" 
d="M561 1090q-31 31 -31 55q0 22 26.5 42.5t58.5 34.5t58.5 37t26.5 48q0 59 -79 59q-85 0 -144 -66l-71 66q40 42 100.5 68t126.5 26q87 0 136.5 -42.5t49.5 -108.5q0 -59 -46.5 -100t-127.5 -64l-14 -55h-70zM612 -12q-152 0 -270.5 67.5t-182 183.5t-63.5 259
q0 219 143.5 365.5t372.5 146.5q222 0 367 -143.5t145 -368.5t-145 -367.5t-367 -142.5zM612 139q146 0 245 101t99 258q0 158 -98.5 258t-245.5 100q-154 0 -251 -103t-97 -255t97.5 -255.5t250.5 -103.5z" />
    <glyph glyph-name="uni1ED0" unicode="&#x1ed0;" horiz-adv-x="1697" 
d="M1554 1946l-292 -291h-136l242 289zM848 1757l-148 -182h-168l238 293h154l243 -293h-168l-147 182h-4zM852 1468q153 0 286.5 -54t230 -149.5t152.5 -235t56 -302.5t-56 -301.5t-152.5 -234t-230.5 -149.5t-286 -54q-214 0 -381.5 97t-258.5 265t-91 377t91 377.5
t258.5 266t381.5 97.5zM852 158q149 0 272 72t195 202.5t72 294.5q0 165 -72 296.5t-194.5 203t-272.5 71.5q-159 0 -285 -77t-194 -207t-68 -287t68 -286.5t194 -206t285 -76.5z" />
    <glyph glyph-name="uni1ED1" unicode="&#x1ed1;" horiz-adv-x="1222" 
d="M1262 1604l-295 -291h-133l241 291h187zM610 1319l-147 -182h-168l237 293h154l244 -293h-168l-148 182h-4zM612 1010q222 0 367 -143.5t145 -368.5t-145 -367.5t-367 -142.5q-152 0 -270.5 67.5t-182 183.5t-63.5 259q0 219 143.5 365.5t372.5 146.5zM612 139
q146 0 245 101t99 258q0 158 -98.5 258t-245.5 100q-154 0 -251 -103t-97 -255t97.5 -255.5t250.5 -103.5z" />
    <glyph glyph-name="uni1ED2" unicode="&#x1ed2;" horiz-adv-x="1697" 
d="M1370 1657h-133l-254 289h186zM850 1757l-148 -182h-167l237 293h154l243 -293h-168l-147 182h-4zM852 1468q153 0 286.5 -54t230 -149.5t152.5 -235t56 -302.5t-56 -301.5t-152.5 -234t-230.5 -149.5t-286 -54q-214 0 -381.5 97t-258.5 265t-91 377t91 377.5t258.5 266
t381.5 97.5zM852 158q149 0 272 72t195 202.5t72 294.5q0 165 -72 296.5t-194.5 203t-272.5 71.5q-159 0 -285 -77t-194 -207t-68 -287t68 -286.5t194 -206t285 -76.5z" />
    <glyph glyph-name="uni1ED3" unicode="&#x1ed3;" horiz-adv-x="1222" 
d="M1051 1313h-133l-254 291h186zM604 1319l-147 -182h-168l237 293h154l244 -293h-168l-148 182h-4zM612 1010q222 0 367 -143.5t145 -368.5t-145 -367.5t-367 -142.5q-152 0 -270.5 67.5t-182 183.5t-63.5 259q0 219 143.5 365.5t372.5 146.5zM612 139q146 0 245 101
t99 258q0 158 -98.5 258t-245.5 100q-154 0 -251 -103t-97 -255t97.5 -255.5t250.5 -103.5z" />
    <glyph glyph-name="uni1ED4" unicode="&#x1ed4;" horiz-adv-x="1697" 
d="M1257 1866q-84 0 -143 -66l-70 68q38 41 99.5 67.5t126.5 26.5q83 0 131.5 -44t48.5 -110q0 -112 -168 -163l-12 -56h-72q-31 34 -31 56t25.5 42.5t56.5 34.5t56.5 36.5t25.5 47.5q0 29 -21.5 44.5t-52.5 15.5zM848 1757l-148 -182h-168l238 293h154l243 -293h-168
l-147 182h-4zM852 1468q153 0 286.5 -54t230 -149.5t152.5 -235t56 -302.5t-56 -301.5t-152.5 -234t-230.5 -149.5t-286 -54q-214 0 -381.5 97t-258.5 265t-91 377t91 377.5t258.5 266t381.5 97.5zM852 158q149 0 272 72t195 202.5t72 294.5q0 165 -72 296.5t-194.5 203
t-272.5 71.5q-159 0 -285 -77t-194 -207t-68 -287t68 -286.5t194 -206t285 -76.5z" />
    <glyph glyph-name="uni1ED5" unicode="&#x1ed5;" horiz-adv-x="1222" 
d="M938 1536q-90 0 -143 -63l-72 65q40 42 100.5 68t126.5 26q83 0 130.5 -42.5t47.5 -108.5q0 -113 -167 -166l-13 -53h-69q-31 31 -31 55q0 22 25.5 42.5t55.5 34.5t55.5 37t25.5 48q0 29 -20.5 43t-51.5 14zM608 1319l-147 -182h-168l237 293h154l244 -293h-168l-148 182
h-4zM612 1010q222 0 367 -143.5t145 -368.5t-145 -367.5t-367 -142.5q-152 0 -270.5 67.5t-182 183.5t-63.5 259q0 219 143.5 365.5t372.5 146.5zM612 139q146 0 245 101t99 258q0 158 -98.5 258t-245.5 100q-154 0 -251 -103t-97 -255t97.5 -255.5t250.5 -103.5z" />
    <glyph glyph-name="uni1ED6" unicode="&#x1ed6;" horiz-adv-x="1697" 
d="M725 1880q-58 0 -94 -82l-90 33q24 68 68 106.5t102 38.5q64 0 151 -53q64 -35 101 -35q72 0 102 82l90 -24q-25 -74 -71 -114t-105 -40t-143 47q-70 41 -111 41zM844 1669l-156 -164h-158l238 250h154l243 -250h-157l-156 164h-8zM852 1468q153 0 286.5 -54t230 -149.5
t152.5 -235t56 -302.5t-56 -301.5t-152.5 -234t-230.5 -149.5t-286 -54q-214 0 -381.5 97t-258.5 265t-91 377t91 377.5t258.5 266t381.5 97.5zM852 158q149 0 272 72t195 202.5t72 294.5q0 165 -72 296.5t-194.5 203t-272.5 71.5q-159 0 -285 -77t-194 -207t-68 -287
t68 -286.5t194 -206t285 -76.5z" />
    <glyph glyph-name="uni1ED7" unicode="&#x1ed7;" horiz-adv-x="1222" 
d="M479 1583q-31 0 -59 -30t-47 -83l-109 48q30 94 82 148t117 54q14 0 27 -1.5t22.5 -3t22.5 -7t18.5 -7t19.5 -9.5t16.5 -9.5t18.5 -11t17 -10.5q4 -3 24 -17t27.5 -18t23 -12.5t28.5 -11.5t26 -3q37 0 68.5 29t49.5 84l107 -35q-27 -102 -82 -158.5t-123 -56.5
q-33 0 -69 13t-56 25t-55 36q-5 3 -16.5 10.5t-16.5 10t-15 8t-16 8t-15 5.5t-18 4t-18 1zM530 1430h154l244 -293h-168l-148 182h-4l-147 -182h-168zM612 1010q222 0 367 -143.5t145 -368.5t-145 -367.5t-367 -142.5q-152 0 -270.5 67.5t-182 183.5t-63.5 259
q0 219 143.5 365.5t372.5 146.5zM612 139q146 0 245 101t99 258q0 158 -98.5 258t-245.5 100q-154 0 -251 -103t-97 -255t97.5 -255.5t250.5 -103.5z" />
    <glyph glyph-name="uni1ED8" unicode="&#x1ed8;" horiz-adv-x="1697" 
d="M848 1800l-148 -182h-168l238 293h154l243 -293h-168l-147 182h-4zM852 1468q153 0 286.5 -54t230 -149.5t152.5 -235t56 -302.5t-56 -301.5t-152.5 -234t-230.5 -149.5t-286 -54q-214 0 -381.5 97t-258.5 265t-91 377t91 377.5t258.5 266t381.5 97.5zM852 158
q149 0 272 72t195 202.5t72 294.5q0 165 -72 296.5t-194.5 203t-272.5 71.5q-159 0 -285 -77t-194 -207t-68 -287t68 -286.5t194 -206t285 -76.5zM852 -227q51 0 85 -33.5t34 -83.5q0 -48 -34.5 -82.5t-84.5 -34.5q-49 0 -84 34.5t-35 82.5q0 49 34.5 83t84.5 34z" />
    <glyph glyph-name="uni1ED9" unicode="&#x1ed9;" horiz-adv-x="1222" 
d="M608 1319l-147 -182h-168l237 293h154l244 -293h-168l-148 182h-4zM612 1010q222 0 367 -143.5t145 -368.5t-145 -367.5t-367 -142.5q-152 0 -270.5 67.5t-182 183.5t-63.5 259q0 219 143.5 365.5t372.5 146.5zM612 139q146 0 245 101t99 258q0 158 -98.5 258t-245.5 100
q-154 0 -251 -103t-97 -255t97.5 -255.5t250.5 -103.5zM612 -227q51 0 85 -33.5t34 -83.5q0 -48 -34.5 -82.5t-84.5 -34.5q-49 0 -83.5 34.5t-34.5 82.5q0 49 34 83t84 34z" />
    <glyph glyph-name="uni1EDA" unicode="&#x1eda;" horiz-adv-x="1781" 
d="M1206 1911l-254 -291h-174l240 289zM1546 1585h170v-149q0 -291 -219 -351v-2q80 -160 80 -356q0 -163 -56 -301.5t-152.5 -234t-230.5 -149.5t-286 -54q-214 0 -381.5 97t-258.5 265t-91 377t91 377.5t258.5 266t381.5 97.5q179 0 330 -72.5t248 -203.5q70 20 93 79.5
t23 174.5v139zM852 158q149 0 272 72t195 202.5t72 294.5q0 165 -72 296.5t-194.5 203t-272.5 71.5q-159 0 -285 -77t-194 -207t-68 -287t68 -286.5t194 -206t285 -76.5z" />
    <glyph glyph-name="uni1EDB" unicode="&#x1edb;" horiz-adv-x="1384" 
d="M948 1432l-254 -291h-174l240 289zM1167 1157h170v-149q0 -149 -58.5 -238.5t-172.5 -114.5l-2 -4q20 -78 20 -153q0 -225 -145 -367.5t-367 -142.5q-152 0 -270.5 67.5t-182 183.5t-63.5 259q0 219 143.5 365.5t372.5 146.5q145 0 262 -64.5t183 -179.5q34 11 56.5 31.5
t34 54.5t15.5 72t4 94v139zM612 139q146 0 245 101t99 258q0 158 -98.5 258t-245.5 100q-154 0 -251 -103t-97 -255t97.5 -255.5t250.5 -103.5z" />
    <glyph glyph-name="uni1EDC" unicode="&#x1edc;" horiz-adv-x="1781" 
d="M948 1620h-176l-254 291l191 -2zM1546 1585h170v-149q0 -291 -219 -351v-2q80 -160 80 -356q0 -163 -56 -301.5t-152.5 -234t-230.5 -149.5t-286 -54q-214 0 -381.5 97t-258.5 265t-91 377t91 377.5t258.5 266t381.5 97.5q179 0 330 -72.5t248 -203.5q70 20 93 79.5
t23 174.5v139zM852 158q149 0 272 72t195 202.5t72 294.5q0 165 -72 296.5t-194.5 203t-272.5 71.5q-159 0 -285 -77t-194 -207t-68 -287t68 -286.5t194 -206t285 -76.5z" />
    <glyph glyph-name="uni1EDD" unicode="&#x1edd;" horiz-adv-x="1384" 
d="M735 1141h-176l-254 291l191 -2zM1167 1157h170v-149q0 -149 -58.5 -238.5t-172.5 -114.5l-2 -4q20 -78 20 -153q0 -225 -145 -367.5t-367 -142.5q-152 0 -270.5 67.5t-182 183.5t-63.5 259q0 219 143.5 365.5t372.5 146.5q145 0 262 -64.5t183 -179.5q34 11 56.5 31.5
t34 54.5t15.5 72t4 94v139zM612 139q146 0 245 101t99 258q0 158 -98.5 258t-245.5 100q-154 0 -251 -103t-97 -255t97.5 -255.5t250.5 -103.5z" />
    <glyph glyph-name="uni1EDE" unicode="&#x1ede;" horiz-adv-x="1781" 
d="M860 1847q-85 0 -143 -65l-72 65q40 42 100.5 68.5t126.5 26.5q87 0 137 -43t50 -109q0 -59 -46.5 -100t-127.5 -64l-15 -55h-69q-31 31 -31 55q0 22 26.5 42.5t58.5 34.5t58.5 37t26.5 48q0 59 -80 59zM1546 1585h170v-149q0 -291 -219 -351v-2q80 -160 80 -356
q0 -163 -56 -301.5t-152.5 -234t-230.5 -149.5t-286 -54q-214 0 -381.5 97t-258.5 265t-91 377t91 377.5t258.5 266t381.5 97.5q179 0 330 -72.5t248 -203.5q70 20 93 79.5t23 174.5v139zM852 158q149 0 272 72t195 202.5t72 294.5q0 165 -72 296.5t-194.5 203t-272.5 71.5
q-159 0 -285 -77t-194 -207t-68 -287t68 -286.5t194 -206t285 -76.5z" />
    <glyph glyph-name="uni1EDF" unicode="&#x1edf;" horiz-adv-x="1384" 
d="M621 1366q-85 0 -144 -66l-71 66q40 42 100.5 68t126.5 26q87 0 136.5 -42.5t49.5 -108.5q0 -59 -46.5 -100t-127.5 -64l-14 -55h-70q-31 31 -31 55q0 22 26.5 42.5t58.5 34.5t58.5 37t26.5 48q0 59 -79 59zM1167 1157h170v-149q0 -149 -58.5 -238.5t-172.5 -114.5l-2 -4
q20 -78 20 -153q0 -225 -145 -367.5t-367 -142.5q-152 0 -270.5 67.5t-182 183.5t-63.5 259q0 219 143.5 365.5t372.5 146.5q145 0 262 -64.5t183 -179.5q34 11 56.5 31.5t34 54.5t15.5 72t4 94v139zM612 139q146 0 245 101t99 258q0 158 -98.5 258t-245.5 100
q-154 0 -251 -103t-97 -255t97.5 -255.5t250.5 -103.5z" />
    <glyph glyph-name="uni1EE0" unicode="&#x1ee0;" horiz-adv-x="1781" 
d="M715 1753q-79 0 -123 -113l-107 48q29 95 82 148.5t129 53.5q34 0 67.5 -10t50.5 -19.5t50 -29.5q4 -3 24 -17t27.5 -18t23 -12.5t28.5 -11.5t26 -3q37 0 69 29t50 84l107 -35q-27 -102 -82 -158.5t-123 -56.5q-33 0 -69 13t-56 25t-55 36q-77 47 -119 47zM1546 1585h170
v-149q0 -291 -219 -351v-2q80 -160 80 -356q0 -163 -56 -301.5t-152.5 -234t-230.5 -149.5t-286 -54q-214 0 -381.5 97t-258.5 265t-91 377t91 377.5t258.5 266t381.5 97.5q179 0 330 -72.5t248 -203.5q70 20 93 79.5t23 174.5v139zM852 158q149 0 272 72t195 202.5
t72 294.5q0 165 -72 296.5t-194.5 203t-272.5 71.5q-159 0 -285 -77t-194 -207t-68 -287t68 -286.5t194 -206t285 -76.5z" />
    <glyph glyph-name="uni1EE1" unicode="&#x1ee1;" horiz-adv-x="1384" 
d="M475 1272q-79 0 -123 -113l-106 47q29 96 82 149.5t129 53.5q34 0 67.5 -10t50.5 -19.5t50 -29.5q4 -3 24 -17t27.5 -18t23 -12.5t28.5 -11.5t26 -3q37 0 68.5 29t49.5 84l107 -35q-27 -102 -82 -158.5t-123 -56.5q-33 0 -69 13t-56 25t-55 36q-77 47 -119 47zM1167 1157
h170v-149q0 -149 -58.5 -238.5t-172.5 -114.5l-2 -4q20 -78 20 -153q0 -225 -145 -367.5t-367 -142.5q-152 0 -270.5 67.5t-182 183.5t-63.5 259q0 219 143.5 365.5t372.5 146.5q145 0 262 -64.5t183 -179.5q34 11 56.5 31.5t34 54.5t15.5 72t4 94v139zM612 139
q146 0 245 101t99 258q0 158 -98.5 258t-245.5 100q-154 0 -251 -103t-97 -255t97.5 -255.5t250.5 -103.5z" />
    <glyph glyph-name="uni1EE2" unicode="&#x1ee2;" horiz-adv-x="1781" 
d="M1546 1585h170v-149q0 -291 -219 -351v-2q80 -160 80 -356q0 -163 -56 -301.5t-152.5 -234t-230.5 -149.5t-286 -54q-214 0 -381.5 97t-258.5 265t-91 377t91 377.5t258.5 266t381.5 97.5q179 0 330 -72.5t248 -203.5q70 20 93 79.5t23 174.5v139zM852 158q149 0 272 72
t195 202.5t72 294.5q0 165 -72 296.5t-194.5 203t-272.5 71.5q-159 0 -285 -77t-194 -207t-68 -287t68 -286.5t194 -206t285 -76.5zM852 -227q51 0 85 -33.5t34 -83.5q0 -48 -34.5 -82.5t-84.5 -34.5q-49 0 -84 34.5t-35 82.5q0 49 34.5 83t84.5 34z" />
    <glyph glyph-name="uni1EE3" unicode="&#x1ee3;" horiz-adv-x="1384" 
d="M1167 1157h170v-149q0 -149 -58.5 -238.5t-172.5 -114.5l-2 -4q20 -78 20 -153q0 -225 -145 -367.5t-367 -142.5q-152 0 -270.5 67.5t-182 183.5t-63.5 259q0 219 143.5 365.5t372.5 146.5q145 0 262 -64.5t183 -179.5q34 11 56.5 31.5t34 54.5t15.5 72t4 94v139z
M612 139q146 0 245 101t99 258q0 158 -98.5 258t-245.5 100q-154 0 -251 -103t-97 -255t97.5 -255.5t250.5 -103.5zM612 -227q51 0 85 -33.5t34 -83.5q0 -48 -34.5 -82.5t-84.5 -34.5q-49 0 -83.5 34.5t-34.5 82.5q0 49 34 83t84 34z" />
    <glyph glyph-name="uni1EE4" unicode="&#x1ee4;" horiz-adv-x="1456" 
d="M725 -12q-253 0 -407 160.5t-154 443.5v862h178v-850q0 -202 104.5 -324t278.5 -122q173 0 280 119.5t107 326.5v850h178v-862q0 -280 -152.5 -442t-412.5 -162zM727 -227q51 0 85 -33.5t34 -83.5q0 -48 -34.5 -82.5t-84.5 -34.5q-49 0 -84 34.5t-35 82.5q0 49 34.5 83
t84.5 34z" />
    <glyph glyph-name="uni1EE5" unicode="&#x1ee5;" horiz-adv-x="1155" 
d="M842 997h166v-997h-166v166h-2q-60 -86 -145.5 -132t-182.5 -46q-177 0 -276 103.5t-99 311.5v594h166v-546q0 -166 60.5 -239t183.5 -73q124 0 209.5 101.5t85.5 273.5v483zM580 -227q51 0 84.5 -33.5t33.5 -83.5q0 -48 -34 -82.5t-84 -34.5q-49 0 -84 34.5t-35 82.5
q0 49 34.5 83t84.5 34z" />
    <glyph glyph-name="uni1EE6" unicode="&#x1ee6;" horiz-adv-x="1456" 
d="M676 1571q-31 31 -31 55q0 22 26.5 42.5t58.5 34.5t58.5 37t26.5 48q0 59 -80 59q-85 0 -143 -65l-72 65q40 42 101 68.5t127 26.5q87 0 136.5 -42.5t49.5 -109.5q0 -59 -46.5 -100t-127.5 -64l-15 -55h-69zM725 -12q-253 0 -407 160.5t-154 443.5v862h178v-850
q0 -202 104.5 -324t278.5 -122q173 0 280 119.5t107 326.5v850h178v-862q0 -280 -152.5 -442t-412.5 -162z" />
    <glyph glyph-name="uni1EE7" unicode="&#x1ee7;" horiz-adv-x="1155" 
d="M584 1366q-85 0 -144 -66l-71 66q40 42 100.5 68t126.5 26q87 0 136.5 -42.5t49.5 -108.5q0 -59 -46.5 -100t-127.5 -64l-14 -55h-70q-30 30 -30 55q0 22 26.5 42.5t58.5 34.5t58.5 37t26.5 48q0 59 -80 59zM842 997h166v-997h-166v166h-2q-60 -86 -145.5 -132
t-182.5 -46q-177 0 -276 103.5t-99 311.5v594h166v-546q0 -166 60.5 -239t183.5 -73q124 0 209.5 101.5t85.5 273.5v483z" />
    <glyph glyph-name="uni1EE8" unicode="&#x1ee8;" horiz-adv-x="1622" 
d="M1028 1911l-254 -291h-174l240 289zM1436 1585h170v-149q0 -174 -81 -267t-235 -96v-481q0 -280 -152.5 -442t-412.5 -162q-253 0 -407 160.5t-154 443.5v862h178v-850q0 -202 104.5 -324t278.5 -122q173 0 280 119.5t107 326.5v850h178v-268q89 13 117.5 73.5
t28.5 186.5v139z" />
    <glyph glyph-name="uni1EE9" unicode="&#x1ee9;" horiz-adv-x="1351" 
d="M911 1432l-254 -291h-174l240 289zM1149 1157h170v-149q0 -173 -79.5 -265.5t-231.5 -97.5v-645h-166v166h-2q-60 -86 -145.5 -132t-182.5 -46q-177 0 -276 103.5t-99 311.5v594h166v-546q0 -166 60.5 -239t183.5 -73q124 0 209.5 101.5t85.5 273.5v483h166v-237
q86 13 113.5 72.5t27.5 185.5v139z" />
    <glyph glyph-name="uni1EEA" unicode="&#x1eea;" horiz-adv-x="1622" 
d="M862 1620h-176l-254 291l191 -2zM1436 1585h170v-149q0 -174 -81 -267t-235 -96v-481q0 -280 -152.5 -442t-412.5 -162q-253 0 -407 160.5t-154 443.5v862h178v-850q0 -202 104.5 -324t278.5 -122q173 0 280 119.5t107 326.5v850h178v-268q89 13 117.5 73.5t28.5 186.5
v139z" />
    <glyph glyph-name="uni1EEB" unicode="&#x1eeb;" horiz-adv-x="1351" 
d="M721 1141h-176l-254 291l190 -2zM1149 1157h170v-149q0 -173 -79.5 -265.5t-231.5 -97.5v-645h-166v166h-2q-60 -86 -145.5 -132t-182.5 -46q-177 0 -276 103.5t-99 311.5v594h166v-546q0 -166 60.5 -239t183.5 -73q124 0 209.5 101.5t85.5 273.5v483h166v-237
q86 13 113.5 72.5t27.5 185.5v139z" />
    <glyph glyph-name="uni1EEC" unicode="&#x1eec;" horiz-adv-x="1622" 
d="M735 1847q-85 0 -143 -65l-72 65q40 42 101 68.5t127 26.5q87 0 136.5 -42.5t49.5 -109.5q0 -59 -46.5 -100t-127.5 -64l-15 -55h-69q-31 31 -31 55q0 22 26.5 42.5t58.5 34.5t58.5 37t26.5 48q0 59 -80 59zM1436 1585h170v-149q0 -174 -81 -267t-235 -96v-481
q0 -280 -152.5 -442t-412.5 -162q-253 0 -407 160.5t-154 443.5v862h178v-850q0 -202 104.5 -324t278.5 -122q173 0 280 119.5t107 326.5v850h178v-268q89 13 117.5 73.5t28.5 186.5v139z" />
    <glyph glyph-name="uni1EED" unicode="&#x1eed;" horiz-adv-x="1351" 
d="M584 1366q-85 0 -144 -66l-71 66q40 42 100.5 68t126.5 26q87 0 136.5 -42.5t49.5 -108.5q0 -59 -46.5 -100t-127.5 -64l-14 -55h-70q-30 30 -30 55q0 22 26.5 42.5t58.5 34.5t58.5 37t26.5 48q0 59 -80 59zM1149 1157h170v-149q0 -173 -79.5 -265.5t-231.5 -97.5v-645
h-166v166h-2q-60 -86 -145.5 -132t-182.5 -46q-177 0 -276 103.5t-99 311.5v594h166v-546q0 -166 60.5 -239t183.5 -73q124 0 209.5 101.5t85.5 273.5v483h166v-237q86 13 113.5 72.5t27.5 185.5v139z" />
    <glyph glyph-name="uni1EEE" unicode="&#x1eee;" horiz-adv-x="1622" 
d="M590 1753q-79 0 -123 -113l-107 48q29 95 82 148.5t129 53.5q34 0 67.5 -10t50.5 -19.5t50 -29.5q4 -3 24 -17t27.5 -18t23 -12.5t28.5 -11.5t26 -3q37 0 69 29t50 84l107 -35q-27 -102 -82 -158.5t-123 -56.5q-33 0 -69 13t-56 25t-55 36q-77 47 -119 47zM1436 1585h170
v-149q0 -174 -81 -267t-235 -96v-481q0 -280 -152.5 -442t-412.5 -162q-253 0 -407 160.5t-154 443.5v862h178v-850q0 -202 104.5 -324t278.5 -122q173 0 280 119.5t107 326.5v850h178v-268q89 13 117.5 73.5t28.5 186.5v139z" />
    <glyph glyph-name="uni1EEF" unicode="&#x1eef;" horiz-adv-x="1351" 
d="M438 1272q-79 0 -123 -113l-106 47q29 96 82 149.5t129 53.5q34 0 67.5 -10t50.5 -19.5t50 -29.5q4 -3 24 -17t27.5 -18t23 -12.5t28.5 -11.5t26 -3q37 0 69 29t50 84l106 -35q-27 -102 -82 -158.5t-123 -56.5q-33 0 -69 13t-56 25t-55 36q-77 47 -119 47zM1149 1157h170
v-149q0 -173 -79.5 -265.5t-231.5 -97.5v-645h-166v166h-2q-60 -86 -145.5 -132t-182.5 -46q-177 0 -276 103.5t-99 311.5v594h166v-546q0 -166 60.5 -239t183.5 -73q124 0 209.5 101.5t85.5 273.5v483h166v-237q86 13 113.5 72.5t27.5 185.5v139z" />
    <glyph glyph-name="uni1EF0" unicode="&#x1ef0;" horiz-adv-x="1622" 
d="M1436 1585h170v-149q0 -174 -81 -267t-235 -96v-481q0 -280 -152.5 -442t-412.5 -162q-253 0 -407 160.5t-154 443.5v862h178v-850q0 -202 104.5 -324t278.5 -122q173 0 280 119.5t107 326.5v850h178v-268q89 13 117.5 73.5t28.5 186.5v139zM727 -227q51 0 85 -33.5
t34 -83.5q0 -48 -34.5 -82.5t-84.5 -34.5q-49 0 -84 34.5t-35 82.5q0 49 34.5 83t84.5 34z" />
    <glyph glyph-name="uni1EF1" unicode="&#x1ef1;" horiz-adv-x="1351" 
d="M1149 1157h170v-149q0 -173 -79.5 -265.5t-231.5 -97.5v-645h-166v166h-2q-60 -86 -145.5 -132t-182.5 -46q-177 0 -276 103.5t-99 311.5v594h166v-546q0 -166 60.5 -239t183.5 -73q124 0 209.5 101.5t85.5 273.5v483h166v-237q86 13 113.5 72.5t27.5 185.5v139z
M580 -227q51 0 84.5 -33.5t33.5 -83.5q0 -48 -34 -82.5t-84 -34.5q-49 0 -84 34.5t-35 82.5q0 49 34.5 83t84.5 34z" />
    <glyph glyph-name="Ygrave" unicode="&#x1ef2;" horiz-adv-x="1236" 
d="M737 1620h-176l-254 291l191 -2zM995 1454h207l-495 -805v-649h-179v649l-493 805h205l376 -627h5z" />
    <glyph glyph-name="ygrave" unicode="&#x1ef3;" horiz-adv-x="1081" 
d="M670 1141h-176l-254 291l190 -2zM854 997h176l-563 -1403h-176l178 447l-422 956h178l324 -759h4z" />
    <glyph glyph-name="uni1EF4" unicode="&#x1ef4;" horiz-adv-x="1236" 
d="M528 0v649l-493 805h205l376 -627h5l374 627h207l-495 -805v-649h-179zM616 -227q51 0 85 -33.5t34 -83.5q0 -48 -34.5 -82.5t-84.5 -34.5q-49 0 -83.5 34.5t-34.5 82.5q0 49 34 83t84 34z" />
    <glyph glyph-name="uni1EF5" unicode="&#x1ef5;" horiz-adv-x="1081" 
d="M854 997h176l-563 -1403h-176l178 447l-422 956h178l324 -759h4zM805 -227q51 0 85 -33.5t34 -83.5q0 -48 -34.5 -82.5t-84.5 -34.5q-49 0 -84 34.5t-35 82.5q0 49 34.5 83t84.5 34z" />
    <glyph glyph-name="uni1EF6" unicode="&#x1ef6;" horiz-adv-x="1236" 
d="M631 1847q-86 0 -144 -65l-71 65q40 42 100.5 68.5t126.5 26.5q87 0 136.5 -42.5t49.5 -109.5q0 -59 -46.5 -100t-127.5 -64l-14 -55h-70q-30 30 -30 55q0 22 26.5 42.5t58.5 34.5t58.5 37t26.5 48q0 59 -80 59zM995 1454h207l-495 -805v-649h-179v649l-493 805h205
l376 -627h5z" />
    <glyph glyph-name="uni1EF7" unicode="&#x1ef7;" horiz-adv-x="1081" 
d="M551 1366q-84 0 -143 -66l-72 66q40 42 100.5 68t126.5 26q87 0 137 -42.5t50 -108.5q0 -114 -175 -164l-14 -55h-69q-31 31 -31 55q0 22 26.5 42.5t58.5 34.5t58.5 37t26.5 48q0 59 -80 59zM854 997h176l-563 -1403h-176l178 447l-422 956h178l324 -759h4z" />
    <glyph glyph-name="uni1EF8" unicode="&#x1ef8;" horiz-adv-x="1236" 
d="M485 1753q-79 0 -123 -113l-106 48q29 95 82 148.5t129 53.5q34 0 67.5 -10t50.5 -19.5t50 -29.5q4 -3 24 -17t27.5 -18t23 -12.5t28.5 -11.5t26 -3q37 0 69 29t50 84l106 -35q-27 -102 -82 -158.5t-123 -56.5q-33 0 -69 13t-56 25t-55 36q-77 47 -119 47zM995 1454h207
l-495 -805v-649h-179v649l-493 805h205l376 -627h5z" />
    <glyph glyph-name="uni1EF9" unicode="&#x1ef9;" horiz-adv-x="1081" 
d="M406 1272q-79 0 -123 -113l-107 47q29 96 82 149.5t129 53.5q34 0 67.5 -10t50.5 -19.5t50 -29.5q4 -3 24 -17t27.5 -18t23 -12.5t28.5 -11.5t26 -3q37 0 69 29t50 84l106 -35q-28 -102 -82 -158.5t-122 -56.5q-33 0 -69 12.5t-57 25.5t-55 36q-77 47 -118 47zM854 997
h176l-563 -1403h-176l178 447l-422 956h178l324 -759h4z" />
    <glyph glyph-name="uni2002" unicode="&#x2002;" horiz-adv-x="956" 
 />
    <glyph glyph-name="uni2003" unicode="&#x2003;" horiz-adv-x="1912" 
 />
    <glyph glyph-name="uni2009" unicode="&#x2009;" horiz-adv-x="61" 
 />
    <glyph glyph-name="endash" unicode="&#x2013;" horiz-adv-x="1187" 
d="M117 535v149h954v-149h-954z" />
    <glyph glyph-name="emdash" unicode="&#x2014;" horiz-adv-x="2144" 
d="M117 535v149h1911v-149h-1911z" />
    <glyph glyph-name="uni2015" unicode="&#x2015;" horiz-adv-x="2455" 
d="M117 535v149h2224v-149h-2224z" />
    <glyph glyph-name="quoteleft" unicode="&#x2018;" horiz-adv-x="407" 
d="M328 1454l-68 -493h-180l110 493h138z" />
    <glyph glyph-name="quoteright" unicode="&#x2019;" horiz-adv-x="407" 
d="M80 961l67 493h181l-111 -493h-137z" />
    <glyph glyph-name="quotesinglbase" unicode="&#x201a;" horiz-adv-x="440" 
d="M66 -266l65 491h182l-125 -491h-122z" />
    <glyph glyph-name="quotedblleft" unicode="&#x201c;" horiz-adv-x="698" 
d="M328 1454l-66 -493h-182l108 493h140zM618 1454l-67 -493h-180l110 493h137z" />
    <glyph glyph-name="quotedblright" unicode="&#x201d;" horiz-adv-x="698" 
d="M80 961l67 493h181l-111 -493h-137zM371 961l65 493h182l-108 -493h-139z" />
    <glyph glyph-name="quotedblbase" unicode="&#x201e;" horiz-adv-x="731" 
d="M66 -156l67 494h180l-110 -494h-137zM356 -156l66 494h182l-108 -494h-140z" />
    <glyph glyph-name="dagger" unicode="&#x2020;" horiz-adv-x="823" 
d="M414 508l-56 96l9 275l-2 227h-41l-205 -8v110l205 -8h41l-7 203h111l-6 -203h37l205 8v-110l-205 8h-39v-227l8 -275z" />
    <glyph glyph-name="daggerdbl" unicode="&#x2021;" horiz-adv-x="823" 
d="M358 119l7 198h-41l-205 -6v111l203 -6h45v184l-9 168l9 170v168h-43l-205 -8v108l203 -6h43l-7 203h111l-8 -203h39l205 6v-108l-207 8h-37v-168l8 -170l-10 -168l2 -184h39l205 8v-111l-205 4h-39l8 -198h-111z" />
    <glyph glyph-name="bullet" unicode="&#x2022;" horiz-adv-x="843" 
d="M422 438q-89 0 -150 60.5t-61 148.5t61 148.5t150 60.5q88 0 149.5 -60.5t61.5 -148.5t-61.5 -148.5t-149.5 -60.5z" />
    <glyph glyph-name="ellipsis" unicode="&#x2026;" horiz-adv-x="2048" 
d="M342 -12q-51 0 -85 33t-34 81q0 50 34 83.5t85 33.5q48 0 82.5 -34t34.5 -83q0 -47 -34.5 -80.5t-82.5 -33.5zM1024 -12q-51 0 -85 33t-34 81q0 50 34 83.5t85 33.5q48 0 82.5 -34t34.5 -83q0 -47 -34.5 -80.5t-82.5 -33.5zM1708 -12q-51 0 -85 33t-34 81q0 50 34 83.5
t85 33.5q48 0 82.5 -34t34.5 -83q0 -47 -34.5 -80.5t-82.5 -33.5z" />
    <glyph glyph-name="perthousand" unicode="&#x2030;" horiz-adv-x="2963" 
d="M774 -35l-135 58l637 1456l135 -60zM500 662q-172 0 -290 113t-118 292q0 168 114 283.5t294 115.5q173 0 291 -110.5t118 -288.5q0 -171 -114 -288t-295 -117zM502 793q118 0 191 78.5t73 193.5q0 119 -76.5 193.5t-187.5 74.5q-118 0 -191 -76.5t-73 -191.5
q0 -121 76 -196.5t188 -75.5zM1538 -12q-171 0 -289.5 112.5t-118.5 290.5q0 168 114.5 285t293.5 117q172 0 291 -112.5t119 -289.5q0 -170 -114 -286.5t-296 -116.5zM2456 -12q-172 0 -290 112.5t-118 290.5q0 168 114.5 285t293.5 117q172 0 290.5 -112.5t118.5 -289.5
q0 -170 -114 -286.5t-295 -116.5zM1538 119q119 0 192.5 77.5t73.5 192.5q0 120 -76.5 195t-189.5 75q-116 0 -189 -77.5t-73 -192.5q0 -119 75.5 -194.5t186.5 -75.5zM2458 119q118 0 191 77.5t73 192.5q0 120 -76 195t-188 75q-118 0 -191.5 -77.5t-73.5 -192.5
q0 -119 76.5 -194.5t188.5 -75.5z" />
    <glyph glyph-name="guilsinglleft" unicode="&#x2039;" horiz-adv-x="595" 
d="M522 53h-166l-254 449l258 454h164l-256 -454z" />
    <glyph glyph-name="guilsinglright" unicode="&#x203a;" horiz-adv-x="587" 
d="M82 53l254 449l-256 454h164l258 -454l-254 -449h-166z" />
    <glyph glyph-name="uni203D" unicode="&#x203d;" horiz-adv-x="923" 
d="M436 1522q170 0 287 -104.5t117 -278.5q0 -113 -48 -196.5t-135 -172.5q-11 -11 -50.5 -49t-52.5 -53t-36.5 -43.5t-32.5 -51.5t-10 -47l-4 -100h-137l-29 764h191l-15 -367h2l4 4q44 44 67 70t50 64.5t39 76t12 78.5q0 114 -65 176t-166 62q-72 0 -141.5 -37
t-112.5 -103l-125 117q68 91 170.5 141t220.5 50zM403 219q48 0 82.5 -34t34.5 -83q0 -47 -34.5 -80.5t-82.5 -33.5q-51 0 -84.5 33t-33.5 81q0 50 33.5 83.5t84.5 33.5z" />
    <glyph glyph-name="uni2042" unicode="&#x2042;" horiz-adv-x="1720" 
d="M797 805l6 242l-203 -127l-57 98l213 110l-215 115l59 96l203 -127l-6 242h110l-8 -242l205 127l55 -96l-215 -115l215 -110l-55 -98l-203 127l6 -242h-110zM365 119l6 241l-203 -127l-57 99l213 110l-215 115l59 96l203 -127l-6 242h110l-8 -242l205 127l55 -96
l-215 -115l215 -110l-55 -99l-203 127l6 -241h-110zM1247 119l6 241l-202 -127l-58 99l213 110l-215 115l60 96l202 -127l-6 242h111l-8 -242l204 127l56 -96l-215 -115l215 -110l-56 -99l-202 127l6 -241h-111z" />
    <glyph glyph-name="fraction" unicode="&#x2044;" horiz-adv-x="464" 
d="M6 -35l-135 58l635 1456l135 -60z" />
    <glyph glyph-name="uni2051" unicode="&#x2051;" horiz-adv-x="837" 
d="M365 805l6 242l-203 -127l-57 98l213 110l-215 115l59 96l203 -127l-6 242h110l-8 -242l205 127l55 -96l-215 -115l215 -110l-55 -98l-203 127l6 -242h-110zM365 86l6 242l-203 -129l-57 100l213 111l-215 112l59 99l203 -127l-6 241h110l-8 -241l205 127l55 -99
l-215 -112l215 -111l-55 -98l-203 127l6 -242h-110z" />
    <glyph glyph-name="uni2070" unicode="&#x2070;" horiz-adv-x="827" 
d="M414 881q-161 0 -257 117t-96 317q0 199 96.5 316.5t256.5 117.5q161 0 257.5 -117t96.5 -317q0 -199 -96 -316.5t-258 -117.5zM416 1016q97 0 152 79t55 220q0 144 -57 222.5t-150 78.5q-100 0 -155.5 -80t-55.5 -221q0 -143 57.5 -221t153.5 -78z" />
    <glyph glyph-name="uni2074" unicode="&#x2074;" horiz-adv-x="739" 
d="M424 893v139h-385v92l416 613h110v-580h125v-125h-125v-139h-141zM201 1149h233v348z" />
    <glyph glyph-name="uni2075" unicode="&#x2075;" horiz-adv-x="714" 
d="M377 1432q119 0 200.5 -74.5t81.5 -194.5q0 -126 -90 -204t-225 -78q-196 0 -303 137l109 86q62 -92 182 -92q77 0 128.5 41t51.5 112q0 76 -49.5 116t-128.5 40q-87 0 -139 -49l-82 28l26 437h475v-131h-354l-14 -199q73 25 131 25z" />
    <glyph glyph-name="uni2076" unicode="&#x2076;" horiz-adv-x="739" 
d="M414 1425q112 0 190 -73t78 -195q0 -123 -86 -198.5t-223 -75.5q-131 0 -221.5 95t-90.5 245q0 206 130 357t327 187l37 -116q-271 -65 -336 -291h2q81 65 193 65zM375 1010q71 0 121.5 42.5t50.5 106.5q0 68 -46 111t-120 43q-58 0 -105.5 -27.5t-76.5 -73.5v-4
q0 -91 50 -144.5t126 -53.5z" />
    <glyph glyph-name="uni2077" unicode="&#x2077;" horiz-adv-x="667" 
d="M57 1737h551v-101l-325 -762l-146 31l314 699h-394v133z" />
    <glyph glyph-name="uni2078" unicode="&#x2078;" horiz-adv-x="751" 
d="M522 1352q71 -25 119.5 -84.5t48.5 -141.5q0 -111 -90 -178t-223 -67q-137 0 -226.5 68t-89.5 177q0 81 48 141t118 85q-46 16 -81 65t-35 111q0 102 75.5 160.5t190.5 58.5q116 0 190 -59t74 -160q0 -62 -36 -111t-83 -65zM375 1630q-60 1 -99.5 -32.5t-39.5 -81.5
q0 -50 39 -81.5t100 -31.5q62 0 100.5 31t38.5 82t-39 82.5t-100 31.5zM375 1004q76 0 125 39.5t49 99.5q0 62 -49 101.5t-125 39.5q-74 -2 -122 -41t-48 -100t49 -100t121 -39z" />
    <glyph glyph-name="uni2079" unicode="&#x2079;" horiz-adv-x="739" 
d="M373 1747q129 0 218 -94.5t89 -243.5q0 -213 -129 -363.5t-326 -183.5l-37 117q280 61 338 297q-86 -70 -196 -70q-124 0 -195.5 67t-71.5 185q0 124 89.5 206.5t220.5 82.5zM199 1454q0 -60 41 -97.5t114 -37.5q60 0 109.5 27t79.5 73v2q0 91 -49.5 145t-122.5 54
q-75 0 -123.5 -47.5t-48.5 -118.5z" />
    <glyph glyph-name="uni207A" unicode="&#x207a;" horiz-adv-x="720" 
d="M637 1352v-117h-217v-221h-123v221h-217v117h217v221l123 -2v-219h217z" />
    <glyph glyph-name="uni207B" unicode="&#x207b;" horiz-adv-x="729" 
d="M86 1231v125h557v-125h-557z" />
    <glyph glyph-name="uni207C" unicode="&#x207c;" horiz-adv-x="770" 
d="M106 1391v112h560v-112h-560zM106 1053v114h560v-114h-560z" />
    <glyph glyph-name="uni207D" unicode="&#x207d;" horiz-adv-x="389" 
d="M225 756q-145 269 -145 559q0 155 42 301.5t114 257.5l102 -45q-57 -88 -96 -229t-39 -285q0 -281 129 -518z" />
    <glyph glyph-name="uni207E" unicode="&#x207e;" horiz-adv-x="389" 
d="M164 756l-107 41q129 237 129 518q0 144 -39 285t-96 229l103 45q72 -111 113.5 -257.5t41.5 -301.5q0 -290 -145 -559z" />
    <glyph glyph-name="uni207F" unicode="&#x207f;" horiz-adv-x="724" 
d="M440 473q98 0 154.5 -63t56.5 -189v-356h-127v323q0 168 -125 168q-82 0 -134 -51t-52 -141v-299h-127v600h127v-96h2q41 50 100 77t125 27z" />
    <glyph glyph-name="uni2080" unicode="&#x2080;" horiz-adv-x="827" 
d="M414 -147q-161 0 -257 117t-96 317q0 199 96.5 316.5t256.5 117.5q161 0 257.5 -117t96.5 -317q0 -199 -96 -316.5t-258 -117.5zM416 -12q97 0 152 79t55 220q0 144 -57 222.5t-150 78.5q-100 0 -155.5 -80t-55.5 -221q0 -143 57.5 -221t153.5 -78z" />
    <glyph glyph-name="uni2081" unicode="&#x2081;" horiz-adv-x="540" 
d="M270 -135v663l-161 -110l-70 110l262 181h113v-844h-144z" />
    <glyph glyph-name="uni2082" unicode="&#x2082;" horiz-adv-x="698" 
d="M268 -4h365v-131h-578v98l293 281q67 62 98 108t31 97q0 59 -40 98t-103 39q-49 0 -97 -26.5t-77 -78.5l-107 78q40 70 117 115t172 45q115 0 198 -70t83 -184q0 -77 -33.5 -140t-120.5 -143l-201 -182v-4z" />
    <glyph glyph-name="uni2083" unicode="&#x2083;" horiz-adv-x="708" 
d="M512 299q139 -57 139 -207q0 -107 -81.5 -173t-213.5 -66q-115 0 -198.5 50.5t-116.5 131.5l129 51q44 -104 176 -104q73 0 115.5 35.5t42.5 97.5q0 56 -46 91.5t-126 35.5h-70v110h84q66 0 106 33t40 82q0 57 -40.5 90t-109.5 33q-104 0 -149 -82l-119 65
q34 66 104.5 106t165.5 40q123 0 203 -60t80 -165q0 -132 -115 -191v-4z" />
    <glyph glyph-name="uni2084" unicode="&#x2084;" horiz-adv-x="739" 
d="M424 -135v139h-385v92l416 613h110v-580h125v-125h-125v-139h-141zM201 121h233v348z" />
    <glyph glyph-name="uni2085" unicode="&#x2085;" horiz-adv-x="714" 
d="M377 403q119 0 200.5 -74t81.5 -194q0 -126 -90 -204t-225 -78q-196 0 -303 137l109 86q62 -92 182 -92q77 0 128.5 41t51.5 112q0 76 -49.5 116t-128.5 40q-87 0 -139 -49l-82 28l26 437h475v-131h-354l-14 -199q70 24 131 24z" />
    <glyph glyph-name="uni2086" unicode="&#x2086;" horiz-adv-x="739" 
d="M414 397q112 0 190 -73t78 -195q0 -123 -86 -198.5t-223 -75.5q-131 0 -221.5 95t-90.5 245q0 206 130 357t327 187l37 -116q-271 -65 -336 -291h2q81 65 193 65zM375 -18q71 0 121.5 42.5t50.5 106.5q0 68 -46 111t-120 43q-58 0 -105.5 -27.5t-76.5 -73.5v-4
q0 -91 50 -144.5t126 -53.5z" />
    <glyph glyph-name="uni2087" unicode="&#x2087;" horiz-adv-x="667" 
d="M57 709h551v-101l-325 -762l-146 31l314 698h-394v134z" />
    <glyph glyph-name="uni2088" unicode="&#x2088;" horiz-adv-x="751" 
d="M522 324q71 -25 119.5 -84.5t48.5 -141.5q0 -111 -90 -178t-223 -67q-137 0 -226.5 68t-89.5 177q0 81 48 141t118 85q-46 16 -81 65t-35 111q0 102 75.5 160.5t190.5 58.5q116 0 190 -59t74 -160q0 -62 -36 -111t-83 -65zM375 602q-60 1 -99.5 -33t-39.5 -82
q0 -50 39 -81t100 -31q62 0 100.5 30.5t38.5 81.5t-39.5 83t-99.5 32zM375 -25q76 0 125 40t49 100q0 62 -49 101.5t-125 39.5q-74 -2 -122 -41t-48 -100t49.5 -100.5t120.5 -39.5z" />
    <glyph glyph-name="uni2089" unicode="&#x2089;" horiz-adv-x="739" 
d="M373 719q129 0 218 -94.5t89 -243.5q0 -213 -129 -363.5t-326 -183.5l-37 117q280 61 338 297q-86 -70 -196 -70q-124 0 -195.5 67t-71.5 185q0 124 89.5 206.5t220.5 82.5zM199 426q0 -60 41 -97.5t114 -37.5q60 0 109.5 27t79.5 73v2q0 91 -49.5 145t-122.5 54
q-75 0 -123.5 -47.5t-48.5 -118.5z" />
    <glyph glyph-name="uni208A" unicode="&#x208a;" horiz-adv-x="718" 
d="M639 311v-118h-217v-220h-123v220h-219v118h219v219h123v-219h217z" />
    <glyph glyph-name="uni208B" unicode="&#x208b;" horiz-adv-x="733" 
d="M86 188v125h559v-125h-559z" />
    <glyph glyph-name="uni208C" unicode="&#x208c;" horiz-adv-x="768" 
d="M104 377v112h558v-112h-558zM104 39v115h558v-115h-558z" />
    <glyph glyph-name="uni208D" unicode="&#x208d;" horiz-adv-x="401" 
d="M227 -276q-147 266 -147 559q0 154 42.5 300.5t115.5 258.5l106 -47q-56 -87 -94.5 -227.5t-38.5 -284.5q0 -279 129 -516z" />
    <glyph glyph-name="uni208E" unicode="&#x208e;" horiz-adv-x="401" 
d="M174 -276l-113 43q129 237 129 516q0 144 -38.5 284.5t-94.5 227.5l107 47q73 -112 115.5 -258.5t42.5 -300.5q0 -291 -148 -559z" />
    <glyph glyph-name="uni2090" unicode="&#x2090;" horiz-adv-x="796" 
d="M580 463h120v-598h-120v90h-5q-78 -100 -217 -100q-131 0 -214 85.5t-83 221.5q0 134 81.5 221.5t209.5 87.5q140 0 223 -106h5v98zM385 -29q81 0 135.5 53t54.5 138q0 84 -53 139t-137 55q-85 0 -142 -54t-57 -140q0 -82 56 -136.5t143 -54.5z" />
    <glyph glyph-name="uni2091" unicode="&#x2091;" horiz-adv-x="722" 
d="M666 170q0 -7 -2.5 -23t-4.5 -18h-469q12 -72 64.5 -116t126.5 -44q107 0 168 72l90 -74q-93 -112 -268 -112q-133 0 -221.5 87t-88.5 222q0 131 88.5 218t217.5 87q130 0 214.5 -85t84.5 -214zM367 358q-59 0 -105 -34.5t-65 -94.5h340q-15 60 -59.5 94.5t-110.5 34.5z
" />
    <glyph glyph-name="uni2092" unicode="&#x2092;" horiz-adv-x="761" 
d="M381 -145q-140 0 -229 88t-89 221t89 220t229 87q136 0 226.5 -86t90.5 -221q0 -137 -90 -223t-227 -86zM381 -31q79 0 132.5 55t53.5 140q0 84 -53 138t-133 54q-82 0 -134 -55.5t-52 -136.5q0 -83 52 -139t134 -56z" />
    <glyph glyph-name="uni2093" unicode="&#x2093;" horiz-adv-x="638" 
d="M475 -135l-156 198h-4l-153 -198h-146l228 307l-226 293h150l149 -197l152 197h147l-225 -291l232 -309h-148z" />
    <glyph glyph-name="dong" unicode="&#x20ab;" horiz-adv-x="1247" 
d="M1092 1294h141v-133h-141v-1161h-158v158h-4q-61 -81 -149.5 -125.5t-194.5 -44.5q-211 0 -350.5 139.5t-139.5 364.5q0 222 138.5 370t349.5 148q101 0 190 -42t150 -120h2v313h-246v133h246v213h166v-213zM600 139q136 0 234 99.5t98 253.5t-94.5 259t-235.5 105
q-144 0 -241 -100.5t-97 -263.5q0 -153 93 -253t243 -100zM141 -301v154h959v-154h-959z" />
    <glyph glyph-name="Euro" unicode="&#x20ac;" horiz-adv-x="1226" 
d="M1069 242l98 -131q-174 -123 -393 -123q-139 0 -263.5 56.5t-220 175t-130.5 280.5h-133v110h116q-2 23 -2 72q0 26 4 76h-118v112h135q51 228 214 370t398 142q215 0 383 -118l-100 -129q-125 88 -283 88q-152 0 -267 -96.5t-161 -256.5h563v-112h-583q-4 -50 -4 -76
t4 -72h583v-110h-563q46 -163 165 -256.5t263 -93.5q166 0 295 92z" />
    <glyph glyph-name="uni20BA" unicode="&#x20ba;" horiz-adv-x="1107" 
d="M922 449l145 -60q-76 -212 -205 -300.5t-319 -88.5h-363v436l-137 -67l-49 110l186 92v148l-137 -68l-49 111l186 92v584h178v-496l281 137l47 -110l-328 -162v-148l281 138l47 -111l-328 -162v-377h164q159 0 249.5 70.5t150.5 231.5z" />
    <glyph glyph-name="uni2113" unicode="&#x2113;" horiz-adv-x="929" 
d="M823 227l62 -43q-132 -196 -353 -196q-152 0 -235 83.5t-94 229.5q-89 -69 -115 -88l-37 53q8 6 65 51t85 68l4 549q1 124 26 215t71 142.5t102 75.5t126 24q101 0 163.5 -82.5t62.5 -216.5q0 -297 -391 -660v-47q0 -88 18 -151.5t49 -97t65 -48t74 -14.5q72 0 138.5 45
t113.5 108zM545 1298q-36 0 -66.5 -17t-57.5 -55t-42 -109t-14 -169v-424q157 157 237 294t80 267q0 105 -38 159t-99 54z" />
    <glyph glyph-name="uni2116" unicode="&#x2116;" horiz-adv-x="2267" 
d="M1837 844q-140 0 -228.5 88t-88.5 221q0 132 88.5 219.5t228.5 87.5q136 0 226.5 -86t90.5 -221q0 -137 -90 -223t-227 -86zM1186 295v1159h178v-1454h-182l-815 1147h-5v-1147h-178v1454h176l822 -1159h4zM1837 1346q-82 0 -134 -56t-52 -137q0 -83 52 -139t134 -56
q79 0 132.5 55t53.5 140q0 84 -53 138.5t-133 54.5zM1536 725h621v-119h-621v119z" />
    <glyph glyph-name="trademark" unicode="&#x2122;" horiz-adv-x="1398" 
d="M236 793v561h-189v100h490v-100h-191v-561h-110zM637 793v661h115l217 -397l217 397h114v-661h-110v454l-184 -323h-74l-187 323v-454h-108z" />
    <glyph glyph-name="uni2126" unicode="&#x2126;" horiz-adv-x="1597" 
d="M1174 168v-4h282v-164h-545v164q175 101 278 262.5t103 345.5q0 234 -136 379t-357 145t-358.5 -145.5t-137.5 -378.5q0 -184 103 -345.5t278 -262.5v-164h-545v164h285v4q-142 110 -223.5 269.5t-81.5 336.5q0 202 85 359.5t240 245t355 87.5q303 0 490.5 -192.5
t187.5 -499.5q0 -177 -80.5 -336.5t-222.5 -269.5z" />
    <glyph glyph-name="estimated" unicode="&#x212e;" horiz-adv-x="1619" 
d="M811 -20q-147 0 -276.5 52t-219.5 140.5t-142 209.5t-52 255q0 187 93 338.5t250.5 235t346.5 83.5q147 0 275.5 -52t218.5 -140.5t142 -209.5t52 -255v-19h-1100v-423q77 -80 188.5 -118t223.5 -38q129 0 248 46.5t190 127.5h86q-89 -108 -230.5 -170.5t-293.5 -62.5z
M399 684h815v412q-71 71 -179 104t-224 33t-227.5 -36.5t-182.5 -104.5z" />
    <glyph glyph-name="oneeighth" unicode="&#x215b;" horiz-adv-x="1660" 
d="M1026 1479l135 -60l-635 -1454l-135 58zM414 612h-144v664l-161 -111l-70 111l262 180h113v-844zM1432 459q71 -25 119 -84.5t48 -141.5q0 -111 -90 -178t-223 -67q-137 0 -226 68t-89 177q0 81 48 141t118 85q-46 16 -81.5 65t-35.5 111q0 102 75.5 160.5t190.5 58.5
q116 0 190 -59t74 -160q0 -62 -36 -111t-82 -65zM1284 737q-60 1 -99.5 -32.5t-39.5 -81.5q0 -50 39 -81.5t100 -31.5q62 0 100.5 31t38.5 82t-39 82.5t-100 31.5zM1284 111q76 0 125 39.5t49 99.5q0 62 -49 101.5t-125 39.5q-74 -2 -122 -41t-48 -100t49 -100t121 -39z" />
    <glyph glyph-name="threeeighths" unicode="&#x215c;" horiz-adv-x="1792" 
d="M1155 1479l135 -60l-635 -1454l-135 58zM651 840q0 -107 -81.5 -173.5t-213.5 -66.5q-115 0 -198.5 50.5t-116.5 131.5l129 52q45 -105 176 -105q73 0 115.5 35.5t42.5 97.5q0 56 -46 91.5t-126 35.5h-70v111h84q66 0 106 32.5t40 81.5q0 57 -40.5 90t-109.5 33
q-104 0 -149 -82l-119 66q34 65 104.5 105t165.5 40q123 0 203 -60t80 -165q0 -131 -115 -190v-4q139 -57 139 -207zM1563 459q71 -25 119.5 -84.5t48.5 -141.5q0 -111 -90.5 -178t-223.5 -67q-137 0 -226 68t-89 177q0 81 48 141t118 85q-46 16 -81.5 65t-35.5 111
q0 102 75.5 160.5t190.5 58.5q116 0 190 -59t74 -160q0 -62 -36 -111t-82 -65zM1415 737q-60 1 -99.5 -32.5t-39.5 -81.5q0 -50 39 -81.5t100 -31.5q62 0 100.5 31t38.5 82t-39 82.5t-100 31.5zM1415 111q76 0 125 39.5t49 99.5q0 62 -49 101.5t-125 39.5q-74 -2 -122 -41
t-48 -100t49 -100t121 -39z" />
    <glyph glyph-name="fiveeighths" unicode="&#x215d;" horiz-adv-x="1792" 
d="M1155 1479l135 -60l-635 -1454l-135 58zM659 883q0 -127 -90 -205t-225 -78q-196 0 -303 137l109 86q62 -92 182 -92q77 0 128.5 41.5t51.5 112.5q0 76 -49.5 115.5t-128.5 39.5q-87 0 -139 -49l-82 29l26 436h475v-131h-354l-14 -199q73 25 131 25q119 0 200.5 -74
t81.5 -194zM1563 459q71 -25 119.5 -84.5t48.5 -141.5q0 -111 -90.5 -178t-223.5 -67q-137 0 -226 68t-89 177q0 81 48 141t118 85q-46 16 -81.5 65t-35.5 111q0 102 75.5 160.5t190.5 58.5q116 0 190 -59t74 -160q0 -62 -36 -111t-82 -65zM1415 737q-60 1 -99.5 -32.5
t-39.5 -81.5q0 -50 39 -81.5t100 -31.5q62 0 100.5 31t38.5 82t-39 82.5t-100 31.5zM1415 111q76 0 125 39.5t49 99.5q0 62 -49 101.5t-125 39.5q-74 -2 -122 -41t-48 -100t49 -100t121 -39z" />
    <glyph glyph-name="seveneighths" unicode="&#x215e;" horiz-adv-x="1648" 
d="M1012 1479l135 -60l-635 -1454l-135 58zM608 1456v-100l-325 -762l-146 31l314 698h-394v133h551zM1419 459q71 -25 119.5 -84.5t48.5 -141.5q0 -111 -90 -178t-223 -67q-137 0 -226.5 68t-89.5 177q0 81 48 141t118 85q-46 16 -81 65t-35 111q0 102 75.5 160.5
t190.5 58.5q116 0 190 -59t74 -160q0 -62 -36 -111t-83 -65zM1272 737q-60 1 -99.5 -32.5t-39.5 -81.5q0 -50 39 -81.5t100 -31.5q62 0 100.5 31t38.5 82t-39 82.5t-100 31.5zM1272 111q76 0 125 39.5t49 99.5q0 62 -49 101.5t-125 39.5q-74 -2 -122 -41t-48 -100t49 -100
t121 -39z" />
    <glyph glyph-name="arrowleft" unicode="&#x2190;" horiz-adv-x="1280" 
d="M547 150l-547 397l547 399l-2 -323h641v-152h-641z" />
    <glyph glyph-name="arrowup" unicode="&#x2191;" horiz-adv-x="1159" 
d="M977 639l-322 2v-641h-151v641l-324 -2l400 547z" />
    <glyph glyph-name="arrowright" unicode="&#x2192;" horiz-adv-x="1280" 
d="M733 150l2 321h-641v152h641l-2 323l547 -399z" />
    <glyph glyph-name="arrowdown" unicode="&#x2193;" horiz-adv-x="1159" 
d="M977 547l-397 -547l-400 547l324 -2v641h151v-641z" />
    <glyph glyph-name="arrowboth" unicode="&#x2194;" horiz-adv-x="1724" 
d="M1724 547l-546 -397l2 321h-635l2 -321l-547 397l547 399l-2 -323h635l-2 323z" />
    <glyph glyph-name="arrowupdn" unicode="&#x2195;" horiz-adv-x="1157" 
d="M653 866v-637l324 2l-399 -546l-398 546l322 -2v637l-322 -2l398 547l399 -547z" />
    <glyph glyph-name="uni2196" unicode="&#x2196;" horiz-adv-x="1171" 
d="M248 344l-107 668l670 -105l-231 -227l452 -455l-106 -106l-453 452z" />
    <glyph glyph-name="uni2197" unicode="&#x2197;" horiz-adv-x="1171" 
d="M926 344l-226 227l-452 -452l-107 106l453 455l-232 227l670 105z" />
    <glyph glyph-name="uni2198" unicode="&#x2198;" horiz-adv-x="1171" 
d="M365 254l227 225l-453 453l107 106l454 -452l228 231l104 -670z" />
    <glyph glyph-name="uni2199" unicode="&#x2199;" horiz-adv-x="1171" 
d="M807 254l-668 -107l105 670l227 -231l455 452l106 -106l-452 -453z" />
    <glyph glyph-name="partialdiff" unicode="&#x2202;" horiz-adv-x="1181" 
d="M571 1419q86 0 158.5 -29.5t123.5 -79t91.5 -118t65 -141.5t41 -155.5t22.5 -154.5t6 -143q0 -151 -38 -269t-105.5 -192t-156.5 -111.5t-195 -37.5q-211 0 -348.5 127t-137.5 325q0 209 128.5 333t320.5 124q109 0 199.5 -37t152.5 -106h2q-54 506 -356 506
q-47 0 -105.5 -15t-89 -27t-102.5 -42l-51 149q206 94 374 94zM588 156q139 0 228 102.5t93 282.5q-51 86 -139 143t-197 57q-134 0 -214 -80t-80 -217q0 -122 86 -205t223 -83z" />
    <glyph glyph-name="emptyset" unicode="&#x2205;" horiz-adv-x="1443" 
d="M1196 1044q141 -170 141 -393q0 -166 -81 -308.5t-223.5 -227t-311.5 -84.5q-224 0 -395 145l-93 -92l-73 74l92 92q-146 173 -146 401q0 166 81.5 308.5t224 227.5t311.5 85q226 0 399 -150l82 82l76 -76zM242 649q0 -175 106 -303l678 680q-131 109 -303 109
q-133 0 -244 -66t-174 -177.5t-63 -242.5zM721 168q131 0 241.5 65.5t174 176.5t63.5 241q0 167 -100 297l-678 -676q129 -104 299 -104z" />
    <glyph glyph-name="uni2206" unicode="&#x2206;" horiz-adv-x="1366" 
d="M772 1454l518 -1315v-139h-145h-1049h-20v139l514 1315h182zM279 164h804l-399 1067h-4z" />
    <glyph glyph-name="product" unicode="&#x220f;" horiz-adv-x="1423" 
d="M178 -209v1663h1067v-1663h-178v1499h-711v-1499h-178z" />
    <glyph glyph-name="summation" unicode="&#x2211;" horiz-adv-x="1234" 
d="M1143 1454v-162h-795l428 -651l-428 -651h795v-164h-1030v131l458 684l-458 680v133h1030z" />
    <glyph glyph-name="minus" unicode="&#x2212;" horiz-adv-x="1193" 
d="M119 489v154h958v-154h-958z" />
    <glyph glyph-name="radical" unicode="&#x221a;" horiz-adv-x="1423" 
d="M1380 1683h148l-768 -1683h-123l-342 1022h-225v149h350l303 -931h4z" />
    <glyph glyph-name="infinity" unicode="&#x221e;" horiz-adv-x="1595" 
d="M1147 897q137 0 232.5 -96.5t95.5 -237.5q0 -143 -96.5 -237.5t-231.5 -94.5q-200 0 -350 215q-153 -215 -348 -215q-138 0 -234 96.5t-96 235.5q0 145 97.5 239.5t232.5 94.5q196 0 348 -217q157 217 350 217zM451 367q128 0 260 196q-64 94 -126 146.5t-134 52.5
q-81 0 -137 -56.5t-56 -142.5q0 -85 56 -140.5t137 -55.5zM1149 367q75 0 130.5 56t55.5 140q0 86 -55 142.5t-131 56.5q-134 0 -266 -199q64 -91 128.5 -143.5t137.5 -52.5z" />
    <glyph glyph-name="integral" unicode="&#x222b;" horiz-adv-x="735" 
d="M88 -344q-49 -6 -143 2l16 129h19q20 0 36 1t30 5.5t24 7.5t19 13.5t15 17t12 23.5t9.5 27.5t8.5 35.5t8 41t8 49l169 1139q20 129 76.5 198t141.5 78q51 2 108.5 -4t61.5 -6l-17 -121h-47q-21 0 -36.5 -1t-29.5 -5t-23.5 -6.5t-19 -13t-15 -16t-11.5 -23t-9.5 -28
t-9 -36.5t-8 -42t-8.5 -52l-172 -1141q-18 -125 -73.5 -193t-139.5 -79z" />
    <glyph glyph-name="uni2236" unicode="&#x2236;" horiz-adv-x="483" 
d="M240 899q-51 0 -85 33.5t-34 81.5q0 50 34 83t85 33q48 0 82 -33.5t34 -82.5q0 -47 -34.5 -81t-81.5 -34zM240 111q-51 0 -85 33t-34 81q0 50 34 83.5t85 33.5q48 0 82 -34t34 -83q0 -47 -34.5 -80.5t-81.5 -33.5z" />
    <glyph glyph-name="approxequal" unicode="&#x2248;" horiz-adv-x="1214" 
d="M840 659q-60 0 -133 25.5t-148.5 51.5t-140.5 26q-127 0 -246 -82l-47 119q39 36 116.5 74t164.5 38q72 0 146 -25t143 -50t130 -25q107 0 213 94l52 -119q-118 -127 -250 -127zM840 213q-71 0 -207 50t-215 50q-130 0 -246 -80l-47 117q37 38 115 76.5t166 38.5
q72 0 146 -25t143 -50t130 -25q107 0 213 94l52 -119q-114 -127 -250 -127z" />
    <glyph glyph-name="notequal" unicode="&#x2260;" horiz-adv-x="1193" 
d="M1077 721h-342l-145 -309h487v-154h-559l-117 -252l-114 47l96 205h-264v154h336l143 309h-479v153h551l123 263l114 -47l-100 -216h270v-153z" />
    <glyph glyph-name="lessequal" unicode="&#x2264;" horiz-adv-x="1189" 
d="M1047 305l-922 420v123l922 424v-170l-693 -314l693 -315v-168zM1049 0h-928v154h928v-154z" />
    <glyph glyph-name="greaterequal" unicode="&#x2265;" horiz-adv-x="1189" 
d="M143 305v168l693 315l-693 314v170l922 -424v-123zM141 0v154h928v-154h-928z" />
    <glyph glyph-name="filledbox" unicode="&#x25a0;" horiz-adv-x="1316" 
d="M92 0v1128h1131v-1128h-1131z" />
    <glyph glyph-name="uni25A1" unicode="&#x25a1;" horiz-adv-x="1316" 
d="M92 0v1128h1131v-1128h-1131zM229 137h856v854h-856v-854z" />
    <glyph glyph-name="triagup" unicode="&#x25b2;" horiz-adv-x="1314" 
d="M14 0l643 1188l641 -1188h-1284z" />
    <glyph glyph-name="uni25B3" unicode="&#x25b3;" horiz-adv-x="1314" 
d="M14 0l643 1188l641 -1188h-1284zM246 137h821l-410 760z" />
    </font>
</defs>
</svg>
