<?xml version="1.0" standalone="no"?>
<!DOCTYPE svg PUBLIC "-//W3C//DTD SVG 1.1//EN" "http://www.w3.org/Graphics/SVG/1.1/DTD/svg11.dtd" >
<svg xmlns="http://www.w3.org/2000/svg" xmlns:xlink="http://www.w3.org/1999/xlink" version="1.1">
<metadata>
Created by FontForge 20170731 at Wed Dec 14 14:18:51 2022
 By Aleksey,,,
Copyright (c) 2015 by Kostas Bartsokas. All rights reserved.
</metadata>
<defs>
<font id="Averta-Semibold" horiz-adv-x="1200" >
  <font-face 
    font-family="Averta Semibold"
    font-weight="600"
    font-stretch="normal"
    units-per-em="2048"
    panose-1="0 0 7 0 0 0 0 0 0 0"
    ascent="1581"
    descent="-467"
    x-height="999"
    cap-height="1454"
    bbox="-465 -526 2922 2013"
    underline-thickness="100"
    underline-position="-274"
    unicode-range="U+0020-2E18"
  />
<missing-glyph horiz-adv-x="919" 
 />
    <glyph glyph-name=".notdef" horiz-adv-x="919" 
 />
    <glyph glyph-name=".null" horiz-adv-x="0" 
 />
    <glyph glyph-name="nonmarkingreturn" horiz-adv-x="682" 
 />
    <glyph glyph-name="space" unicode=" " horiz-adv-x="548" 
 />
    <glyph glyph-name="exclam" unicode="!" horiz-adv-x="552" 
d="M193 459l-41 1048h260l-41 -1048h-178zM276 -16q-65 0 -110 44t-45 107t45.5 108.5t109.5 45.5q63 0 108.5 -45.5t45.5 -108.5t-45.5 -107t-108.5 -44z" />
    <glyph glyph-name="quotedbl" unicode="&#x22;" horiz-adv-x="792" 
d="M66 936l63 518h246l-123 -518h-186zM418 936l63 518h246l-123 -518h-186z" />
    <glyph glyph-name="numbersign" unicode="#" horiz-adv-x="1308" 
d="M240 -84l61 397h-225v174h252l47 301h-252v173h278l60 382h157l-59 -382h301l60 382h157l-57 -382h233l-2 -173h-260l-45 -301h256v-174h-282l-62 -397h-158l62 397h-301l-62 -397h-159zM485 487h303l46 301h-302z" />
    <glyph glyph-name="dollar" unicode="$" horiz-adv-x="1173" 
d="M1087 389q0 -163 -102.5 -267t-282.5 -126v-246h-186v248q-238 32 -414 205l146 174q83 -80 182 -121t193 -41q92 0 148 42.5t56 113.5q0 79 -58.5 121.5t-201.5 87.5q-58 18 -96 31t-88.5 34t-82.5 41.5t-67 50.5t-54.5 64t-32.5 79.5t-13 98.5q0 158 101.5 263
t281.5 122v256h186v-268q206 -41 349 -158l-140 -172q-80 58 -165.5 87.5t-159.5 29.5q-90 0 -142.5 -38.5t-52.5 -105.5t57.5 -106t188.5 -80q67 -21 109.5 -36t95.5 -37.5t85 -43.5t66 -52t52 -66t30 -82t12 -103z" />
    <glyph glyph-name="percent" unicode="%" horiz-adv-x="2095" 
d="M821 -45l-184 80l643 1450l184 -80zM506 657q-174 0 -294 113.5t-120 294.5q0 171 115.5 288t298.5 117q173 0 292.5 -113t119.5 -292q0 -171 -115.5 -289.5t-296.5 -118.5zM506 831q97 0 158 67t61 165q0 101 -62.5 165t-156.5 64q-95 0 -155 -66t-60 -163
q0 -101 62 -166.5t153 -65.5zM1589 -16q-173 0 -292 114t-119 293q0 171 115 288.5t296 117.5q174 0 294 -113.5t120 -292.5q0 -171 -116 -289t-298 -118zM1591 160q97 0 158 66t61 163q0 101 -63 165t-156 64q-97 0 -158 -66t-61 -163q0 -101 63 -165t156 -64z" />
    <glyph glyph-name="ampersand" unicode="&#x26;" horiz-adv-x="1372" 
d="M1051 0l-90 113h-5q-147 -129 -381 -129q-132 0 -239.5 54.5t-170.5 155.5t-63 230q0 139 73 248.5t194 179.5l-162 203q22 180 147 297.5t301 117.5q74 0 140 -18t113 -46t87.5 -67.5t66 -75.5t46.5 -77l-197 -76q-18 32 -36 56t-46 48.5t-66.5 37.5t-86.5 14
q-96 0 -153 -52t-74 -127l516 -643h2q57 117 57 246l223 4q0 -255 -129 -440v-2l203 -252h-270zM342 438q0 -104 71.5 -169.5t186.5 -65.5q131 0 227 71v5l-325 407q-77 -40 -118.5 -107t-41.5 -141z" />
    <glyph glyph-name="quotesingle" unicode="'" horiz-adv-x="440" 
d="M66 936l63 518h246l-123 -518h-186z" />
    <glyph glyph-name="parenleft" unicode="(" horiz-adv-x="624" 
d="M352 -315q-239 395 -239 919q0 264 63.5 503t181.5 421l174 -80q-99 -180 -152.5 -397t-53.5 -447q0 -448 202 -842z" />
    <glyph glyph-name="parenright" unicode=")" horiz-adv-x="624" 
d="M272 -315l-176 77q203 396 203 842q0 229 -54 446.5t-153 397.5l174 80q118 -183 182 -421.5t64 -502.5q0 -522 -240 -919z" />
    <glyph glyph-name="asterisk" unicode="*" horiz-adv-x="833" 
d="M344 791l8 221l-184 -117l-74 127l195 98l-197 105l76 127l184 -117l-8 219h145l-10 -219l189 115l71 -125l-194 -103l194 -100l-71 -127l-185 117l6 -221h-145z" />
    <glyph glyph-name="plus" unicode="+" horiz-adv-x="1183" 
d="M485 86v377h-379v209h379v379h211v-379h379v-209h-379v-377h-211z" />
    <glyph glyph-name="comma" unicode="," horiz-adv-x="487" 
d="M55 -270l66 518h246l-144 -518h-168z" />
    <glyph glyph-name="hyphen" unicode="-" horiz-adv-x="833" 
d="M109 520v223h616v-223h-616z" />
    <glyph glyph-name="period" unicode="." horiz-adv-x="552" 
d="M276 -16q-65 0 -110 44t-45 107t45.5 108.5t109.5 45.5q63 0 108.5 -45.5t45.5 -108.5t-45.5 -107t-108.5 -44z" />
    <glyph glyph-name="slash" unicode="/" horiz-adv-x="880" 
d="M115 -229l-183 84l785 1747l180 -84z" />
    <glyph glyph-name="zero" unicode="0" horiz-adv-x="1294" 
d="M647 -16q-243 0 -392 191t-149 527q0 324 145.5 521.5t395.5 197.5q243 0 392 -190.5t149 -528.5q0 -323 -145 -520.5t-396 -197.5zM647 205q141 0 220 131t79 366t-80 367.5t-219 132.5t-219 -132.5t-80 -367.5q0 -231 81.5 -364t217.5 -133z" />
    <glyph glyph-name="one" unicode="1" horiz-adv-x="817" 
d="M403 0v1122l-253 -190l-113 176l412 299h192v-1407h-238z" />
    <glyph glyph-name="two" unicode="2" horiz-adv-x="1089" 
d="M440 217h549v-217h-903l-4 158l453 477q99 105 148.5 183.5t49.5 162.5q0 95 -60 157t-155 62q-174 0 -268 -166l-170 121q64 122 178 194t277 72q117 0 216 -48.5t161.5 -144t62.5 -220.5q0 -121 -52.5 -231.5t-181.5 -244.5l-301 -313v-2z" />
    <glyph glyph-name="three" unicode="3" horiz-adv-x="1126" 
d="M793 729q106 -47 166.5 -137t60.5 -211q0 -178 -131.5 -287.5t-335.5 -109.5q-179 0 -310.5 82.5t-185.5 216.5l205 90q33 -80 102.5 -124t172.5 -44q102 0 171.5 58t69.5 151q0 89 -69 150t-195 61h-106v200h129q103 0 153.5 53t50.5 134q0 83 -61 136.5t-150 53.5
q-154 0 -231 -123l-190 103q53 108 165.5 173.5t262.5 65.5q191 0 317.5 -99.5t126.5 -272.5q0 -104 -50 -187t-138 -131v-2z" />
    <glyph glyph-name="four" unicode="4" horiz-adv-x="1183" 
d="M680 0v238h-614v161l653 1008h199v-958h194v-211h-194v-238h-238zM342 442h346v564z" />
    <glyph glyph-name="five" unicode="5" horiz-adv-x="1155" 
d="M606 903q189 0 317 -123t128 -329q0 -208 -137.5 -337.5t-360.5 -129.5q-146 0 -271 59t-208 168l172 137q46 -67 120.5 -106t165.5 -39q126 0 201.5 71t75.5 181q0 112 -82 177.5t-190 65.5q-140 0 -230 -73l-129 45l41 737h762v-217h-539l-18 -318q102 31 182 31z" />
    <glyph glyph-name="six" unicode="6" horiz-adv-x="1208" 
d="M672 897q190 0 313 -121.5t123 -331.5q0 -199 -144 -329.5t-358 -130.5q-215 0 -358.5 157t-143.5 410q0 172 56 326.5t154 270.5t232.5 195t289.5 107l75 -199q-410 -114 -526 -430h2q124 76 285 76zM623 205q108 0 177.5 71.5t69.5 172.5q0 102 -71 167.5t-187 65.5
q-84 0 -156 -39.5t-120 -101.5v-19q0 -138 83.5 -227.5t203.5 -89.5z" />
    <glyph glyph-name="seven" unicode="7" horiz-adv-x="1011" 
d="M47 1407h875v-158l-516 -1278l-240 45l489 1174h-608v217z" />
    <glyph glyph-name="eight" unicode="8" horiz-adv-x="1179" 
d="M852 760q107 -41 175.5 -138t68.5 -235q0 -121 -67.5 -213t-182 -140t-256.5 -48q-219 0 -360.5 111.5t-141.5 289.5q0 138 67.5 234.5t174.5 138.5v2q-67 30 -119.5 112.5t-52.5 184.5q0 169 121 265.5t311 96.5q194 0 315 -98.5t121 -263.5q0 -101 -53 -184t-121 -111
v-4zM590 1212q-90 0 -148.5 -52t-58.5 -124q0 -78 58 -126t149 -48q93 0 151 48t58 126q0 75 -59.5 125.5t-149.5 50.5zM590 197q115 0 188.5 65t73.5 156q0 100 -72.5 163.5t-189.5 63.5q-116 0 -188 -63.5t-72 -163.5q0 -93 75.5 -157t184.5 -64z" />
    <glyph glyph-name="nine" unicode="9" horiz-adv-x="1196" 
d="M592 1421q214 0 358 -155t144 -400q0 -178 -57.5 -336t-157.5 -275t-235.5 -196t-291.5 -108l-76 199q418 116 537 432l-2 2q-127 -76 -285 -76q-189 0 -312.5 122.5t-123.5 330.5q0 201 144 330.5t358 129.5zM330 958q0 -104 69.5 -168.5t186.5 -64.5q82 0 154 39
t122 100v21q0 141 -74.5 229t-191.5 88q-118 0 -192 -71.5t-74 -172.5z" />
    <glyph glyph-name="colon" unicode=":" horiz-adv-x="552" 
d="M268 709q-65 0 -110 44t-45 107t45.5 108.5t109.5 45.5q63 0 108.5 -45.5t45.5 -108.5t-45.5 -107t-108.5 -44zM268 -16q-65 0 -110 44t-45 107t45.5 108.5t109.5 45.5q63 0 108.5 -45.5t45.5 -108.5t-45.5 -107t-108.5 -44z" />
    <glyph glyph-name="semicolon" unicode=";" horiz-adv-x="507" 
d="M242 709q-65 0 -110.5 44t-45.5 107t46 108.5t110 45.5q63 0 108 -45.5t45 -108.5t-45 -107t-108 -44zM55 -270l66 518h246l-144 -518h-168z" />
    <glyph glyph-name="less" unicode="&#x3c;" horiz-adv-x="1189" 
d="M1059 63l-942 412v172l942 420v-231l-633 -273l633 -272v-228z" />
    <glyph glyph-name="equal" unicode="=" horiz-adv-x="1210" 
d="M139 696v209h969v-209h-969zM139 229v209h969v-209h-969z" />
    <glyph glyph-name="greater" unicode="&#x3e;" horiz-adv-x="1189" 
d="M131 63v228l633 272l-633 273v231l942 -420v-172z" />
    <glyph glyph-name="question" unicode="?" horiz-adv-x="948" 
d="M297 459v102q0 21 2 40.5t10 40t13 34.5t20 35.5t20.5 31t26.5 32.5t26 28.5t30 31.5t28 29q64 69 97.5 126t33.5 126q0 85 -51 132.5t-133 47.5q-60 0 -119 -32t-96 -88l-172 159q71 90 175.5 139.5t229.5 49.5q84 0 159 -25.5t135 -73t95 -124.5t35 -173
q0 -109 -48 -192.5t-132 -165.5q-15 -15 -49 -45t-49.5 -46t-36.5 -40t-30.5 -46t-10.5 -44l-6 -90h-203zM403 -16q-65 0 -110 44t-45 107t45.5 108.5t109.5 45.5q63 0 108.5 -45.5t45.5 -108.5t-45.5 -107t-108.5 -44z" />
    <glyph glyph-name="at" unicode="@" horiz-adv-x="1843" 
d="M1358 954l-55 -536q-3 -30 -3 -51q0 -59 18.5 -81t57.5 -22q60 0 107 59t68.5 134t21.5 143q0 121 -42 228t-117 186.5t-185 125.5t-240 46q-125 0 -232.5 -30.5t-185 -84t-137 -122t-95 -148t-53.5 -159t-18 -157.5q0 -168 80.5 -310t214 -223t287.5 -81q214 0 424 104
l76 -125q-225 -149 -500 -149q-213 0 -386 101t-272.5 281t-99.5 404q0 76 14.5 156t47.5 165.5t81.5 163t122 147t163 120.5t210 81t258.5 30q229 0 403.5 -98t266.5 -267t92 -383q0 -62 -11.5 -126.5t-43 -136.5t-79.5 -127t-128.5 -91.5t-181.5 -36.5q-121 0 -189 80
q-24 30 -37 88h-2q-43 -71 -113.5 -109.5t-158.5 -38.5q-152 0 -247 108t-95 282q0 56 12.5 116.5t42.5 125.5t73.5 116t112.5 84t152 33t147 -38.5t103 -109.5h2l14 133h234zM877 311q98 0 161.5 76t63.5 176q0 87 -50 143t-124 56q-99 0 -164.5 -73t-65.5 -175
q0 -90 51 -146.5t128 -56.5z" />
    <glyph glyph-name="A" unicode="A" horiz-adv-x="1427" 
d="M1122 0l-110 313h-594l-109 -313h-258l543 1454h242l544 -1454h-258zM494 526h444l-221 631h-4z" />
    <glyph glyph-name="B" unicode="B" horiz-adv-x="1327" 
d="M942 768q132 -32 210.5 -127.5t78.5 -241.5q0 -180 -122 -289.5t-355 -109.5h-576v1454h506q228 0 350.5 -89t122.5 -265q0 -108 -54 -198t-161 -132v-2zM426 1233v-381h236q102 0 172.5 48t70.5 144q0 90 -65.5 140t-202.5 49h-211zM680 221q135 2 214 53.5t79 151.5
q0 99 -74.5 156t-214.5 57h-258v-418h254z" />
    <glyph glyph-name="C" unicode="C" horiz-adv-x="1492" 
d="M846 -12q-149 0 -281 48.5t-233 139t-160 232t-59 315.5q0 156 49 291.5t140 237t231.5 160t312.5 58.5q158 0 308 -68.5t265 -209.5l-182 -154q-74 90 -176 144.5t-215 54.5q-212 0 -343.5 -142t-131.5 -372q0 -223 133.5 -363.5t341.5 -140.5q118 0 218 54t173 145
l182 -156q-100 -125 -245.5 -199.5t-327.5 -74.5z" />
    <glyph glyph-name="D" unicode="D" horiz-adv-x="1507" 
d="M178 0v1454h463q170 0 312 -53.5t239.5 -149.5t151 -231t53.5 -295t-52 -294t-147.5 -229.5t-237 -148.5t-313.5 -53h-469zM426 221h207q227 0 367.5 142t140.5 362q0 222 -138.5 365t-357.5 143h-219v-1012z" />
    <glyph glyph-name="E" unicode="E" horiz-adv-x="1243" 
d="M178 0v1454h916v-221h-668v-402h539v-221h-539v-389h711v-221h-959z" />
    <glyph glyph-name="F" unicode="F" horiz-adv-x="1218" 
d="M178 0v1454h950v-221h-702v-434h590v-224h-590v-575h-248z" />
    <glyph glyph-name="G" unicode="G" horiz-adv-x="1554" 
d="M846 -12q-210 0 -375 87t-261.5 256t-96.5 394q0 160 50.5 297t143 236t229.5 155.5t302 56.5q159 0 308 -60t259 -179l-174 -152q-161 158 -395 158q-201 0 -333 -140t-132 -372q0 -145 57.5 -261t166.5 -183.5t251 -67.5q180 0 323 96v246h-356v221h602v-606
q-101 -84 -252 -133t-317 -49z" />
    <glyph glyph-name="H" unicode="H" horiz-adv-x="1507" 
d="M178 0v1454h248v-649h657v649h246v-1454h-246v584h-657v-584h-248z" />
    <glyph glyph-name="I" unicode="I" horiz-adv-x="622" 
d="M186 0v1454h248v-1454h-248z" />
    <glyph glyph-name="J" unicode="J" horiz-adv-x="1038" 
d="M449 -12q-108 0 -213 47t-173 135l140 180q44 -53 108 -91t127 -38q197 0 197 279v954h248v-956q0 -249 -103 -379.5t-331 -130.5z" />
    <glyph glyph-name="K" unicode="K" horiz-adv-x="1359" 
d="M594 606h-4l-164 -194v-412h-248v1454h248v-696h4l557 696h316l-547 -649l563 -805h-307z" />
    <glyph glyph-name="L" unicode="L" horiz-adv-x="1173" 
d="M178 0v1454h248v-1233h674v-221h-922z" />
    <glyph glyph-name="M" unicode="M" horiz-adv-x="1814" 
d="M1389 1454h247v-1454h-247v975h-3l-399 -694h-162l-397 694h-2v-975h-248v1454h248l479 -870h4z" />
    <glyph glyph-name="N" unicode="N" horiz-adv-x="1562" 
d="M1139 1454h245v-1454h-251l-707 1030v-1030h-248v1454h246l711 -1044h4v1044z" />
    <glyph glyph-name="O" unicode="O" horiz-adv-x="1693" 
d="M848 -16q-214 0 -382.5 96t-260.5 265.5t-92 381.5t92 381.5t260.5 265.5t382.5 96q209 0 375.5 -92.5t262 -262.5t95.5 -388q0 -163 -55.5 -302t-153 -235.5t-233 -151t-291.5 -54.5zM848 215q202 0 338.5 145.5t136.5 366.5q0 222 -136 367t-339 145
q-139 0 -249.5 -68.5t-170 -185t-59.5 -258.5t59.5 -258.5t170 -185t249.5 -68.5z" />
    <glyph glyph-name="P" unicode="P" horiz-adv-x="1288" 
d="M178 0v1454h527q127 0 224 -35.5t155.5 -99.5t88 -148.5t29.5 -187.5q0 -229 -141.5 -347t-384.5 -118h-250v-518h-248zM426 741h225q147 0 221 67t74 179q0 116 -71.5 181t-204.5 65h-244v-492z" />
    <glyph glyph-name="Q" unicode="Q" horiz-adv-x="1736" 
d="M1622 133l-139 -176l-185 168q-193 -141 -450 -141q-214 0 -382.5 96t-260.5 265.5t-92 381.5t92 381.5t260.5 265.5t382.5 96q209 0 375.5 -92.5t262 -262.5t95.5 -388q0 -252 -129 -442zM848 215q150 0 266 80l-145 133l137 166l151 -135q66 120 66 268
q0 142 -58.5 258.5t-168 185t-248.5 68.5q-204 0 -341.5 -145t-137.5 -367t137.5 -367t341.5 -145z" />
    <glyph glyph-name="R" unicode="R" horiz-adv-x="1349" 
d="M1266 0h-297l-348 518h-195v-518h-248v1454h537q127 0 223.5 -35.5t155.5 -99.5t88.5 -148.5t29.5 -187.5q0 -176 -83.5 -286t-235.5 -152v-6zM426 1233v-492h236q144 0 219 67t75 179q0 116 -72.5 181t-205.5 65h-252z" />
    <glyph glyph-name="S" unicode="S" horiz-adv-x="1210" 
d="M612 -16q-144 0 -279.5 57t-246.5 172l156 190q76 -92 175.5 -141t196.5 -49q117 0 179.5 47.5t62.5 128.5q0 38 -13 67.5t-32 50.5t-59 42t-76 36t-101 38q-78 28 -132 51t-117 61.5t-101 81.5t-64 107t-26 141q0 169 135.5 287t325.5 118q254 3 481 -178l-147 -194
q-181 149 -334 149q-88 0 -146 -45.5t-59 -124.5q0 -26 6 -47t26 -40.5t36 -32t57 -31t65 -28t83 -32.5q181 -71 241 -104q136 -74 181 -184q28 -68 28 -158q0 -87 -30 -160.5t-79.5 -123.5t-115 -85t-135.5 -51t-142 -16z" />
    <glyph glyph-name="T" unicode="T" horiz-adv-x="1206" 
d="M477 0v1233h-411v221h1077v-221h-418v-1233h-248z" />
    <glyph glyph-name="U" unicode="U" horiz-adv-x="1472" 
d="M735 -16q-262 0 -419.5 162.5t-157.5 451.5v856h245v-838q0 -177 89 -288t243 -111q149 0 241.5 107.5t92.5 291.5v838h248v-856q0 -284 -155.5 -449t-426.5 -165z" />
    <glyph glyph-name="V" unicode="V" horiz-adv-x="1415" 
d="M1100 1454h266l-543 -1454h-219l-543 1454h267l383 -1100h2z" />
    <glyph glyph-name="W" unicode="W" horiz-adv-x="2119" 
d="M1792 1454h262l-461 -1454h-231l-297 1094h-4l-303 -1094h-232l-460 1454h264l311 -1051h2l287 1051h262l285 -1053h2z" />
    <glyph glyph-name="X" unicode="X" horiz-adv-x="1421" 
d="M1067 0l-354 537h-4l-355 -537h-288l481 729l-471 725h284l351 -532h2l350 532h283l-472 -725l484 -729h-291z" />
    <glyph glyph-name="Y" unicode="Y" horiz-adv-x="1280" 
d="M965 1454h286l-489 -811v-643h-248v643l-485 811h282l326 -563h4z" />
    <glyph glyph-name="Z" unicode="Z" horiz-adv-x="1282" 
d="M430 221h731v-221h-1044v195l717 1036v2h-684v221h1007v-190l-727 -1039v-4z" />
    <glyph glyph-name="bracketleft" unicode="[" horiz-adv-x="681" 
d="M121 -301v1800h459v-176h-256v-1446h256v-178h-459z" />
    <glyph glyph-name="backslash" unicode="\" horiz-adv-x="897" 
d="M766 -229l-782 1747l180 84l784 -1747z" />
    <glyph glyph-name="bracketright" unicode="]" horiz-adv-x="681" 
d="M561 -301h-459v178h256v1446h-256v176h459v-1800z" />
    <glyph glyph-name="asciicircum" unicode="^" horiz-adv-x="962" 
d="M113 1024l280 430h174l283 -430h-201l-170 276l-174 -276h-192z" />
    <glyph glyph-name="underscore" unicode="_" horiz-adv-x="1087" 
d="M-4 -213v158h1096v-158h-1096z" />
    <glyph glyph-name="grave" unicode="`" horiz-adv-x="1030" 
d="M492 1102l-254 297l251 -2l236 -295h-233z" />
    <glyph glyph-name="a" unicode="a" horiz-adv-x="1251" 
d="M883 999h229v-999h-219v133h-4q-112 -149 -318 -149q-210 0 -346.5 141.5t-136.5 370.5q0 225 137.5 371.5t343.5 146.5q196 0 310 -135h4v120zM608 193q120 0 202.5 84.5t82.5 216.5q0 134 -81 223.5t-204 89.5t-204.5 -85.5t-81.5 -227.5q0 -133 79.5 -217t206.5 -84z
" />
    <glyph glyph-name="b" unicode="b" horiz-adv-x="1271" 
d="M698 1014q208 0 346 -146.5t138 -371.5q0 -229 -137 -370.5t-349 -141.5q-208 0 -323 149h-4v-133h-219v1507h229v-628h2q117 135 317 135zM662 193q126 0 206 84.5t80 216.5q0 141 -83 227t-206 86q-128 0 -209 -89t-81 -224q0 -133 84 -217t209 -84z" />
    <glyph glyph-name="c" unicode="c" horiz-adv-x="1089" 
d="M600 -16q-223 0 -366.5 143.5t-143.5 370.5q0 229 145 372.5t373 143.5q121 0 234 -48.5t186 -138.5l-156 -135q-96 115 -251 115q-133 0 -215 -85t-82 -222q0 -138 82.5 -222.5t214.5 -84.5q78 0 144 30t109 76l158 -139q-69 -78 -181.5 -127t-250.5 -49z" />
    <glyph glyph-name="d" unicode="d" horiz-adv-x="1269" 
d="M893 1507h227v-1507h-219v133h-4q-115 -149 -324 -149q-210 0 -347.5 141.5t-137.5 370.5q0 148 63.5 267t173.5 185t246 66q201 0 318 -135h4v628zM608 193q125 0 209 84t84 217q0 135 -81.5 224t-209.5 89q-123 0 -205.5 -86t-82.5 -227q0 -132 80 -216.5t206 -84.5z
" />
    <glyph glyph-name="e" unicode="e" horiz-adv-x="1150" 
d="M1063 512q0 -38 -6 -92h-729q23 -106 98.5 -166.5t185.5 -60.5q156 0 250 116l160 -137q-67 -87 -174 -137.5t-248 -50.5q-221 0 -365.5 143t-144.5 373q0 228 138.5 371t349.5 143q219 0 352 -140.5t133 -361.5zM590 807q-96 0 -165 -53t-93 -150h499
q-23 94 -84.5 148.5t-156.5 54.5z" />
    <glyph glyph-name="f" unicode="f" horiz-adv-x="702" 
d="M186 0v805h-110v194h110v183q0 167 77.5 254.5t225.5 87.5q144 0 250 -70l-51 -192q-109 51 -166 51q-106 0 -106 -156v-158h246v-194h-246v-805h-230z" />
    <glyph glyph-name="g" unicode="g" horiz-adv-x="1243" 
d="M877 999h229v-897q0 -117 -28 -210t-87 -164t-159 -109.5t-236 -38.5q-234 0 -408 105l56 200q97 -51 169.5 -74.5t170.5 -23.5q142 0 219.5 70.5t77.5 175.5v106h-2q-120 -123 -306 -123q-212 0 -349.5 137t-137.5 357t134 362t341 142q184 0 311 -121h5v106zM604 227
q124 0 203.5 82.5t79.5 210.5q0 126 -80.5 205.5t-202.5 79.5q-127 0 -206 -80.5t-79 -208.5q0 -131 80.5 -210t204.5 -79z" />
    <glyph glyph-name="h" unicode="h" horiz-adv-x="1224" 
d="M721 1014q174 0 273.5 -100.5t99.5 -315.5v-598h-230v539q0 144 -54.5 206t-162.5 62q-126 0 -197 -76.5t-71 -222.5v-508h-229v1507h229v-635h2q127 142 340 142z" />
    <glyph glyph-name="i" unicode="i" horiz-adv-x="557" 
d="M279 1147q-64 0 -109 45t-45 108q0 62 45 107t109 45t109.5 -45t45.5 -107q0 -63 -45.5 -108t-109.5 -45zM164 0v999h229v-999h-229z" />
    <glyph glyph-name="j" unicode="j" horiz-adv-x="509" 
d="M256 1147q-64 0 -109 45t-45 108q0 62 45 107t109 45t110 -45t46 -107q0 -63 -46 -108t-110 -45zM94 -422q-57 0 -98 7.5t-96 29.5l39 199q47 -29 90 -29q50 0 82 37.5t32 109.5v1067h230v-1067q0 -169 -78.5 -261.5t-200.5 -92.5z" />
    <glyph glyph-name="k" unicode="k" horiz-adv-x="1095" 
d="M549 420h-4l-166 -184v-236h-229v1507h229v-964l409 456h273l-361 -403l367 -596h-258z" />
    <glyph glyph-name="l" unicode="l" horiz-adv-x="557" 
d="M164 0v1507h229v-1507h-229z" />
    <glyph glyph-name="m" unicode="m" horiz-adv-x="1837" 
d="M1354 1014q168 0 259 -108.5t91 -327.5v-578h-229v520q0 287 -195 287q-100 0 -166.5 -83t-66.5 -226v-498h-230v520q0 138 -50 212.5t-149 74.5q-106 0 -172.5 -82.5t-66.5 -226.5v-498h-229v999h229v-139h2q61 74 142.5 114t168.5 40q212 0 299 -166h4
q63 81 155.5 123.5t203.5 42.5z" />
    <glyph glyph-name="n" unicode="n" horiz-adv-x="1214" 
d="M717 1014q172 0 269 -104t97 -322v-588h-229v528q0 152 -54.5 215.5t-162.5 63.5q-119 0 -188.5 -80t-69.5 -225v-502h-229v999h229v-139h2q62 74 150 114t186 40z" />
    <glyph glyph-name="o" unicode="o" horiz-adv-x="1228" 
d="M614 -16q-233 0 -378.5 145.5t-145.5 368.5q0 147 64.5 264t184.5 184.5t275 67.5q231 0 378 -143.5t147 -372.5q0 -227 -147 -370.5t-378 -143.5zM614 193q123 0 207 86t84 219q0 136 -83 222.5t-208 86.5q-129 0 -209.5 -88t-80.5 -221q0 -129 81.5 -217t208.5 -88z
" />
    <glyph glyph-name="p" unicode="p" horiz-adv-x="1271" 
d="M698 1014q208 0 346 -146.5t138 -371.5q0 -229 -137 -370.5t-349 -141.5q-201 0 -315 139h-2v-529h-229v1405h229v-122q116 137 319 137zM662 193q126 0 206 84.5t80 216.5q0 141 -83 227t-206 86q-128 0 -209 -89t-81 -224q0 -133 84 -217t209 -84z" />
    <glyph glyph-name="q" unicode="q" horiz-adv-x="1261" 
d="M893 999h229v-1405h-229v529h-2q-114 -139 -318 -139q-210 0 -346.5 141.5t-136.5 370.5q0 225 137.5 371.5t343.5 146.5q204 0 320 -137h2v122zM610 193q124 0 207.5 84t83.5 217q0 135 -81.5 224t-209.5 89q-123 0 -204.5 -85.5t-81.5 -227.5q0 -133 79.5 -217
t206.5 -84z" />
    <glyph glyph-name="r" unicode="r" horiz-adv-x="761" 
d="M692 1014h29v-256q-54 4 -70 4q-127 0 -199.5 -81t-72.5 -208v-473h-229v999h229v-151h2q59 80 139.5 123t171.5 43z" />
    <glyph glyph-name="s" unicode="s" horiz-adv-x="919" 
d="M469 -16q-239 0 -403 145l114 172q61 -60 130 -88.5t159 -28.5q65 0 102 27t37 72q0 35 -42 58t-154 62q-70 24 -118.5 48.5t-94.5 62t-69.5 92t-23.5 125.5q0 123 99.5 203t253.5 80q198 0 352 -125l-115 -180q-112 106 -250 106q-40 0 -74 -22t-34 -64q0 -35 39.5 -63
t118.5 -58q14 -5 41 -16q37 -14 54.5 -21.5t48.5 -20.5t46 -21.5t39 -22t35.5 -25l28 -28t24 -33t15.5 -37.5t11 -44.5t3 -51.5q0 -133 -95.5 -218t-277.5 -85z" />
    <glyph glyph-name="t" unicode="t" horiz-adv-x="747" 
d="M446 -16q-132 0 -205 83.5t-73 247.5v490h-123v194h123v332l229 25v-357h293v-194h-293v-467q0 -75 23 -107t74 -32q68 0 147 43l59 -199q-52 -29 -108 -44t-146 -15z" />
    <glyph glyph-name="u" unicode="u" horiz-adv-x="1183" 
d="M813 999h229v-999h-229v131q-59 -71 -139.5 -109t-169.5 -38q-176 0 -275.5 97t-99.5 310v608h229v-546q0 -145 46.5 -202.5t152.5 -57.5t181 86.5t75 240.5v479z" />
    <glyph glyph-name="v" unicode="v" horiz-adv-x="1093" 
d="M807 999h246l-396 -999h-219l-397 999h244l262 -712h2z" />
    <glyph glyph-name="w" unicode="w" horiz-adv-x="1579" 
d="M1298 999h234l-344 -999h-211l-189 629h-2l-188 -629h-207l-344 999h234l215 -657h4l192 657h193l194 -659h4z" />
    <glyph glyph-name="x" unicode="x" horiz-adv-x="1079" 
d="M768 0l-227 315h-2l-230 -315h-254l353 510l-351 489h267l213 -315h2l215 315h264l-348 -491l354 -508h-256z" />
    <glyph glyph-name="y" unicode="y" horiz-adv-x="1095" 
d="M815 999h240l-549 -1405h-242l180 463l-405 942h242l276 -675z" />
    <glyph glyph-name="z" unicode="z" horiz-adv-x="1001" 
d="M911 842l-522 -645v-2h514v-195h-821v162l514 637v6h-479v194h794v-157z" />
    <glyph glyph-name="braceleft" unicode="{" horiz-adv-x="731" 
d="M469 811q0 -93 -26.5 -143t-88.5 -72q67 -23 91 -64.5t24 -152.5v-371q0 -77 26.5 -113t96.5 -36h47v-158h-135q-99 0 -166.5 68.5t-67.5 181.5v397q0 32 -1.5 48.5t-10 40.5t-25.5 36t-50 22t-81 11v176q48 2 81 13.5t50 25t25.5 37.5t10 40t1.5 44v407q0 106 64.5 178
t169.5 72h135v-158h-47q-63 0 -93 -41.5t-30 -93.5v-395z" />
    <glyph glyph-name="bar" unicode="|" horiz-adv-x="647" 
d="M223 -236v1745h199v-1745h-199z" />
    <glyph glyph-name="braceright" unicode="}" horiz-adv-x="731" 
d="M461 842q0 -28 1.5 -44t10 -40t25.5 -37.5t50 -25t81 -13.5v-176q-48 -1 -81 -11t-50 -22t-25.5 -36t-10 -40.5t-1.5 -48.5v-397q0 -113 -67.5 -181.5t-166.5 -68.5h-135v158h47q70 0 96.5 36t26.5 113v371q0 111 24 152.5t91 64.5q-62 22 -88.5 72t-26.5 143v395
q0 52 -30 93.5t-93 41.5h-47v158h135q105 0 169.5 -72t64.5 -178v-407z" />
    <glyph glyph-name="asciitilde" unicode="~" horiz-adv-x="1163" 
d="M276 412l-163 65q39 113 110 180.5t168 67.5q99 0 211 -53q77 -43 143 -43q43 0 80.5 26t61.5 70l164 -55q-36 -116 -109 -187t-164 -71q-41 0 -84 10t-67.5 19.5t-65.5 27.5q-84 41 -139 41q-91 0 -146 -98z" />
    <glyph glyph-name="exclamdown" unicode="&#xa1;" horiz-adv-x="552" 
d="M276 1014q63 0 108.5 -44.5t45.5 -107.5t-45.5 -108t-108.5 -45q-64 0 -109.5 45t-45.5 108t45.5 107.5t109.5 44.5zM193 539h178l41 -1049h-260z" />
    <glyph glyph-name="cent" unicode="&#xa2;" horiz-adv-x="1122" 
d="M1042 270q-55 -63 -141 -108.5t-192 -59.5v-200h-181v196q-195 25 -316.5 165t-121.5 345q0 204 120 343t318 167v199h181v-199q98 -14 183.5 -59.5t145.5 -120.5l-155 -133q-101 113 -256 113q-134 0 -218.5 -86t-84.5 -220q0 -136 84.5 -222.5t218.5 -86.5
q80 0 147.5 30.5t110.5 78.5z" />
    <glyph glyph-name="sterling" unicode="&#xa3;" horiz-adv-x="1159" 
d="M92 0v221h146v447h-119v168h119v100q0 127 33.5 222t93 150.5t132.5 82t160 26.5q119 0 224.5 -51.5t175.5 -146.5l-125 -166q-47 64 -111 99.5t-131 35.5q-97 0 -153 -62.5t-56 -216.5v-73h332v-168h-328v-447h617v-221h-1010z" />
    <glyph glyph-name="currency" unicode="&#xa4;" horiz-adv-x="1044" 
d="M895 793q0 -112 -64 -209l160 -160l-104 -107l-162 162q-92 -61 -209 -61q-113 0 -205 61l-161 -160l-107 107l162 162q-62 94 -62 205q0 110 62 204l-162 164l107 107l161 -162q95 63 207 63t207 -63l162 164l106 -109l-162 -162q64 -97 64 -206zM518 582q88 1 150.5 64
t64.5 149q-1 89 -64 152t-151 63q-88 -2 -150.5 -64.5t-62.5 -148.5q0 -88 62.5 -150.5t150.5 -64.5z" />
    <glyph glyph-name="yen" unicode="&#xa5;" horiz-adv-x="1187" 
d="M1174 1403l-312 -557h168v-144h-250l-53 -96h303v-141h-311v-465h-250v465h-328v141h320l-53 96h-267v144h187l-314 559h285l293 -569h4l291 569z" />
    <glyph glyph-name="brokenbar" unicode="&#xa6;" horiz-adv-x="647" 
d="M223 788v721h199v-721h-199zM223 -233v720h199v-720h-199z" />
    <glyph glyph-name="section" unicode="&#xa7;" horiz-adv-x="1130" 
d="M860 281q121 -88 121 -244q0 -159 -114 -254.5t-302 -95.5q-266 0 -452 192l139 168q68 -73 150.5 -109t158.5 -36q72 0 119 35.5t47 95.5q0 59 -44.5 91.5t-162.5 76.5q-67 25 -108.5 42.5t-95 43.5t-85 51t-61.5 58.5t-43.5 74t-13.5 88.5q0 92 40.5 161t116.5 109
q-112 87 -112 236t106.5 245.5t286.5 96.5q106 0 220.5 -43t197.5 -113l-135 -166q-142 103 -271 103q-69 0 -111 -32.5t-42 -86.5t42 -85.5t150 -74.5q188 -76 236 -101q117 -61 155 -142q25 -55 25 -129q0 -79 -41.5 -146t-116.5 -110zM346 602q0 -61 52.5 -100.5
t189.5 -91.5l80 -31q55 13 84.5 48t29.5 81q0 62 -48.5 97.5t-196.5 92.5l-72 29q-56 -12 -87.5 -47t-31.5 -78z" />
    <glyph glyph-name="dieresis" unicode="&#xa8;" horiz-adv-x="1054" 
d="M326 1110q-66 0 -111 45t-45 109q0 62 45.5 106.5t110.5 44.5q63 0 108 -44.5t45 -106.5q0 -63 -45 -108.5t-108 -45.5zM731 1114q-63 0 -107 44t-44 106q0 60 44 104.5t107 44.5t108.5 -44.5t45.5 -104.5q0 -61 -45.5 -105.5t-108.5 -44.5z" />
    <glyph glyph-name="copyright" unicode="&#xa9;" horiz-adv-x="1460" 
d="M729 8q-175 0 -322 87.5t-231 235t-84 320.5q0 172 84.5 319.5t232 234.5t322.5 87q131 0 250 -51.5t203.5 -138t134 -204.5t49.5 -247q0 -128 -50 -246t-135 -205.5t-204 -139.5t-250 -52zM729 164q202 0 341.5 143t139.5 344q0 132 -62.5 243.5t-173 177t-243.5 65.5
q-134 0 -245 -66.5t-173.5 -178t-62.5 -243.5q0 -201 138.5 -343t340.5 -142zM748 313q-144 0 -240 88t-96 246q0 144 89.5 240t246.5 96q160 0 264 -127l-103 -88q-67 82 -161 82q-84 0 -137.5 -55t-53.5 -148q0 -89 52.5 -143.5t138.5 -54.5q100 0 161 77l103 -88
q-102 -125 -264 -125z" />
    <glyph glyph-name="ordfeminine" unicode="&#xaa;" horiz-adv-x="862" 
d="M561 1407h162v-600h-162v70h-2q-76 -82 -201 -82q-131 0 -211.5 86t-80.5 225q0 136 78.5 223.5t205.5 87.5q123 0 209 -92h2v82zM397 948q68 0 114 44t46 114q0 68 -45.5 114t-114.5 46q-70 0 -118 -45t-48 -115q0 -69 47 -113.5t119 -44.5z" />
    <glyph glyph-name="guillemotleft" unicode="&#xab;" horiz-adv-x="1011" 
d="M561 68h-229l-248 436l252 444h227l-252 -444zM952 68h-229l-248 436l252 444h227l-252 -444z" />
    <glyph glyph-name="logicalnot" unicode="&#xac;" horiz-adv-x="1130" 
d="M821 311v330h-719v205h926v-535h-207z" />
    <glyph glyph-name="registered" unicode="&#xae;" horiz-adv-x="1468" 
d="M735 1298q177 0 325 -88t232 -236.5t84 -322.5q0 -173 -84.5 -321.5t-233 -237t-325.5 -88.5q-175 0 -323 88t-233 236.5t-85 322.5q0 173 85 321.5t233.5 237t324.5 88.5zM733 160q134 0 246.5 66.5t176 179.5t63.5 245q0 133 -63 246t-175 179.5t-246 66.5
q-135 0 -247 -67.5t-175 -180.5t-63 -246t63 -245t174.5 -178t245.5 -66zM987 766q0 -152 -129 -199l162 -243h-160l-147 225h-72v-225h-135v663h252q115 0 172 -60t57 -161zM643 862v-190h84q58 0 88.5 26.5t30.5 69.5q0 42 -30.5 68t-84.5 26h-88z" />
    <glyph glyph-name="macron" unicode="&#xaf;" horiz-adv-x="911" 
d="M152 1159v193h610v-193h-610z" />
    <glyph glyph-name="degree" unicode="&#xb0;" horiz-adv-x="802" 
d="M401 903q-119 0 -203.5 83t-84.5 200q0 116 86.5 200t201.5 84q116 0 202.5 -84t86.5 -202q0 -115 -85 -198t-204 -83zM401 1055q55 0 93 37.5t38 93.5q0 55 -39 94t-92 39q-54 0 -93.5 -39.5t-39.5 -93.5q0 -55 38.5 -93t94.5 -38z" />
    <glyph glyph-name="plusminus" unicode="&#xb1;" horiz-adv-x="1255" 
d="M500 350v377h-379v209h379v379h211v-379h379v-209h-379v-377h-211zM166 -6v209h969v-209h-969z" />
    <glyph glyph-name="uni00B2" unicode="&#xb2;" horiz-adv-x="704" 
d="M334 1067h311v-174h-590l-4 129l273 266q61 60 87.5 100.5t26.5 81.5q0 44 -29 72.5t-75 28.5q-38 0 -77.5 -21t-66.5 -65l-143 104q42 70 121 115t180 45q119 0 204 -70t85 -186q0 -77 -31.5 -139.5t-120.5 -143.5l-151 -137v-6z" />
    <glyph glyph-name="uni00B3" unicode="&#xb3;" horiz-adv-x="718" 
d="M528 1329q138 -63 138 -205q0 -111 -85 -178t-221 -67q-118 0 -204.5 54.5t-118.5 139.5l172 72q17 -50 49.5 -73t87.5 -23t87 28t32 74q0 45 -36 72.5t-99 27.5h-62v144h76q50 0 80.5 25t30.5 63q0 43 -30 69.5t-81 26.5q-82 0 -115 -76l-159 86q30 71 105 115.5
t173 44.5q125 0 207 -61t82 -168q0 -127 -109 -191z" />
    <glyph glyph-name="acute" unicode="&#xb4;" horiz-adv-x="1030" 
d="M305 1102l236 295l252 2l-254 -297h-234z" />
    <glyph glyph-name="uni00B5" unicode="&#xb5;" horiz-adv-x="1187" 
d="M821 999h230v-999h-209l-13 133h-2q-58 -71 -133 -110t-159 -39q-115 0 -177 65h-4q13 -117 13 -219v-236h-230v1405h230v-520q0 -286 217 -286q104 0 170.5 81.5t66.5 225.5v499z" />
    <glyph glyph-name="paragraph" unicode="&#xb6;" horiz-adv-x="1079" 
d="M750 -309v1517h-127v-1208h-148v647q-173 11 -278 103.5t-105 250.5q0 164 111.5 262.5t306.5 98.5h383v-1671h-143z" />
    <glyph glyph-name="periodcentered" unicode="&#xb7;" horiz-adv-x="561" 
d="M279 350q-65 0 -110.5 44.5t-45.5 107.5t46 108t110 45q63 0 108 -45t45 -108t-45 -107.5t-108 -44.5z" />
    <glyph glyph-name="cedilla" unicode="&#xb8;" horiz-adv-x="774" 
d="M381 -66q188 -9 188 -163q0 -72 -60 -116t-183 -44q-59 0 -121 12v113q47 -15 102 -15q41 0 73 16t32 46q0 29 -45.5 49.5t-126.5 20.5v73l39 86h137l-37 -73z" />
    <glyph glyph-name="uni00B9" unicode="&#xb9;" horiz-adv-x="577" 
d="M268 893v604l-137 -94l-94 147l274 187h150v-844h-193z" />
    <glyph glyph-name="ordmasculine" unicode="&#xba;" horiz-adv-x="796" 
d="M387 795q-142 0 -231.5 88t-89.5 225q0 134 89.5 221.5t231.5 87.5q140 0 232 -86.5t92 -222.5q0 -138 -91.5 -225.5t-232.5 -87.5zM387 946q64 0 107 46t43 116q0 69 -42.5 114.5t-107.5 45.5t-106 -45.5t-41 -114.5q0 -70 41 -116t106 -46z" />
    <glyph glyph-name="guillemotright" unicode="&#xbb;" horiz-adv-x="1011" 
d="M59 68l250 436l-252 444h228l252 -444l-248 -436h-230zM451 68l249 436l-251 444h227l252 -444l-248 -436h-229z" />
    <glyph glyph-name="onequarter" unicode="&#xbc;" horiz-adv-x="1656" 
d="M596 -45l-184 80l641 1450l186 -80zM268 612v605l-137 -95l-94 148l274 186h150v-844h-193zM1305 0v131h-355v119l396 594h149v-547h117v-166h-117v-131h-190zM1161 285h158v247z" />
    <glyph glyph-name="onehalf" unicode="&#xbd;" horiz-adv-x="1724" 
d="M1053 1485l186 -80l-643 -1450l-184 80zM461 612h-193v605l-137 -95l-94 148l274 186h150v-844zM1354 174h311v-174h-590l-4 129l272 266q62 60 88.5 101t26.5 82q0 44 -29 72t-75 28q-38 0 -77.5 -21t-66.5 -65l-143 104q42 70 121 115t180 45q119 0 204 -70t85 -186
q0 -77 -31.5 -139.5t-120.5 -143.5l-151 -137v-6z" />
    <glyph glyph-name="threequarters" unicode="&#xbe;" horiz-adv-x="1755" 
d="M1153 1485l186 -80l-643 -1450l-184 80zM666 844q0 -112 -85 -179t-221 -67q-118 0 -204.5 55t-118.5 140l172 71q17 -50 49.5 -73t87.5 -23t87 28t32 74q0 45 -36 73t-99 28h-62v143h76q50 0 80.5 25t30.5 63q0 43 -30 69.5t-81 26.5q-82 0 -115 -75l-159 86
q30 71 105 115t173 44q125 0 207 -61t82 -168q0 -126 -109 -190q138 -63 138 -205zM1593 297h117v-166h-117v-131h-190v131h-354v119l395 594h149v-547zM1417 285v247l-157 -247h157z" />
    <glyph glyph-name="questiondown" unicode="&#xbf;" horiz-adv-x="915" 
d="M545 1014q64 0 109.5 -44.5t45.5 -107.5t-45.5 -108t-109.5 -45q-63 0 -108.5 45t-45.5 108t45.5 107.5t108.5 44.5zM651 539v-103q0 -21 -2 -40.5t-10 -40t-13 -34.5t-20 -35.5t-20.5 -31t-26.5 -32.5t-26 -28.5t-30 -31.5t-28 -29q-64 -69 -97.5 -126t-33.5 -126
q0 -85 51 -132.5t133 -47.5q60 0 118.5 32.5t96.5 88.5l172 -160q-71 -90 -175.5 -139t-229.5 -49q-84 0 -159 25t-135 73t-95 124.5t-35 172.5q0 109 48 192.5t132 165.5q14 14 48.5 45t50 46.5t36.5 40t30.5 46.5t10.5 44l7 90h202z" />
    <glyph glyph-name="Agrave" unicode="&#xc0;" horiz-adv-x="1427" 
d="M821 1612h-233l-254 297l252 -2zM1122 0l-110 313h-594l-109 -313h-258l543 1454h242l544 -1454h-258zM494 526h444l-221 631h-4z" />
    <glyph glyph-name="Aacute" unicode="&#xc1;" horiz-adv-x="1427" 
d="M1100 1909l-254 -297h-234l236 295zM1122 0l-110 313h-594l-109 -313h-258l543 1454h242l544 -1454h-258zM494 526h444l-221 631h-4z" />
    <glyph glyph-name="Acircumflex" unicode="&#xc2;" horiz-adv-x="1427" 
d="M711 1761l-113 -153h-223l231 301h205l242 -301h-226l-112 153h-4zM1122 0l-110 313h-594l-109 -313h-258l543 1454h242l544 -1454h-258zM494 526h444l-221 631h-4z" />
    <glyph glyph-name="Atilde" unicode="&#xc3;" horiz-adv-x="1427" 
d="M584 1716q-76 0 -119 -106l-139 63q32 105 91 165t142 60q37 0 71 -9t53.5 -19.5t47.5 -28.5q64 -41 93 -48q13 -3 26 -3q74 0 117 106l139 -47q-31 -114 -90.5 -178.5t-136.5 -64.5q-78 0 -181 65q-70 45 -114 45zM1122 0l-110 313h-594l-109 -313h-258l543 1454h242
l544 -1454h-258zM494 526h444l-221 631h-4z" />
    <glyph glyph-name="Adieresis" unicode="&#xc4;" horiz-adv-x="1427" 
d="M512 1620q-66 0 -111 45t-45 109q0 62 45.5 106.5t110.5 44.5q63 0 108.5 -44.5t45.5 -106.5q0 -63 -45.5 -108.5t-108.5 -45.5zM918 1624q-63 0 -107.5 44t-44.5 106q0 60 44.5 104.5t107.5 44.5t108 -44.5t45 -104.5q0 -62 -45 -106t-108 -44zM1122 0l-110 313h-594
l-109 -313h-258l543 1454h242l544 -1454h-258zM494 526h444l-221 631h-4z" />
    <glyph glyph-name="Aring" unicode="&#xc5;" horiz-adv-x="1427" 
d="M713 1559q-91 0 -156 62t-65 153q0 89 63 152t158 63q93 0 158 -62t65 -153q0 -89 -63 -152t-160 -63zM713 1853q-32 0 -55 -23t-23 -54q0 -33 22.5 -55.5t55.5 -22.5q34 0 57 23t23 55t-23 54.5t-57 22.5zM1122 0l-110 313h-594l-109 -313h-258l543 1454h242l544 -1454
h-258zM494 526h444l-221 631h-4z" />
    <glyph glyph-name="AE" unicode="&#xc6;" horiz-adv-x="1955" 
d="M1137 221h710v-221h-958v313h-455l-160 -313h-260l748 1454h1044v-221h-669v-399h549v-222h-549v-391zM543 526h346v672h-4z" />
    <glyph glyph-name="Ccedilla" unicode="&#xc7;" horiz-adv-x="1492" 
d="M846 219q118 0 218 54t173 145l182 -156q-99 -123 -241 -197t-322 -77l-25 -49l3 -5q188 -9 188 -163q0 -72 -60.5 -116t-183.5 -44q-59 0 -121 12v113q47 -15 103 -15q41 0 72.5 16t31.5 46q0 29 -45.5 49.5t-126.5 20.5v73l29 64v6q-129 19 -238.5 75.5t-192.5 146
t-130 219.5t-47 286t49 291.5t140 237t231.5 160t312.5 58.5q158 0 308 -68.5t265 -209.5l-182 -154q-74 90 -176 144.5t-215 54.5q-212 0 -343.5 -142t-131.5 -372q0 -223 133.5 -363.5t341.5 -140.5z" />
    <glyph glyph-name="Egrave" unicode="&#xc8;" horiz-adv-x="1243" 
d="M655 1612l-254 297l252 -2l236 -295h-234zM178 0v1454h916v-221h-668v-402h539v-221h-539v-389h711v-221h-959z" />
    <glyph glyph-name="Eacute" unicode="&#xc9;" horiz-adv-x="1243" 
d="M451 1612l235 295l252 2l-254 -297h-233zM178 0v1454h916v-221h-668v-402h539v-221h-539v-389h711v-221h-959z" />
    <glyph glyph-name="Ecircumflex" unicode="&#xca;" horiz-adv-x="1243" 
d="M651 1761l-112 -153h-224l232 301h205l241 -301h-225l-113 153h-4zM426 221h711v-221h-959v1454h916v-221h-668v-402h539v-221h-539v-389z" />
    <glyph glyph-name="Edieresis" unicode="&#xcb;" horiz-adv-x="1243" 
d="M453 1620q-65 0 -110.5 45t-45.5 109q0 62 45.5 106.5t110.5 44.5q63 0 108 -44.5t45 -106.5q0 -63 -45 -108.5t-108 -45.5zM858 1624q-63 0 -107 44t-44 106q0 60 44.5 104.5t106.5 44.5q63 0 108.5 -44.5t45.5 -104.5q0 -61 -45.5 -105.5t-108.5 -44.5zM178 0v1454h916
v-221h-668v-402h539v-221h-539v-389h711v-221h-959z" />
    <glyph glyph-name="Igrave" unicode="&#xcc;" horiz-adv-x="622" 
d="M188 1612l-254 297l252 -2l236 -295h-234zM186 0v1454h248v-1454h-248z" />
    <glyph glyph-name="Iacute" unicode="&#xcd;" horiz-adv-x="622" 
d="M209 1612l235 295l252 2l-254 -297h-233zM186 0v1454h248v-1454h-248z" />
    <glyph glyph-name="Icircumflex" unicode="&#xce;" horiz-adv-x="622" 
d="M303 1761l-113 -153h-223l232 301h204l242 -301h-225l-113 153h-4zM186 0v1454h248v-1454h-248z" />
    <glyph glyph-name="Idieresis" unicode="&#xcf;" horiz-adv-x="622" 
d="M104 1620q-65 0 -110 45t-45 109q0 62 45 106.5t110 44.5q63 0 108.5 -44.5t45.5 -106.5q0 -63 -45.5 -108.5t-108.5 -45.5zM510 1624q-63 0 -107.5 44t-44.5 106q0 60 44.5 104.5t107.5 44.5t108.5 -44.5t45.5 -104.5q0 -61 -45.5 -105.5t-108.5 -44.5zM186 0v1454h248
v-1454h-248z" />
    <glyph glyph-name="Eth" unicode="&#xd0;" horiz-adv-x="1507" 
d="M641 1454q170 0 312 -53.5t239.5 -149.5t151 -231t53.5 -295t-52 -294t-147.5 -229.5t-237 -148.5t-313.5 -53h-469v616h-121v211h121v627h463zM633 221q227 0 367.5 142t140.5 362q0 222 -138.5 365t-357.5 143h-219v-406h248v-211h-248v-395h207z" />
    <glyph glyph-name="Ntilde" unicode="&#xd1;" horiz-adv-x="1562" 
d="M649 1716q-76 0 -119 -106l-139 63q32 104 91.5 164.5t142.5 60.5q37 0 71 -9t53.5 -19.5t47.5 -28.5q3 -2 13 -8.5t13 -8.5t12 -7.5t13.5 -7.5t12.5 -6t13.5 -5.5t12.5 -3.5t14 -3t14 -1q74 0 117 106l139 -47q-31 -114 -90.5 -178.5t-136.5 -64.5q-34 0 -69.5 11
t-57.5 22.5t-53 31.5q-70 45 -115 45zM1139 1454h245v-1454h-251l-707 1030v-1030h-248v1454h246l711 -1044h4v1044z" />
    <glyph glyph-name="Ograve" unicode="&#xd2;" horiz-adv-x="1693" 
d="M731 1612l-254 297l252 -2l236 -295h-234zM848 -16q-214 0 -382.5 96t-260.5 265.5t-92 381.5t92 381.5t260.5 265.5t382.5 96q209 0 375.5 -92.5t262 -262.5t95.5 -388q0 -163 -55.5 -302t-153 -235.5t-233 -151t-291.5 -54.5zM848 215q202 0 338.5 145.5t136.5 366.5
q0 222 -136 367t-339 145q-139 0 -249.5 -68.5t-170 -185t-59.5 -258.5t59.5 -258.5t170 -185t249.5 -68.5z" />
    <glyph glyph-name="Oacute" unicode="&#xd3;" horiz-adv-x="1693" 
d="M741 1612l236 295l252 2l-254 -297h-234zM848 -16q-214 0 -382.5 96t-260.5 265.5t-92 381.5t92 381.5t260.5 265.5t382.5 96q209 0 375.5 -92.5t262 -262.5t95.5 -388q0 -163 -55.5 -302t-153 -235.5t-233 -151t-291.5 -54.5zM848 215q202 0 338.5 145.5t136.5 366.5
q0 222 -136 367t-339 145q-139 0 -249.5 -68.5t-170 -185t-59.5 -258.5t59.5 -258.5t170 -185t249.5 -68.5z" />
    <glyph glyph-name="Ocircumflex" unicode="&#xd4;" horiz-adv-x="1693" 
d="M846 1761l-113 -153h-223l231 301h205l242 -301h-225l-113 153h-4zM848 1470q209 0 375.5 -92.5t262 -262.5t95.5 -388q0 -163 -55.5 -302t-153 -235.5t-233 -151t-291.5 -54.5q-214 0 -382.5 96t-260.5 265.5t-92 381.5t92 381.5t260.5 265.5t382.5 96zM848 215
q202 0 338.5 145.5t136.5 366.5q0 222 -136 367t-339 145q-139 0 -249.5 -68.5t-170 -185t-59.5 -258.5t59.5 -258.5t170 -185t249.5 -68.5z" />
    <glyph glyph-name="Otilde" unicode="&#xd5;" horiz-adv-x="1693" 
d="M1014 1606q-34 0 -69.5 11t-57.5 22.5t-53 31.5q-70 45 -115 45q-76 0 -119 -106l-139 63q32 105 91 165t142 60q37 0 71 -9t53.5 -19.5t47.5 -28.5q64 -41 93 -48q13 -3 26 -3q74 0 117 106l139 -47q-31 -114 -90.5 -178.5t-136.5 -64.5zM848 -16q-214 0 -382.5 96
t-260.5 265.5t-92 381.5t92 381.5t260.5 265.5t382.5 96q209 0 375.5 -92.5t262 -262.5t95.5 -388q0 -163 -55.5 -302t-153 -235.5t-233 -151t-291.5 -54.5zM848 215q202 0 338.5 145.5t136.5 366.5q0 222 -136 367t-339 145q-139 0 -249.5 -68.5t-170 -185t-59.5 -258.5
t59.5 -258.5t170 -185t249.5 -68.5z" />
    <glyph glyph-name="Odieresis" unicode="&#xd6;" horiz-adv-x="1693" 
d="M647 1620q-65 0 -110 45t-45 109q0 62 45 106.5t110 44.5q63 0 108.5 -44.5t45.5 -106.5q0 -63 -45.5 -108.5t-108.5 -45.5zM1053 1624q-63 0 -107.5 44t-44.5 106q0 60 44.5 104.5t107.5 44.5t108 -44.5t45 -104.5q0 -62 -45 -106t-108 -44zM848 -16q-214 0 -382.5 96
t-260.5 265.5t-92 381.5t92 381.5t260.5 265.5t382.5 96q209 0 375.5 -92.5t262 -262.5t95.5 -388q0 -163 -55.5 -302t-153 -235.5t-233 -151t-291.5 -54.5zM848 215q202 0 338.5 145.5t136.5 366.5q0 222 -136 367t-339 145q-139 0 -249.5 -68.5t-170 -185t-59.5 -258.5
t59.5 -258.5t170 -185t249.5 -68.5z" />
    <glyph glyph-name="multiply" unicode="&#xd7;" horiz-adv-x="1073" 
d="M250 135l-148 146l289 286l-289 287l146 147l287 -288l288 288l148 -145l-289 -291l287 -286l-146 -144l-286 287z" />
    <glyph glyph-name="Oslash" unicode="&#xd8;" horiz-adv-x="1693" 
d="M1608 1386l-174 -190q147 -197 147 -469q0 -163 -55.5 -302t-153 -235.5t-233 -151t-291.5 -54.5q-238 0 -420 118l-160 -174l-141 131l158 170q-172 200 -172 498q0 212 92 381.5t260.5 265.5t382.5 96q257 0 450 -141l170 184zM369 727q0 -174 90 -307l671 727
q-125 92 -282 92q-139 0 -249.5 -68.5t-170 -185t-59.5 -258.5zM1323 727q0 153 -70 274l-657 -716q112 -70 252 -70q202 0 338.5 145.5t136.5 366.5z" />
    <glyph glyph-name="Ugrave" unicode="&#xd9;" horiz-adv-x="1472" 
d="M659 1612l-253 297l251 -2l236 -295h-234zM735 -16q-262 0 -419.5 162.5t-157.5 451.5v856h245v-838q0 -177 89 -288t243 -111q149 0 241.5 107.5t92.5 291.5v838h248v-856q0 -284 -155.5 -449t-426.5 -165z" />
    <glyph glyph-name="Uacute" unicode="&#xda;" horiz-adv-x="1472" 
d="M578 1612l235 295l252 2l-254 -297h-233zM735 -16q-262 0 -419.5 162.5t-157.5 451.5v856h245v-838q0 -177 89 -288t243 -111q149 0 241.5 107.5t92.5 291.5v838h248v-856q0 -284 -155.5 -449t-426.5 -165z" />
    <glyph glyph-name="Ucircumflex" unicode="&#xdb;" horiz-adv-x="1472" 
d="M731 1761l-113 -153h-223l232 301h204l242 -301h-225l-113 153h-4zM1069 1454h248v-856q0 -284 -155.5 -449t-426.5 -165q-262 0 -419.5 162.5t-157.5 451.5v856h245v-838q0 -177 89 -288t243 -111q149 0 241.5 107.5t92.5 291.5v838z" />
    <glyph glyph-name="Udieresis" unicode="&#xdc;" horiz-adv-x="1472" 
d="M532 1620q-65 0 -110 45t-45 109q0 62 45 106.5t110 44.5q63 0 108.5 -44.5t45.5 -106.5q0 -63 -45.5 -108.5t-108.5 -45.5zM938 1624q-63 0 -107.5 44t-44.5 106q0 60 44.5 104.5t107.5 44.5t108.5 -44.5t45.5 -104.5q0 -61 -45.5 -105.5t-108.5 -44.5zM735 -16
q-262 0 -419.5 162.5t-157.5 451.5v856h245v-838q0 -177 89 -288t243 -111q149 0 241.5 107.5t92.5 291.5v838h248v-856q0 -284 -155.5 -449t-426.5 -165z" />
    <glyph glyph-name="Yacute" unicode="&#xdd;" horiz-adv-x="1280" 
d="M985 1909l-254 -297h-233l235 295zM965 1454h286l-489 -811v-643h-248v643l-485 811h282l326 -563h4z" />
    <glyph glyph-name="Thorn" unicode="&#xde;" horiz-adv-x="1329" 
d="M178 0v1454h248v-268h322q248 0 370.5 -128.5t122.5 -342.5q0 -227 -140.5 -343t-383.5 -116h-291v-256h-248zM426 477h266q146 0 219.5 66t73.5 176q0 117 -71 181.5t-205 64.5h-283v-488z" />
    <glyph glyph-name="germandbls" unicode="&#xdf;" horiz-adv-x="1308" 
d="M981 868q119 -55 186.5 -167t67.5 -248q0 -213 -126.5 -341t-330.5 -128h-211v206h156q119 0 198.5 75.5t79.5 191.5q0 118 -82.5 200t-222.5 82h-96v197h86q59 1 103.5 17t68.5 38t39 50.5t19 49.5t4 39q0 76 -63 131.5t-181 55.5q-148 0 -221.5 -74t-73.5 -242v-1001
h-229v995q0 266 132 397.5t384 131.5q225 0 351 -105t126 -266q0 -80 -38 -156t-126 -125v-4z" />
    <glyph glyph-name="agrave" unicode="&#xe0;" horiz-adv-x="1251" 
d="M786 1139h-233l-254 297l252 -2zM883 999h229v-999h-219v133h-4q-112 -149 -318 -149q-210 0 -346.5 141.5t-136.5 370.5q0 225 137.5 371.5t343.5 146.5q196 0 310 -135h4v120zM608 193q120 0 202.5 84.5t82.5 216.5q0 134 -81 223.5t-204 89.5t-204.5 -85.5
t-81.5 -227.5q0 -133 79.5 -217t206.5 -84z" />
    <glyph glyph-name="aacute" unicode="&#xe1;" horiz-adv-x="1251" 
d="M965 1436l-254 -297h-234l236 295zM883 999h229v-999h-219v133h-4q-112 -149 -318 -149q-210 0 -346.5 141.5t-136.5 370.5q0 225 137.5 371.5t343.5 146.5q196 0 310 -135h4v120zM608 193q120 0 202.5 84.5t82.5 216.5q0 134 -81 223.5t-204 89.5t-204.5 -85.5
t-81.5 -227.5q0 -133 79.5 -217t206.5 -84z" />
    <glyph glyph-name="acircumflex" unicode="&#xe2;" horiz-adv-x="1251" 
d="M621 1288l-113 -153h-223l231 301h205l242 -301h-226l-112 153h-4zM883 999h229v-999h-219v133h-4q-112 -149 -318 -149q-210 0 -346.5 141.5t-136.5 370.5q0 225 137.5 371.5t343.5 146.5q196 0 310 -135h4v120zM608 193q120 0 202.5 84.5t82.5 216.5q0 134 -81 223.5
t-204 89.5t-204.5 -85.5t-81.5 -227.5q0 -133 79.5 -217t206.5 -84z" />
    <glyph glyph-name="atilde" unicode="&#xe3;" horiz-adv-x="1251" 
d="M494 1243q-76 0 -119 -106l-139 63q32 105 91 165t142 60q37 0 71 -9t53.5 -19.5t47.5 -28.5q64 -41 93 -48q13 -3 26 -3q74 0 117 106l139 -47q-31 -114 -91 -178.5t-137 -64.5q-34 0 -69.5 11t-57.5 22.5t-53 31.5q-70 45 -114 45zM883 999h229v-999h-219v133h-4
q-112 -149 -318 -149q-210 0 -346.5 141.5t-136.5 370.5q0 225 137.5 371.5t343.5 146.5q196 0 310 -135h4v120zM608 193q120 0 202.5 84.5t82.5 216.5q0 134 -81 223.5t-204 89.5t-204.5 -85.5t-81.5 -227.5q0 -133 79.5 -217t206.5 -84z" />
    <glyph glyph-name="adieresis" unicode="&#xe4;" horiz-adv-x="1251" 
d="M422 1147q-66 0 -111 45t-45 108q0 62 45.5 107t110.5 45q63 0 108 -45t45 -107q0 -63 -45 -108t-108 -45zM827 1151q-63 0 -107 43.5t-44 105.5q0 61 44.5 105.5t106.5 44.5q63 0 108.5 -45t45.5 -105q0 -61 -45.5 -105t-108.5 -44zM883 999h229v-999h-219v133h-4
q-112 -149 -318 -149q-210 0 -346.5 141.5t-136.5 370.5q0 225 137.5 371.5t343.5 146.5q196 0 310 -135h4v120zM608 193q120 0 202.5 84.5t82.5 216.5q0 134 -81 223.5t-204 89.5t-204.5 -85.5t-81.5 -227.5q0 -133 79.5 -217t206.5 -84z" />
    <glyph glyph-name="aring" unicode="&#xe5;" horiz-adv-x="1251" 
d="M623 1085q-91 0 -156.5 62t-65.5 153q0 89 63.5 152.5t158.5 63.5q93 0 158 -62t65 -154q0 -89 -63 -152t-160 -63zM623 1380q-32 0 -55 -23t-23 -54q0 -33 22.5 -55.5t55.5 -22.5t56 22.5t23 55.5q0 32 -22.5 54.5t-56.5 22.5zM883 999h229v-999h-219v133h-4
q-112 -149 -318 -149q-210 0 -346.5 141.5t-136.5 370.5q0 225 137.5 371.5t343.5 146.5q196 0 310 -135h4v120zM608 193q120 0 202.5 84.5t82.5 216.5q0 134 -81 223.5t-204 89.5t-204.5 -85.5t-81.5 -227.5q0 -133 79.5 -217t206.5 -84z" />
    <glyph glyph-name="ae" unicode="&#xe6;" horiz-adv-x="1615" 
d="M1556 512q0 -65 -6 -92h-667q21 -105 89 -166t171 -61q117 0 215 116l158 -137q-68 -86 -167 -137t-219 -51q-213 0 -344 157h-4q-52 -68 -141.5 -112.5t-212.5 -44.5q-182 0 -274.5 85.5t-92.5 223.5q0 150 101.5 234.5t294.5 84.5h198v13q0 101 -38 141.5t-115 40.5
q-136 0 -279 -68l-88 183q63 34 164 63t219 29q212 0 289 -152h2q126 152 328 152q185 0 302 -141.5t117 -360.5zM1118 807q-82 0 -143 -52t-86 -143h436q-22 88 -78 141.5t-129 53.5zM451 182q78 0 139.5 49.5t66.5 98.5v94l-178 -2q-186 0 -186 -121q0 -52 41 -85.5
t117 -33.5z" />
    <glyph glyph-name="ccedilla" unicode="&#xe7;" horiz-adv-x="1089" 
d="M631 -16l-23 -45l2 -5q189 -9 189 -163q0 -72 -60.5 -116t-183.5 -44q-59 0 -121 12v113q47 -15 103 -15q41 0 72.5 16t31.5 46q0 29 -45.5 49.5t-126.5 20.5v73l29 64v2q-183 33 -295.5 170t-112.5 336q0 229 145 372.5t373 143.5q121 0 234 -48.5t186 -138.5l-156 -135
q-96 115 -251 115q-133 0 -215 -85t-82 -222q0 -138 82.5 -222.5t214.5 -84.5q78 0 144 30t109 76l158 -139q-65 -73 -169.5 -121.5t-231.5 -54.5z" />
    <glyph glyph-name="egrave" unicode="&#xe8;" horiz-adv-x="1150" 
d="M758 1139h-234l-254 297l252 -2zM1063 512q0 -38 -6 -92h-729q23 -106 98.5 -166.5t185.5 -60.5q156 0 250 116l160 -137q-67 -87 -174 -137.5t-248 -50.5q-221 0 -365.5 143t-144.5 373q0 228 138.5 371t349.5 143q219 0 352 -140.5t133 -361.5zM590 807q-96 0 -165 -53
t-93 -150h499q-23 94 -84.5 148.5t-156.5 54.5z" />
    <glyph glyph-name="eacute" unicode="&#xe9;" horiz-adv-x="1150" 
d="M942 1436l-254 -297h-233l235 295zM1063 512q0 -38 -6 -92h-729q23 -106 98.5 -166.5t185.5 -60.5q156 0 250 116l160 -137q-67 -87 -174 -137.5t-248 -50.5q-221 0 -365.5 143t-144.5 373q0 228 138.5 371t349.5 143q219 0 352 -140.5t133 -361.5zM590 807
q-96 0 -165 -53t-93 -150h499q-23 94 -84.5 148.5t-156.5 54.5z" />
    <glyph glyph-name="ecircumflex" unicode="&#xea;" horiz-adv-x="1150" 
d="M592 1288l-113 -153h-223l231 301h205l242 -301h-225l-113 153h-4zM1063 512q0 -38 -6 -92h-729q23 -106 98.5 -166.5t185.5 -60.5q156 0 250 116l160 -137q-67 -87 -174 -137.5t-248 -50.5q-221 0 -365.5 143t-144.5 373q0 228 138.5 371t349.5 143q219 0 352 -140.5
t133 -361.5zM590 807q-96 0 -165 -53t-93 -150h499q-23 94 -84.5 148.5t-156.5 54.5z" />
    <glyph glyph-name="edieresis" unicode="&#xeb;" horiz-adv-x="1150" 
d="M393 1147q-65 0 -110 44.5t-45 108.5q0 62 45 107t110 45q63 0 108.5 -45t45.5 -107q0 -63 -45.5 -108t-108.5 -45zM799 1151q-63 0 -107.5 43.5t-44.5 105.5q0 60 44.5 105t107.5 45t108 -45t45 -105q0 -61 -45 -105t-108 -44zM1063 512q0 -38 -6 -92h-729
q23 -106 98.5 -166.5t185.5 -60.5q156 0 250 116l160 -137q-67 -87 -174 -137.5t-248 -50.5q-221 0 -365.5 143t-144.5 373q0 228 138.5 371t349.5 143q219 0 352 -140.5t133 -361.5zM590 807q-96 0 -165 -53t-93 -150h499q-23 94 -84.5 148.5t-156.5 54.5z" />
    <glyph glyph-name="igrave" unicode="&#xec;" horiz-adv-x="557" 
d="M162 1139l-185 297l252 -2l166 -295h-233zM164 0v999h229v-999h-229z" />
    <glyph glyph-name="iacute" unicode="&#xed;" horiz-adv-x="557" 
d="M172 1139l236 295l251 2l-253 -297h-234zM164 0v999h229v-999h-229z" />
    <glyph glyph-name="icircumflex" unicode="&#xee;" horiz-adv-x="557" 
d="M279 1288h-5l-112 -153h-223l231 301h205l241 -301h-225zM164 0v999h229v-999h-229z" />
    <glyph glyph-name="idieresis" unicode="&#xef;" horiz-adv-x="557" 
d="M100 1147q-66 0 -110.5 44.5t-44.5 108.5q0 62 45 107t110 45q63 0 108.5 -45t45.5 -107q0 -63 -45.5 -108t-108.5 -45zM461 1151q-63 0 -108.5 44t-45.5 105q0 60 45.5 105t108.5 45q61 0 106 -45t45 -105q0 -61 -44.5 -105t-106.5 -44zM164 0v999h229v-999h-229z" />
    <glyph glyph-name="eth" unicode="&#xf0;" horiz-adv-x="1220" 
d="M1128 518v-4q0 -232 -146.5 -381t-377.5 -149q-218 0 -365 139t-147 350q0 227 138 365.5t345 138.5q118 0 224 -53l2 2q-89 154 -246 264l-135 -105l-101 113l93 74v4q-74 36 -162 65l110 177q138 -49 232 -105l141 113l101 -121l-105 -80v-2q189 -144 294 -350.5
t105 -454.5zM608 193q124 0 204.5 84t80.5 212q0 123 -81.5 204t-205.5 81q-121 0 -200.5 -83t-79.5 -202q0 -128 80.5 -212t201.5 -84z" />
    <glyph glyph-name="ntilde" unicode="&#xf1;" horiz-adv-x="1214" 
d="M475 1243q-76 0 -119 -106l-139 63q32 104 91.5 164.5t142.5 60.5q37 0 71 -9t53.5 -19.5t47.5 -28.5q3 -2 13 -8.5t13 -8.5t12 -7.5t13.5 -7.5t12.5 -6t13.5 -5.5t12.5 -3.5t14 -3t14 -1q74 0 117 106l139 -47q-31 -114 -90.5 -178.5t-136.5 -64.5q-34 0 -69.5 11
t-57.5 22.5t-53 31.5q-70 45 -115 45zM717 1014q172 0 269 -104t97 -322v-588h-229v528q0 152 -54.5 215.5t-162.5 63.5q-119 0 -188.5 -80t-69.5 -225v-502h-229v999h229v-139h2q62 74 150 114t186 40z" />
    <glyph glyph-name="ograve" unicode="&#xf2;" horiz-adv-x="1228" 
d="M524 1139l-254 297l252 -2l236 -295h-234zM614 -16q-233 0 -378.5 145.5t-145.5 368.5q0 147 64.5 264t184.5 184.5t275 67.5q231 0 378 -143.5t147 -372.5q0 -227 -147 -370.5t-378 -143.5zM614 193q123 0 207 86t84 219q0 136 -83 222.5t-208 86.5q-129 0 -209.5 -88
t-80.5 -221q0 -129 81.5 -217t208.5 -88z" />
    <glyph glyph-name="oacute" unicode="&#xf3;" horiz-adv-x="1228" 
d="M492 1139l235 295l252 2l-254 -297h-233zM614 -16q-233 0 -378.5 145.5t-145.5 368.5q0 147 64.5 264t184.5 184.5t275 67.5q231 0 378 -143.5t147 -372.5q0 -227 -147 -370.5t-378 -143.5zM614 193q123 0 207 86t84 219q0 136 -83 222.5t-208 86.5q-129 0 -209.5 -88
t-80.5 -221q0 -129 81.5 -217t208.5 -88z" />
    <glyph glyph-name="ocircumflex" unicode="&#xf4;" horiz-adv-x="1228" 
d="M610 1288l-112 -153h-224l232 301h205l241 -301h-225l-113 153h-4zM614 1014q231 0 378 -143.5t147 -372.5q0 -227 -147 -370.5t-378 -143.5q-233 0 -378.5 145.5t-145.5 368.5q0 147 64.5 264t184.5 184.5t275 67.5zM614 193q123 0 207 86t84 219q0 136 -83 222.5
t-208 86.5q-129 0 -209.5 -88t-80.5 -221q0 -129 81.5 -217t208.5 -88z" />
    <glyph glyph-name="otilde" unicode="&#xf5;" horiz-adv-x="1228" 
d="M778 1133q-34 0 -69.5 11t-57.5 22.5t-53 31.5q-70 45 -115 45q-75 0 -118 -106l-140 63q32 104 91.5 164.5t142.5 60.5q37 0 71 -9t53.5 -19.5t47.5 -28.5q64 -41 93 -48q13 -3 26 -3q73 0 116 106l140 -47q-31 -114 -91 -178.5t-137 -64.5zM614 -16
q-233 0 -378.5 145.5t-145.5 368.5q0 147 64.5 264t184.5 184.5t275 67.5q231 0 378 -143.5t147 -372.5q0 -227 -147 -370.5t-378 -143.5zM614 193q123 0 207 86t84 219q0 136 -83 222.5t-208 86.5q-129 0 -209.5 -88t-80.5 -221q0 -129 81.5 -217t208.5 -88z" />
    <glyph glyph-name="odieresis" unicode="&#xf6;" horiz-adv-x="1228" 
d="M412 1147q-66 0 -111 45t-45 108q0 62 45.5 107t110.5 45q63 0 108 -45t45 -107q0 -63 -45 -108t-108 -45zM817 1151q-63 0 -107 43.5t-44 105.5q0 61 44.5 105.5t106.5 44.5q63 0 108.5 -45t45.5 -105q0 -61 -45.5 -105t-108.5 -44zM614 -16q-233 0 -378.5 145.5
t-145.5 368.5q0 147 64.5 264t184.5 184.5t275 67.5q231 0 378 -143.5t147 -372.5q0 -227 -147 -370.5t-378 -143.5zM614 193q123 0 207 86t84 219q0 136 -83 222.5t-208 86.5q-129 0 -209.5 -88t-80.5 -221q0 -129 81.5 -217t208.5 -88z" />
    <glyph glyph-name="divide" unicode="&#xf7;" horiz-adv-x="1173" 
d="M594 811q-64 0 -109 45.5t-45 108.5q0 62 45 106.5t109 44.5t110 -44.5t46 -106.5q0 -63 -46 -108.5t-110 -45.5zM121 463v209h969v-209h-969zM594 -6q-64 0 -109 45t-45 108q0 62 45 107t109 45t110 -45t46 -107q0 -63 -46 -108t-110 -45z" />
    <glyph glyph-name="oslash" unicode="&#xf8;" horiz-adv-x="1228" 
d="M1165 940l-121 -129q95 -138 95 -313q0 -227 -147 -370.5t-378 -143.5q-156 0 -276 69l-105 -112l-122 114l96 105q-117 139 -117 338q0 147 64.5 264t184.5 184.5t275 67.5q180 0 310 -88l120 129zM324 498q0 -92 45 -168l403 432q-70 45 -158 45q-129 0 -209.5 -88
t-80.5 -221zM905 498q0 72 -26 135l-387 -414q53 -26 122 -26q123 0 207 86t84 219z" />
    <glyph glyph-name="ugrave" unicode="&#xf9;" horiz-adv-x="1183" 
d="M754 1139h-234l-254 297l252 -2zM813 999h229v-999h-229v131q-59 -71 -139.5 -109t-169.5 -38q-176 0 -275.5 97t-99.5 310v608h229v-546q0 -145 46.5 -202.5t152.5 -57.5t181 86.5t75 240.5v479z" />
    <glyph glyph-name="uacute" unicode="&#xfa;" horiz-adv-x="1183" 
d="M956 1436l-254 -297h-233l236 295zM813 999h229v-999h-229v131q-59 -71 -139.5 -109t-169.5 -38q-176 0 -275.5 97t-99.5 310v608h229v-546q0 -145 46.5 -202.5t152.5 -57.5t181 86.5t75 240.5v479z" />
    <glyph glyph-name="ucircumflex" unicode="&#xfb;" horiz-adv-x="1183" 
d="M584 1288l-113 -153h-223l231 301h205l242 -301h-226l-112 153h-4zM813 999h229v-999h-229v131q-59 -71 -139.5 -109t-169.5 -38q-176 0 -275.5 97t-99.5 310v608h229v-546q0 -145 46.5 -202.5t152.5 -57.5t181 86.5t75 240.5v479z" />
    <glyph glyph-name="udieresis" unicode="&#xfc;" horiz-adv-x="1183" 
d="M385 1147q-66 0 -111 45t-45 108q0 62 45.5 107t110.5 45q63 0 108.5 -45t45.5 -107q0 -63 -45.5 -108t-108.5 -45zM791 1151q-63 0 -107.5 43.5t-44.5 105.5q0 60 44.5 105t107.5 45t108 -45t45 -105q0 -61 -45 -105t-108 -44zM813 999h229v-999h-229v131
q-59 -71 -139.5 -109t-169.5 -38q-176 0 -275.5 97t-99.5 310v608h229v-546q0 -145 46.5 -202.5t152.5 -57.5t181 86.5t75 240.5v479z" />
    <glyph glyph-name="yacute" unicode="&#xfd;" horiz-adv-x="1095" 
d="M879 1436l-254 -297h-234l236 295zM815 999h240l-549 -1405h-242l180 463l-405 942h242l276 -675z" />
    <glyph glyph-name="thorn" unicode="&#xfe;" horiz-adv-x="1271" 
d="M698 1014q208 0 346 -146.5t138 -371.5q0 -229 -137 -370.5t-349 -141.5q-201 0 -315 139h-2v-529h-229v1913h229v-630q116 137 319 137zM662 193q126 0 206 84.5t80 216.5q0 141 -83 227t-206 86q-128 0 -209 -89t-81 -224q0 -133 84 -217t209 -84z" />
    <glyph glyph-name="ydieresis" unicode="&#xff;" horiz-adv-x="1095" 
d="M346 1147q-66 0 -111 45t-45 108q0 62 45.5 107t110.5 45q63 0 108.5 -45t45.5 -107q0 -63 -45.5 -108t-108.5 -45zM752 1151q-63 0 -107.5 43.5t-44.5 105.5q0 60 45 105t107 45q63 0 108 -45t45 -105q0 -61 -45 -105t-108 -44zM815 999h240l-549 -1405h-242l180 463
l-405 942h242l276 -675z" />
    <glyph glyph-name="Amacron" unicode="&#x100;" horiz-adv-x="1427" 
d="M1020 1862v-193h-610v193h610zM1122 0l-110 313h-594l-109 -313h-258l543 1454h242l544 -1454h-258zM494 526h444l-221 631h-4z" />
    <glyph glyph-name="amacron" unicode="&#x101;" horiz-adv-x="1251" 
d="M930 1389v-193h-611v193h611zM883 999h229v-999h-219v133h-4q-112 -149 -318 -149q-210 0 -346.5 141.5t-136.5 370.5q0 225 137.5 371.5t343.5 146.5q196 0 310 -135h4v120zM608 193q120 0 202.5 84.5t82.5 216.5q0 134 -81 223.5t-204 89.5t-204.5 -85.5t-81.5 -227.5
q0 -133 79.5 -217t206.5 -84z" />
    <glyph glyph-name="Abreve" unicode="&#x102;" horiz-adv-x="1427" 
d="M715 1602q-129 0 -219.5 79t-100.5 220h180q3 -61 40.5 -100.5t99.5 -39.5q60 0 98 38.5t41 101.5h180q-11 -132 -97.5 -215.5t-221.5 -83.5zM1122 0l-110 313h-594l-109 -313h-258l543 1454h242l544 -1454h-258zM494 526h444l-221 631h-4z" />
    <glyph glyph-name="abreve" unicode="&#x103;" horiz-adv-x="1251" 
d="M625 1128q-129 0 -219.5 79t-100.5 220h180q3 -61 40 -100t100 -39q60 0 98 38t41 101h180q-11 -132 -97.5 -215.5t-221.5 -83.5zM883 999h229v-999h-219v133h-4q-112 -149 -318 -149q-210 0 -346.5 141.5t-136.5 370.5q0 225 137.5 371.5t343.5 146.5q196 0 310 -135h4
v120zM608 193q120 0 202.5 84.5t82.5 216.5q0 134 -81 223.5t-204 89.5t-204.5 -85.5t-81.5 -227.5q0 -133 79.5 -217t206.5 -84z" />
    <glyph glyph-name="Aogonek" unicode="&#x104;" horiz-adv-x="1427" 
d="M1257 -238q11 0 19.5 0.5t16 1.5t11.5 1.5t11 3t8 2.5t9 4t9 4l15 -139q-61 -25 -148 -25q-101 0 -161 49t-60 131q0 51 35.5 107.5t99.5 99.5l-110 311h-594l-109 -313h-258l543 1454h242l544 -1454h-49q-73 -17 -117.5 -61t-44.5 -93q0 -39 23 -61.5t65 -22.5zM494 526
h444l-221 631h-4z" />
    <glyph glyph-name="aogonek" unicode="&#x105;" horiz-adv-x="1251" 
d="M1100 -221l14 -139q-61 -25 -147 -25q-101 0 -161.5 49t-60.5 131q0 53 39.5 112.5t108.5 102.5v123h-4q-112 -149 -318 -149q-210 0 -346.5 141.5t-136.5 370.5q0 225 137.5 371.5t343.5 146.5q196 0 310 -135h4v120h229v-999h-22q-73 -17 -117.5 -61t-44.5 -93
q0 -39 23 -61.5t65 -22.5q11 0 19.5 0.5t16 1.5t11.5 1.5t11 3t8 2.5t9 4t9 4zM608 193q120 0 202.5 84.5t82.5 216.5q0 134 -81 223.5t-204 89.5t-204.5 -85.5t-81.5 -227.5q0 -133 79.5 -217t206.5 -84z" />
    <glyph glyph-name="Cacute" unicode="&#x106;" horiz-adv-x="1492" 
d="M715 1612l235 295l252 2l-254 -297h-233zM846 -12q-149 0 -281 48.5t-233 139t-160 232t-59 315.5q0 156 49 291.5t140 237t231.5 160t312.5 58.5q158 0 308 -68.5t265 -209.5l-182 -154q-74 90 -176 144.5t-215 54.5q-212 0 -343.5 -142t-131.5 -372
q0 -223 133.5 -363.5t341.5 -140.5q118 0 218 54t173 145l182 -156q-100 -125 -245.5 -199.5t-327.5 -74.5z" />
    <glyph glyph-name="cacute" unicode="&#x107;" horiz-adv-x="1089" 
d="M463 1139l235 295l252 2l-254 -297h-233zM600 -16q-223 0 -366.5 143.5t-143.5 370.5q0 229 145 372.5t373 143.5q121 0 234 -48.5t186 -138.5l-156 -135q-96 115 -251 115q-133 0 -215 -85t-82 -222q0 -138 82.5 -222.5t214.5 -84.5q78 0 144 30t109 76l158 -139
q-69 -78 -181.5 -127t-250.5 -49z" />
    <glyph glyph-name="Ccircumflex" unicode="&#x108;" horiz-adv-x="1492" 
d="M838 1761l-113 -153h-223l231 301h205l242 -301h-226l-112 153h-4zM846 219q118 0 218 54t173 145l182 -156q-100 -125 -245.5 -199.5t-327.5 -74.5q-149 0 -281 48.5t-233 139t-160 232t-59 315.5q0 156 49 291.5t140 237t231.5 160t312.5 58.5q158 0 308 -68.5
t265 -209.5l-182 -154q-74 90 -176 144.5t-215 54.5q-212 0 -343.5 -142t-131.5 -372q0 -223 133.5 -363.5t341.5 -140.5z" />
    <glyph glyph-name="ccircumflex" unicode="&#x109;" horiz-adv-x="1089" 
d="M608 1288l-112 -153h-224l232 301h205l241 -301h-225l-113 153h-4zM874 299l158 -139q-69 -78 -181.5 -127t-250.5 -49q-223 0 -366.5 143.5t-143.5 370.5q0 229 145 372.5t373 143.5q121 0 234 -48.5t186 -138.5l-156 -135q-96 115 -251 115q-133 0 -215 -85t-82 -222
q0 -138 82.5 -222.5t214.5 -84.5q78 0 144 30t109 76z" />
    <glyph glyph-name="Cdotaccent" unicode="&#x10a;" horiz-adv-x="1492" 
d="M842 1620q-64 0 -109 45.5t-45 108.5q0 62 45 106.5t109 44.5t109.5 -44.5t45.5 -106.5q0 -63 -45.5 -108.5t-109.5 -45.5zM846 -12q-149 0 -281 48.5t-233 139t-160 232t-59 315.5q0 156 49 291.5t140 237t231.5 160t312.5 58.5q158 0 308 -68.5t265 -209.5l-182 -154
q-74 90 -176 144.5t-215 54.5q-212 0 -343.5 -142t-131.5 -372q0 -223 133.5 -363.5t341.5 -140.5q118 0 218 54t173 145l182 -156q-100 -125 -245.5 -199.5t-327.5 -74.5z" />
    <glyph glyph-name="cdotaccent" unicode="&#x10b;" horiz-adv-x="1089" 
d="M612 1147q-64 0 -108.5 45t-44.5 108q0 62 44.5 107t108.5 45t110 -45t46 -107q0 -63 -46 -108t-110 -45zM600 -16q-223 0 -366.5 143.5t-143.5 370.5q0 229 145 372.5t373 143.5q121 0 234 -48.5t186 -138.5l-156 -135q-96 115 -251 115q-133 0 -215 -85t-82 -222
q0 -138 82.5 -222.5t214.5 -84.5q78 0 144 30t109 76l158 -139q-69 -78 -181.5 -127t-250.5 -49z" />
    <glyph glyph-name="Ccaron" unicode="&#x10c;" horiz-adv-x="1492" 
d="M938 1608h-205l-231 301h223l113 -156h4l112 156h226zM846 219q118 0 218 54t173 145l182 -156q-100 -125 -245.5 -199.5t-327.5 -74.5q-149 0 -281 48.5t-233 139t-160 232t-59 315.5q0 156 49 291.5t140 237t231.5 160t312.5 58.5q158 0 308 -68.5t265 -209.5
l-182 -154q-74 90 -176 144.5t-215 54.5q-212 0 -343.5 -142t-131.5 -372q0 -223 133.5 -363.5t341.5 -140.5z" />
    <glyph glyph-name="ccaron" unicode="&#x10d;" horiz-adv-x="1089" 
d="M709 1135h-205l-232 301h224l112 -156h4l113 156h225zM874 299l158 -139q-69 -78 -181.5 -127t-250.5 -49q-223 0 -366.5 143.5t-143.5 370.5q0 229 145 372.5t373 143.5q121 0 234 -48.5t186 -138.5l-156 -135q-96 115 -251 115q-133 0 -215 -85t-82 -222
q0 -138 82.5 -222.5t214.5 -84.5q78 0 144 30t109 76z" />
    <glyph glyph-name="Dcaron" unicode="&#x10e;" horiz-adv-x="1507" 
d="M858 1608h-205l-231 301h223l113 -156h4l112 156h226zM641 1454q170 0 312 -53.5t239.5 -149.5t151 -231t53.5 -295t-52 -294t-147.5 -229.5t-237 -148.5t-313.5 -53h-469v1454h463zM633 221q227 0 367.5 142t140.5 362q0 222 -138.5 365t-357.5 143h-219v-1012h207z" />
    <glyph glyph-name="dcaron" unicode="&#x10f;" horiz-adv-x="1439" 
d="M1315 1599h221l-119 -405h-164zM893 879v628h227v-1507h-219v133h-4q-115 -149 -324 -149q-210 0 -347.5 141.5t-137.5 370.5q0 148 63.5 267t173.5 185t246 66q201 0 318 -135h4zM608 193q125 0 209 84t84 217q0 135 -81.5 224t-209.5 89q-123 0 -205.5 -86t-82.5 -227
q0 -132 80 -216.5t206 -84.5z" />
    <glyph glyph-name="Dcroat" unicode="&#x110;" horiz-adv-x="1507" 
d="M641 1454q170 0 312 -53.5t239.5 -149.5t151 -231t53.5 -295t-52 -294t-147.5 -229.5t-237 -148.5t-313.5 -53h-469v616h-121v211h121v627h463zM633 221q227 0 367.5 142t140.5 362q0 222 -138.5 365t-357.5 143h-219v-406h248v-211h-248v-395h207z" />
    <glyph glyph-name="dcroat" unicode="&#x111;" horiz-adv-x="1247" 
d="M1247 1307v-156h-127v-1151h-219v133h-4q-115 -149 -324 -149q-210 0 -347.5 141.5t-137.5 370.5q0 148 63.5 267t173.5 185t246 66q201 0 318 -135h4v272h-223v156h223v200h227v-200h127zM608 193q125 0 209 84t84 217q0 135 -81.5 224t-209.5 89q-123 0 -205.5 -86
t-82.5 -227q0 -132 80 -216.5t206 -84.5z" />
    <glyph glyph-name="Emacron" unicode="&#x112;" horiz-adv-x="1243" 
d="M350 1669v193h611v-193h-611zM178 0v1454h916v-221h-668v-402h539v-221h-539v-389h711v-221h-959z" />
    <glyph glyph-name="emacron" unicode="&#x113;" horiz-adv-x="1150" 
d="M901 1389v-193h-610v193h610zM1063 512q0 -38 -6 -92h-729q23 -106 98.5 -166.5t185.5 -60.5q156 0 250 116l160 -137q-67 -87 -174 -137.5t-248 -50.5q-221 0 -365.5 143t-144.5 373q0 228 138.5 371t349.5 143q219 0 352 -140.5t133 -361.5zM590 807q-96 0 -165 -53
t-93 -150h499q-23 94 -84.5 148.5t-156.5 54.5z" />
    <glyph glyph-name="Ebreve" unicode="&#x114;" horiz-adv-x="1243" 
d="M655 1602q-129 0 -219 79t-100 220h180q3 -61 40 -100.5t99 -39.5q60 0 98.5 38.5t41.5 101.5h180q-11 -132 -98 -215.5t-222 -83.5zM178 0v1454h916v-221h-668v-402h539v-221h-539v-389h711v-221h-959z" />
    <glyph glyph-name="ebreve" unicode="&#x115;" horiz-adv-x="1150" 
d="M596 1128q-129 0 -219.5 79t-100.5 220h181q3 -61 40 -100t99 -39q60 0 98 38t41 101h180q-11 -132 -97.5 -215.5t-221.5 -83.5zM1063 512q0 -38 -6 -92h-729q23 -106 98.5 -166.5t185.5 -60.5q156 0 250 116l160 -137q-67 -87 -174 -137.5t-248 -50.5q-221 0 -365.5 143
t-144.5 373q0 228 138.5 371t349.5 143q219 0 352 -140.5t133 -361.5zM590 807q-96 0 -165 -53t-93 -150h499q-23 94 -84.5 148.5t-156.5 54.5z" />
    <glyph glyph-name="Edotaccent" unicode="&#x116;" horiz-adv-x="1243" 
d="M655 1620q-64 0 -108.5 45.5t-44.5 108.5q0 62 44.5 106.5t108.5 44.5t110 -44.5t46 -106.5q0 -63 -46 -108.5t-110 -45.5zM178 0v1454h916v-221h-668v-402h539v-221h-539v-389h711v-221h-959z" />
    <glyph glyph-name="edotaccent" unicode="&#x117;" horiz-adv-x="1150" 
d="M596 1147q-64 0 -109 45t-45 108q0 62 45 107t109 45t110 -45t46 -107q0 -63 -46 -108t-110 -45zM1063 512q0 -38 -6 -92h-729q23 -106 98.5 -166.5t185.5 -60.5q156 0 250 116l160 -137q-67 -87 -174 -137.5t-248 -50.5q-221 0 -365.5 143t-144.5 373q0 228 138.5 371
t349.5 143q219 0 352 -140.5t133 -361.5zM590 807q-96 0 -165 -53t-93 -150h499q-23 94 -84.5 148.5t-156.5 54.5z" />
    <glyph glyph-name="Eogonek" unicode="&#x118;" horiz-adv-x="1243" 
d="M1110 0q-73 -17 -117.5 -61t-44.5 -93q0 -39 23 -61.5t65 -22.5q11 0 19.5 0.5t16 1.5t11.5 1.5t11 3t8 2.5t9 4t9 4l15 -139q-61 -25 -148 -25q-101 0 -161 49t-60 131q0 50 34.5 106t96.5 99h-719v1454h916v-221h-668v-402h539v-221h-539v-389h711v-221h-27z" />
    <glyph glyph-name="eogonek" unicode="&#x119;" horiz-adv-x="1150" 
d="M1063 512q0 -38 -6 -92h-729q23 -106 98.5 -166.5t185.5 -60.5q156 0 250 116l160 -137q-91 -119 -244 -164q-176 -63 -176 -151q0 -33 23.5 -54.5t64.5 -21.5q44 0 84 14l14 -145q-58 -27 -147 -27q-114 0 -177 49.5t-63 132.5q0 44 27.5 93.5t77.5 89.5v4
q-185 30 -300.5 167t-115.5 341q0 228 138.5 371t349.5 143q219 0 352 -140.5t133 -361.5zM590 807q-96 0 -165 -53t-93 -150h499q-23 94 -84.5 148.5t-156.5 54.5z" />
    <glyph glyph-name="Ecaron" unicode="&#x11a;" horiz-adv-x="1243" 
d="M752 1608h-205l-232 301h224l112 -156h4l113 156h225zM426 221h711v-221h-959v1454h916v-221h-668v-402h539v-221h-539v-389z" />
    <glyph glyph-name="ecaron" unicode="&#x11b;" horiz-adv-x="1150" 
d="M692 1135h-205l-231 301h223l113 -156h4l113 156h225zM1063 512q0 -38 -6 -92h-729q23 -106 98.5 -166.5t185.5 -60.5q156 0 250 116l160 -137q-67 -87 -174 -137.5t-248 -50.5q-221 0 -365.5 143t-144.5 373q0 228 138.5 371t349.5 143q219 0 352 -140.5t133 -361.5z
M590 807q-96 0 -165 -53t-93 -150h499q-23 94 -84.5 148.5t-156.5 54.5z" />
    <glyph glyph-name="Gcircumflex" unicode="&#x11c;" horiz-adv-x="1554" 
d="M827 1761l-112 -153h-223l231 301h205l241 -301h-225l-113 153h-4zM813 776h602v-606q-101 -84 -252 -133t-317 -49q-210 0 -375 87t-261.5 256t-96.5 394q0 160 50.5 297t143 236t229.5 155.5t302 56.5q159 0 308 -60t259 -179l-174 -152q-161 158 -395 158
q-201 0 -333 -140t-132 -372q0 -145 57.5 -261t166.5 -183.5t251 -67.5q180 0 323 96v246h-356v221z" />
    <glyph glyph-name="gcircumflex" unicode="&#x11d;" horiz-adv-x="1243" 
d="M596 1288l-113 -153h-223l232 301h204l242 -301h-225l-113 153h-4zM877 999h229v-897q0 -117 -28 -210t-87 -164t-159 -109.5t-236 -38.5q-234 0 -408 105l56 200q97 -51 169.5 -74.5t170.5 -23.5q142 0 219.5 70.5t77.5 175.5v106h-2q-120 -123 -306 -123
q-212 0 -349.5 137t-137.5 357t134 362t341 142q184 0 311 -121h5v106zM604 227q124 0 203.5 82.5t79.5 210.5q0 126 -80.5 205.5t-202.5 79.5q-127 0 -206 -80.5t-79 -208.5q0 -131 80.5 -210t204.5 -79z" />
    <glyph glyph-name="Gbreve" unicode="&#x11e;" horiz-adv-x="1554" 
d="M831 1602q-129 0 -219 79t-100 220h180q3 -61 40 -100.5t99 -39.5q60 0 98.5 38.5t41.5 101.5h180q-11 -132 -98 -215.5t-222 -83.5zM846 -12q-210 0 -375 87t-261.5 256t-96.5 394q0 160 50.5 297t143 236t229.5 155.5t302 56.5q159 0 308 -60t259 -179l-174 -152
q-161 158 -395 158q-201 0 -333 -140t-132 -372q0 -145 57.5 -261t166.5 -183.5t251 -67.5q180 0 323 96v246h-356v221h602v-606q-101 -84 -252 -133t-317 -49z" />
    <glyph glyph-name="gbreve" unicode="&#x11f;" horiz-adv-x="1243" 
d="M600 1128q-129 0 -219 79t-100 220h180q3 -61 40 -100t99 -39q60 0 98 38t41 101h181q-11 -132 -98 -215.5t-222 -83.5zM877 999h229v-897q0 -117 -28 -210t-87 -164t-159 -109.5t-236 -38.5q-234 0 -408 105l56 200q97 -51 169.5 -74.5t170.5 -23.5q142 0 219.5 70.5
t77.5 175.5v106h-2q-120 -123 -306 -123q-212 0 -349.5 137t-137.5 357t134 362t341 142q184 0 311 -121h5v106zM604 227q124 0 203.5 82.5t79.5 210.5q0 126 -80.5 205.5t-202.5 79.5q-127 0 -206 -80.5t-79 -208.5q0 -131 80.5 -210t204.5 -79z" />
    <glyph glyph-name="Gdotaccent" unicode="&#x120;" horiz-adv-x="1554" 
d="M831 1620q-64 0 -108.5 45.5t-44.5 108.5q0 62 44.5 106.5t108.5 44.5t110 -44.5t46 -106.5q0 -63 -46 -108.5t-110 -45.5zM846 -12q-210 0 -375 87t-261.5 256t-96.5 394q0 160 50.5 297t143 236t229.5 155.5t302 56.5q159 0 308 -60t259 -179l-174 -152
q-161 158 -395 158q-201 0 -333 -140t-132 -372q0 -145 57.5 -261t166.5 -183.5t251 -67.5q180 0 323 96v246h-356v221h602v-606q-101 -84 -252 -133t-317 -49z" />
    <glyph glyph-name="gdotaccent" unicode="&#x121;" horiz-adv-x="1243" 
d="M600 1147q-64 0 -109 45t-45 108q0 62 45 107t109 45t110 -45t46 -107q0 -63 -46 -108t-110 -45zM877 999h229v-897q0 -117 -28 -210t-87 -164t-159 -109.5t-236 -38.5q-234 0 -408 105l56 200q97 -51 169.5 -74.5t170.5 -23.5q142 0 219.5 70.5t77.5 175.5v106h-2
q-120 -123 -306 -123q-212 0 -349.5 137t-137.5 357t134 362t341 142q184 0 311 -121h5v106zM604 227q124 0 203.5 82.5t79.5 210.5q0 126 -80.5 205.5t-202.5 79.5q-127 0 -206 -80.5t-79 -208.5q0 -131 80.5 -210t204.5 -79z" />
    <glyph glyph-name="Gcommaaccent" unicode="&#x122;" horiz-adv-x="1554" 
d="M846 -12q-210 0 -375 87t-261.5 256t-96.5 394q0 160 50.5 297t143 236t229.5 155.5t302 56.5q159 0 308 -60t259 -179l-174 -152q-161 158 -395 158q-201 0 -333 -140t-132 -372q0 -145 57.5 -261t166.5 -183.5t251 -67.5q180 0 323 96v246h-356v221h602v-606
q-101 -84 -252 -133t-317 -49zM688 -449l-53 134q62 22 87.5 50t25.5 77q0 22 -13 79h209q8 -41 8 -96q0 -110 -75 -171.5t-189 -72.5z" />
    <glyph glyph-name="gcommaaccent" unicode="&#x123;" horiz-adv-x="1243" 
d="M713 1145h-209q-8 41 -8 96q0 110 75 171.5t189 72.5l53 -133q-62 -22 -87.5 -50t-25.5 -77q0 -23 13 -80zM877 999h229v-897q0 -117 -28 -210t-87 -164t-159 -109.5t-236 -38.5q-234 0 -408 105l56 200q97 -51 169.5 -74.5t170.5 -23.5q142 0 219.5 70.5t77.5 175.5v106
h-2q-120 -123 -306 -123q-212 0 -349.5 137t-137.5 357t134 362t341 142q184 0 311 -121h5v106zM604 227q124 0 203.5 82.5t79.5 210.5q0 126 -80.5 205.5t-202.5 79.5q-127 0 -206 -80.5t-79 -208.5q0 -131 80.5 -210t204.5 -79z" />
    <glyph glyph-name="Hcircumflex" unicode="&#x124;" horiz-adv-x="1507" 
d="M756 1761l-113 -153h-223l231 301h205l242 -301h-226l-112 153h-4zM1083 1454h246v-1454h-246v584h-657v-584h-248v1454h248v-649h657v649z" />
    <glyph glyph-name="hcircumflex" unicode="&#x125;" horiz-adv-x="1224" 
d="M489 1782l-112 -154h-223l231 301h205l241 -301h-225l-112 154h-5zM721 1014q174 0 273.5 -100.5t99.5 -315.5v-598h-230v539q0 144 -54.5 206t-162.5 62q-126 0 -197 -76.5t-71 -222.5v-508h-229v1507h229v-635h2q127 142 340 142z" />
    <glyph glyph-name="Hbar" unicode="&#x126;" horiz-adv-x="1507" 
d="M1444 1227v-170h-115v-1057h-246v584h-657v-584h-248v1057h-102v170h102v227h248v-227h657v227h246v-227h115zM1083 805v252h-657v-252h657z" />
    <glyph glyph-name="hbar" unicode="&#x127;" horiz-adv-x="1224" 
d="M721 1014q174 0 273.5 -100.5t99.5 -315.5v-598h-230v539q0 144 -54.5 206t-162.5 62q-126 0 -197 -76.5t-71 -222.5v-508h-229v1151h-138v156h138v200h229v-200h211v-156h-211v-279h2q127 142 340 142z" />
    <glyph glyph-name="Itilde" unicode="&#x128;" horiz-adv-x="622" 
d="M471 1606q-34 0 -69.5 11t-57.5 22.5t-53 31.5q-70 45 -115 45q-76 0 -119 -106l-139 63q32 104 91.5 164.5t142.5 60.5q37 0 71 -9t53.5 -19.5t47.5 -28.5q3 -2 13 -8.5t13 -8.5t12 -7.5t13.5 -7.5t12.5 -6t13.5 -5.5t12.5 -3.5t14 -3t14 -1q74 0 117 106l139 -47
q-31 -114 -90.5 -178.5t-136.5 -64.5zM186 0v1454h248v-1454h-248z" />
    <glyph glyph-name="itilde" unicode="&#x129;" horiz-adv-x="557" 
d="M442 1133q-34 0 -69.5 11t-57.5 22.5t-53 31.5q-7 4 -21 14t-20 13.5t-17.5 8.5t-22 7t-23.5 2q-25 0 -52 -28.5t-47 -77.5l-139 63q32 102 88 163.5t125 61.5q12 0 23 -1t20 -2t19.5 -4t16 -4.5t16 -6.5t14 -6.5t14 -8t12.5 -7.5t14 -8.5t13 -8.5q64 -41 93 -48
q13 -3 26 -3q73 0 116 106l140 -47q-31 -114 -91 -178.5t-137 -64.5zM164 0v999h229v-999h-229z" />
    <glyph glyph-name="Imacron" unicode="&#x12a;" horiz-adv-x="622" 
d="M2 1669v193h610v-193h-610zM186 0v1454h248v-1454h-248z" />
    <glyph glyph-name="imacron" unicode="&#x12b;" horiz-adv-x="557" 
d="M-27 1196v193h611v-193h-611zM164 0v999h229v-999h-229z" />
    <glyph glyph-name="Ibreve" unicode="&#x12c;" horiz-adv-x="622" 
d="M307 1602q-129 0 -219 79t-100 220h180q3 -61 40 -100.5t99 -39.5q60 0 98 38.5t41 101.5h181q-11 -132 -98 -215.5t-222 -83.5zM186 0v1454h248v-1454h-248z" />
    <glyph glyph-name="ibreve" unicode="&#x12d;" horiz-adv-x="557" 
d="M279 1128q-120 0 -200.5 78.5t-90.5 220.5h180q5 -62 33 -100.5t78 -38.5q46 0 75.5 38t32.5 101h180q-9 -134 -85.5 -216.5t-202.5 -82.5zM164 0v999h229v-999h-229z" />
    <glyph glyph-name="Iogonek" unicode="&#x12e;" horiz-adv-x="622" 
d="M395 0q-73 -17 -117.5 -61t-44.5 -93q0 -39 23.5 -61.5t65.5 -22.5q11 0 19.5 0.5t16 1.5t11.5 1.5t11 3t8 2.5t9 4t9 4l14 -139q-61 -25 -148 -25q-101 0 -161 49t-60 131q0 51 35.5 107.5t99.5 99.5v1452h248v-1454h-39z" />
    <glyph glyph-name="iogonek" unicode="&#x12f;" horiz-adv-x="557" 
d="M279 1147q-64 0 -109 45t-45 108q0 62 45 107t109 45t109.5 -45t45.5 -107q0 -63 -45.5 -108t-109.5 -45zM297 -238q11 0 19.5 0.5t16 1.5t11.5 1.5t11 3t8 2.5t9 4t9 4l14 -139q-61 -25 -147 -25q-101 0 -161 49t-60 131q0 52 36 109t101 100v995h229v-999h-22
q-73 -17 -117.5 -61t-44.5 -93q0 -39 23 -61.5t65 -22.5z" />
    <glyph glyph-name="Idotaccent" unicode="&#x130;" horiz-adv-x="622" 
d="M307 1620q-64 0 -108.5 45.5t-44.5 108.5q0 62 44.5 106.5t108.5 44.5t110 -44.5t46 -106.5q0 -63 -46 -108.5t-110 -45.5zM186 0v1454h248v-1454h-248z" />
    <glyph glyph-name="dotlessi" unicode="&#x131;" horiz-adv-x="557" 
d="M164 0v999h229v-999h-229z" />
    <glyph glyph-name="IJ" unicode="&#x132;" horiz-adv-x="1660" 
d="M186 0v1454h248v-1454h-248zM1071 -12q-108 0 -212.5 46.5t-172.5 135.5l139 180q44 -53 108.5 -91t127.5 -38q196 0 196 279v954h248v-956q0 -249 -103 -379.5t-331 -130.5z" />
    <glyph glyph-name="ij" unicode="&#x133;" horiz-adv-x="1067" 
d="M279 1147q-64 0 -109 45t-45 108q0 62 45 107t109 45t109.5 -45t45.5 -107q0 -63 -45.5 -108t-109.5 -45zM813 1147q-64 0 -109 45t-45 108q0 62 45 107t109 45t110 -45t46 -107q0 -63 -46 -108t-110 -45zM164 0v999h229v-999h-229zM651 -422q-57 0 -98 7.5t-96 29.5
l39 199q47 -29 90 -29q50 0 82 37.5t32 109.5v1067h230v-1067q0 -169 -78.5 -261.5t-200.5 -92.5z" />
    <glyph glyph-name="Jcircumflex" unicode="&#x134;" horiz-adv-x="1038" 
d="M754 1761l-113 -153h-223l231 301h205l242 -301h-226l-112 153h-4zM635 500v954h248v-956q0 -249 -103 -379.5t-331 -130.5q-108 0 -213 47t-173 135l140 180q44 -53 108 -91t127 -38q197 0 197 279z" />
    <glyph glyph-name="jcircumflex" unicode="&#x135;" horiz-adv-x="509" 
d="M252 1288l-113 -153h-223l231 301h205l242 -301h-225l-113 153h-4zM143 -68v1067h230v-1067q0 -169 -78.5 -261.5t-200.5 -92.5q-57 0 -98 7.5t-96 29.5l39 199q47 -29 90 -29q50 0 82 37.5t32 109.5z" />
    <glyph glyph-name="Kcommaaccent" unicode="&#x136;" horiz-adv-x="1359" 
d="M756 805l563 -805h-307l-418 606h-4l-164 -194v-412h-248v1454h248v-696h4l557 696h316zM590 -109h209q8 -41 8 -96q0 -110 -75 -171.5t-189 -72.5l-54 134q62 22 87.5 50t25.5 77q0 26 -12 79z" />
    <glyph glyph-name="kcommaaccent" unicode="&#x137;" horiz-adv-x="1095" 
d="M700 596l367 -596h-258l-260 420h-4l-166 -184v-236h-229v1507h229v-964l409 456h273zM477 -109h209q8 -41 8 -96q0 -110 -75 -171.5t-189 -72.5l-53 134q62 22 87 50t25 77q0 26 -12 79z" />
    <glyph glyph-name="kgreenlandic" unicode="&#x138;" horiz-adv-x="1097" 
d="M549 420h-4l-166 -184v-236h-229v999h229v-458l409 458h275l-361 -403l365 -596h-258z" />
    <glyph glyph-name="Lacute" unicode="&#x139;" horiz-adv-x="1173" 
d="M397 1612l236 295l252 2l-254 -297h-234zM178 0v1454h248v-1233h674v-221h-922z" />
    <glyph glyph-name="lacute" unicode="&#x13a;" horiz-adv-x="557" 
d="M164 1638l235 295l252 2l-254 -297h-233zM164 0v1507h229v-1507h-229z" />
    <glyph glyph-name="Lcommaaccent" unicode="&#x13b;" horiz-adv-x="1173" 
d="M178 0v1454h248v-1233h674v-221h-922zM471 -449l-53 134q62 22 87 50t25 77q0 26 -12 79h209q8 -41 8 -96q0 -110 -75 -171.5t-189 -72.5z" />
    <glyph glyph-name="lcommaaccent" unicode="&#x13c;" horiz-adv-x="557" 
d="M164 0v1507h229v-1507h-229zM121 -449l-53 134q62 22 87 50t25 77q0 26 -12 79h209q8 -41 8 -96q0 -110 -75 -171.5t-189 -72.5z" />
    <glyph glyph-name="Lcaron" unicode="&#x13d;" horiz-adv-x="1173" 
d="M655 1194l64 405h219l-119 -405h-164zM178 0v1454h248v-1233h674v-221h-922z" />
    <glyph glyph-name="lcaron" unicode="&#x13e;" horiz-adv-x="708" 
d="M524 1194l62 405h221l-119 -405h-164zM164 0v1507h229v-1507h-229z" />
    <glyph glyph-name="Ldot" unicode="&#x13f;" horiz-adv-x="1173" 
d="M178 0v1454h248v-1233h674v-221h-922zM897 543q-65 0 -110.5 44t-45.5 107t46 108.5t110 45.5q63 0 108.5 -45.5t45.5 -108.5t-45.5 -107t-108.5 -44z" />
    <glyph glyph-name="ldot" unicode="&#x140;" horiz-adv-x="927" 
d="M164 0v1507h229v-1507h-229zM737 350q-64 0 -109.5 44.5t-45.5 107.5t45.5 108t109.5 45q63 0 108.5 -45t45.5 -108t-45.5 -107.5t-108.5 -44.5z" />
    <glyph glyph-name="Lslash" unicode="&#x141;" horiz-adv-x="1185" 
d="M438 221h674v-221h-922v559l-147 -70v201l147 70v694h248v-575l170 82v-205l-170 -80v-455z" />
    <glyph glyph-name="lslash" unicode="&#x142;" horiz-adv-x="604" 
d="M545 883v-213l-119 -56v-614h-229v504l-127 -60v213l127 60v790h229v-680z" />
    <glyph glyph-name="Nacute" unicode="&#x143;" horiz-adv-x="1562" 
d="M1063 1909l-254 -297h-234l236 295zM1139 1454h245v-1454h-251l-707 1030v-1030h-248v1454h246l711 -1044h4v1044z" />
    <glyph glyph-name="nacute" unicode="&#x144;" horiz-adv-x="1214" 
d="M920 1436l-254 -297h-234l236 295zM717 1014q172 0 269 -104t97 -322v-588h-229v528q0 152 -54.5 215.5t-162.5 63.5q-119 0 -188.5 -80t-69.5 -225v-502h-229v999h229v-139h2q62 74 150 114t186 40z" />
    <glyph glyph-name="Ncommaaccent" unicode="&#x145;" horiz-adv-x="1562" 
d="M1139 1454h245v-1454h-251l-707 1030v-1030h-248v1454h246l711 -1044h4v1044zM668 -109h209q8 -41 8 -96q0 -110 -75 -171.5t-189 -72.5l-54 134q62 22 87.5 50t25.5 77q0 26 -12 79z" />
    <glyph glyph-name="ncommaaccent" unicode="&#x146;" horiz-adv-x="1214" 
d="M717 1014q172 0 269 -104t97 -322v-588h-229v528q0 152 -54.5 215.5t-162.5 63.5q-119 0 -188.5 -80t-69.5 -225v-502h-229v999h229v-139h2q62 74 150 114t186 40zM494 -109h208q9 -47 9 -96q0 -110 -75.5 -171t-189.5 -73l-53 134q62 22 87.5 50t25.5 77q0 26 -12 79z
" />
    <glyph glyph-name="Ncaron" unicode="&#x147;" horiz-adv-x="1562" 
d="M877 1608h-205l-232 301h224l112 -156h4l113 156h225zM1139 1454h245v-1454h-251l-707 1030v-1030h-248v1454h246l711 -1044h4v1044z" />
    <glyph glyph-name="ncaron" unicode="&#x148;" horiz-adv-x="1214" 
d="M702 1135h-204l-232 301h223l113 -156h4l113 156h225zM717 1014q172 0 269 -104t97 -322v-588h-229v528q0 152 -54.5 215.5t-162.5 63.5q-119 0 -188.5 -80t-69.5 -225v-502h-229v999h229v-139h2q62 74 150 114t186 40z" />
    <glyph glyph-name="napostrophe" unicode="&#x149;" horiz-adv-x="1384" 
d="M-18 1028l61 426h221l-119 -426h-163zM887 1014q172 0 269 -104t97 -322v-588h-229v528q0 152 -54.5 215.5t-162.5 63.5q-119 0 -188.5 -80t-69.5 -225v-502h-230v999h230v-139h2q62 74 150 114t186 40z" />
    <glyph glyph-name="Eng" unicode="&#x14a;" horiz-adv-x="1564" 
d="M1139 1454h247v-1366v-156q0 -169 -81 -260.5t-215 -91.5q-101 0 -195 37l39 188q51 -28 90 -28q49 0 82 40.5t33 106.5v72l-711 1034h-2v-1030h-248v1454h242l717 -1048h2v1048z" />
    <glyph glyph-name="eng" unicode="&#x14b;" horiz-adv-x="1175" 
d="M698 1014q344 0 344 -420v-660q0 -169 -78 -261.5t-200 -92.5q-57 0 -99 7.5t-96 29.5l39 188q51 -28 90 -28q50 0 82.5 40t32.5 107v602q0 156 -43.5 218.5t-151.5 62.5q-100 0 -169.5 -83.5t-69.5 -225.5v-498h-229v999h229v-135h2q61 70 149 110t168 40z" />
    <glyph glyph-name="Omacron" unicode="&#x14c;" horiz-adv-x="1693" 
d="M545 1669v193h610v-193h-610zM848 -16q-214 0 -382.5 96t-260.5 265.5t-92 381.5t92 381.5t260.5 265.5t382.5 96q209 0 375.5 -92.5t262 -262.5t95.5 -388q0 -163 -55.5 -302t-153 -235.5t-233 -151t-291.5 -54.5zM848 215q202 0 338.5 145.5t136.5 366.5
q0 222 -136 367t-339 145q-139 0 -249.5 -68.5t-170 -185t-59.5 -258.5t59.5 -258.5t170 -185t249.5 -68.5z" />
    <glyph glyph-name="omacron" unicode="&#x14d;" horiz-adv-x="1228" 
d="M309 1196v193h611v-193h-611zM614 -16q-233 0 -378.5 145.5t-145.5 368.5q0 147 64.5 264t184.5 184.5t275 67.5q231 0 378 -143.5t147 -372.5q0 -227 -147 -370.5t-378 -143.5zM614 193q123 0 207 86t84 219q0 136 -83 222.5t-208 86.5q-129 0 -209.5 -88t-80.5 -221
q0 -129 81.5 -217t208.5 -88z" />
    <glyph glyph-name="Obreve" unicode="&#x14e;" horiz-adv-x="1693" 
d="M850 1602q-129 0 -219.5 79t-100.5 220h181q3 -61 40 -100.5t99 -39.5q60 0 98 38.5t41 101.5h180q-11 -132 -97.5 -215.5t-221.5 -83.5zM848 -16q-214 0 -382.5 96t-260.5 265.5t-92 381.5t92 381.5t260.5 265.5t382.5 96q209 0 375.5 -92.5t262 -262.5t95.5 -388
q0 -163 -55.5 -302t-153 -235.5t-233 -151t-291.5 -54.5zM848 215q202 0 338.5 145.5t136.5 366.5q0 222 -136 367t-339 145q-139 0 -249.5 -68.5t-170 -185t-59.5 -258.5t59.5 -258.5t170 -185t249.5 -68.5z" />
    <glyph glyph-name="obreve" unicode="&#x14f;" horiz-adv-x="1228" 
d="M614 1128q-129 0 -219 79t-100 220h180q3 -61 40 -100t99 -39q60 0 98.5 38t41.5 101h180q-11 -132 -98 -215.5t-222 -83.5zM614 -16q-233 0 -378.5 145.5t-145.5 368.5q0 147 64.5 264t184.5 184.5t275 67.5q231 0 378 -143.5t147 -372.5q0 -227 -147 -370.5
t-378 -143.5zM614 193q123 0 207 86t84 219q0 136 -83 222.5t-208 86.5q-129 0 -209.5 -88t-80.5 -221q0 -129 81.5 -217t208.5 -88z" />
    <glyph glyph-name="Ohungarumlaut" unicode="&#x150;" horiz-adv-x="1693" 
d="M547 1612l235 295l234 2l-254 -297h-215zM938 1612l233 295l234 2l-254 -297h-213zM848 -16q-214 0 -382.5 96t-260.5 265.5t-92 381.5t92 381.5t260.5 265.5t382.5 96q209 0 375.5 -92.5t262 -262.5t95.5 -388q0 -163 -55.5 -302t-153 -235.5t-233 -151t-291.5 -54.5z
M848 215q202 0 338.5 145.5t136.5 366.5q0 222 -136 367t-339 145q-139 0 -249.5 -68.5t-170 -185t-59.5 -258.5t59.5 -258.5t170 -185t249.5 -68.5z" />
    <glyph glyph-name="ohungarumlaut" unicode="&#x151;" horiz-adv-x="1228" 
d="M289 1139l235 295l234 2l-254 -297h-215zM680 1139l233 295l234 2l-254 -297h-213zM614 -16q-233 0 -378.5 145.5t-145.5 368.5q0 147 64.5 264t184.5 184.5t275 67.5q231 0 378 -143.5t147 -372.5q0 -227 -147 -370.5t-378 -143.5zM614 193q123 0 207 86t84 219
q0 136 -83 222.5t-208 86.5q-129 0 -209.5 -88t-80.5 -221q0 -129 81.5 -217t208.5 -88z" />
    <glyph glyph-name="OE" unicode="&#x152;" horiz-adv-x="1980" 
d="M1157 221h715v-221h-950h-70q-162 0 -300.5 56t-234.5 153.5t-150 232t-54 287.5t54 287t150 231t234.5 152.5t300.5 54.5h141h838v-221h-674v-404h551v-221h-551v-387zM852 229l70 2v994h-70q-134 1 -245 -63t-174.5 -178.5t-63.5 -254.5t63.5 -255.5t174.5 -180.5
t245 -64z" />
    <glyph glyph-name="oe" unicode="&#x153;" horiz-adv-x="1642" 
d="M1585 512q0 -32 -6 -92h-610q18 -105 75.5 -166t147.5 -61q56 0 107.5 33t84.5 83l160 -137q-58 -84 -157 -136t-207 -52q-105 0 -193 43.5t-147 122.5h-4q-59 -79 -144 -122.5t-184 -43.5q-200 0 -323.5 145.5t-123.5 368.5q0 221 130.5 368.5t324.5 147.5
q96 0 179 -43.5t141 -122.5h4q59 79 145 122.5t189 43.5q180 0 295.5 -141.5t115.5 -360.5zM506 193q94 0 158.5 86t64.5 219q0 138 -59.5 223.5t-153.5 85.5q-93 0 -157 -89.5t-64 -219.5t58 -217.5t153 -87.5zM1167 807q-75 0 -125 -51.5t-69 -143.5h385q-21 90 -70 142.5
t-121 52.5z" />
    <glyph glyph-name="Racute" unicode="&#x154;" horiz-adv-x="1349" 
d="M954 1909l-254 -297h-233l235 295zM1266 0h-297l-348 518h-195v-518h-248v1454h537q127 0 223.5 -35.5t155.5 -99.5t88.5 -148.5t29.5 -187.5q0 -176 -83.5 -286t-235.5 -152v-6zM426 1233v-492h236q144 0 219 67t75 179q0 116 -72.5 181t-205.5 65h-252z" />
    <glyph glyph-name="racute" unicode="&#x155;" horiz-adv-x="761" 
d="M737 1436l-254 -297h-233l235 295zM381 848q59 80 139.5 123t171.5 43h29v-256q-54 4 -70 4q-127 0 -199.5 -81t-72.5 -208v-473h-229v999h229v-151h2z" />
    <glyph glyph-name="Rcommaaccent" unicode="&#x156;" horiz-adv-x="1349" 
d="M893 539l373 -539h-297l-348 518h-195v-518h-248v1454h537q127 0 223.5 -35.5t155.5 -99.5t88.5 -148.5t29.5 -187.5q0 -176 -83.5 -286t-235.5 -152v-6zM426 1233v-492h236q144 0 219 67t75 179q0 116 -72.5 181t-205.5 65h-252zM559 -109h209q8 -41 8 -96
q0 -110 -75 -171.5t-189 -72.5l-53 134q62 22 87 50t25 77q0 26 -12 79z" />
    <glyph glyph-name="rcommaaccent" unicode="&#x157;" horiz-adv-x="761" 
d="M692 1014h29v-256q-54 4 -70 4q-127 0 -199.5 -81t-72.5 -208v-473h-229v999h229v-151h2q59 80 139.5 123t171.5 43zM158 -109h209q8 -41 8 -96q0 -110 -75 -171.5t-189 -72.5l-54 134q62 22 87.5 50t25.5 77q0 26 -12 79z" />
    <glyph glyph-name="Rcaron" unicode="&#x158;" horiz-adv-x="1349" 
d="M768 1608h-205l-231 301h223l113 -156h4l112 156h226zM1266 0h-297l-348 518h-195v-518h-248v1454h537q127 0 223.5 -35.5t155.5 -99.5t88.5 -148.5t29.5 -187.5q0 -176 -83.5 -286t-235.5 -152v-6zM426 1233v-492h236q144 0 219 67t75 179q0 116 -72.5 181t-205.5 65
h-252z" />
    <glyph glyph-name="rcaron" unicode="&#x159;" horiz-adv-x="761" 
d="M551 1135h-205l-231 301h223l113 -156h4l112 156h226zM381 848q59 80 139.5 123t171.5 43h29v-256q-54 4 -70 4q-127 0 -199.5 -81t-72.5 -208v-473h-229v999h229v-151h2z" />
    <glyph glyph-name="Sacute" unicode="&#x15a;" horiz-adv-x="1210" 
d="M473 1612l236 295l252 2l-254 -297h-234zM612 -16q-144 0 -279.5 57t-246.5 172l156 190q76 -92 175.5 -141t196.5 -49q117 0 179.5 47.5t62.5 128.5q0 38 -13 67.5t-32 50.5t-59 42t-76 36t-101 38q-78 28 -132 51t-117 61.5t-101 81.5t-64 107t-26 141q0 169 135.5 287
t325.5 118q254 3 481 -178l-147 -194q-181 149 -334 149q-88 0 -146 -45.5t-59 -124.5q0 -26 6 -47t26 -40.5t36 -32t57 -31t65 -28t83 -32.5q181 -71 241 -104q136 -74 181 -184q28 -68 28 -158q0 -87 -30 -160.5t-79.5 -123.5t-115 -85t-135.5 -51t-142 -16z" />
    <glyph glyph-name="sacute" unicode="&#x15b;" horiz-adv-x="919" 
d="M317 1139l236 295l252 2l-254 -297h-234zM469 -16q-239 0 -403 145l114 172q61 -60 130 -88.5t159 -28.5q65 0 102 27t37 72q0 35 -42 58t-154 62q-70 24 -118.5 48.5t-94.5 62t-69.5 92t-23.5 125.5q0 123 99.5 203t253.5 80q198 0 352 -125l-115 -180
q-112 106 -250 106q-40 0 -74 -22t-34 -64q0 -35 39.5 -63t118.5 -58q14 -5 41 -16q37 -14 54.5 -21.5t48.5 -20.5t46 -21.5t39 -22t35.5 -25l28 -28t24 -33t15.5 -37.5t11 -44.5t3 -51.5q0 -133 -95.5 -218t-277.5 -85z" />
    <glyph glyph-name="Scircumflex" unicode="&#x15c;" horiz-adv-x="1210" 
d="M596 1761l-113 -153h-223l232 301h204l242 -301h-225l-113 153h-4zM664 866q181 -71 241 -104q136 -74 181 -184q28 -68 28 -158q0 -87 -30 -160.5t-79.5 -123.5t-115 -85t-135.5 -51t-142 -16q-144 0 -279.5 57t-246.5 172l156 190q76 -92 175.5 -141t196.5 -49
q117 0 179.5 47.5t62.5 128.5q0 38 -13 67.5t-32 50.5t-59 42t-76 36t-101 38q-78 28 -132 51t-117 61.5t-101 81.5t-64 107t-26 141q0 169 135.5 287t325.5 118q254 3 481 -178l-147 -194q-181 149 -334 149q-88 0 -146 -45.5t-59 -124.5q0 -26 6 -47t26 -40.5t36 -32
t57 -31t65 -28t83 -32.5z" />
    <glyph glyph-name="scircumflex" unicode="&#x15d;" horiz-adv-x="919" 
d="M469 1288l-113 -153h-223l232 301h204l242 -301h-225l-113 153h-4zM496 608q14 -5 41 -16q37 -14 54.5 -21.5t48.5 -20.5t46 -21.5t39 -22t35.5 -25l28 -28t24 -33t15.5 -37.5t11 -44.5t3 -51.5q0 -133 -95.5 -218t-277.5 -85q-239 0 -403 145l114 172q61 -60 130 -88.5
t159 -28.5q65 0 102 27t37 72q0 35 -42 58t-154 62q-70 24 -118.5 48.5t-94.5 62t-69.5 92t-23.5 125.5q0 123 99.5 203t253.5 80q198 0 352 -125l-115 -180q-112 106 -250 106q-40 0 -74 -22t-34 -64q0 -35 39.5 -63t118.5 -58z" />
    <glyph glyph-name="Scedilla" unicode="&#x15e;" horiz-adv-x="1210" 
d="M641 -16l-23 -45l3 -5q188 -9 188 -163q0 -72 -60.5 -116t-183.5 -44q-59 0 -121 12v113q47 -15 103 -15q41 0 72.5 16t31.5 46q0 29 -45.5 49.5t-126.5 20.5v73l29 66q-242 32 -422 221l156 190q76 -92 175.5 -141t196.5 -49q117 0 179.5 47.5t62.5 128.5q0 38 -13 67.5
t-32 50.5t-59 42t-76 36t-101 38q-78 28 -132 51t-117 61.5t-101 81.5t-64 107t-26 141q0 169 135.5 287t325.5 118q254 3 481 -178l-147 -194q-181 149 -334 149q-88 0 -146 -45.5t-59 -124.5q0 -26 6 -47t26 -40.5t36 -32t57 -31t65 -28t83 -32.5q181 -71 241 -104
q136 -74 181 -184q28 -68 28 -158q0 -104 -41.5 -187.5t-110.5 -135t-151 -80t-170 -33.5z" />
    <glyph glyph-name="scedilla" unicode="&#x15f;" horiz-adv-x="919" 
d="M473 -16l-22 -45l2 -5q188 -9 188 -163q0 -72 -60.5 -116t-183.5 -44q-59 0 -121 12v113q47 -15 103 -15q41 0 72.5 16t31.5 46q0 29 -45.5 49.5t-126.5 20.5v73l31 70q-161 30 -276 133l114 172q61 -60 130 -88.5t159 -28.5q65 0 102 27t37 72q0 35 -42 58t-154 62
q-70 24 -118.5 48.5t-94.5 62t-69.5 92t-23.5 125.5q0 123 99.5 203t253.5 80q198 0 352 -125l-115 -180q-112 106 -250 106q-40 0 -74 -22t-34 -64q0 -35 39.5 -63t118.5 -58q14 -5 41 -16q37 -14 54.5 -21.5t48.5 -20.5t46 -21.5t39 -22t35.5 -25l28 -28t24 -33
t15.5 -37.5t11 -44.5t3 -51.5q0 -133 -94 -217.5t-275 -85.5z" />
    <glyph glyph-name="Scaron" unicode="&#x160;" horiz-adv-x="1210" 
d="M696 1608h-204l-232 301h223l113 -156h4l113 156h225zM664 866q181 -71 241 -104q136 -74 181 -184q28 -68 28 -158q0 -87 -30 -160.5t-79.5 -123.5t-115 -85t-135.5 -51t-142 -16q-144 0 -279.5 57t-246.5 172l156 190q76 -92 175.5 -141t196.5 -49q117 0 179.5 47.5
t62.5 128.5q0 38 -13 67.5t-32 50.5t-59 42t-76 36t-101 38q-78 28 -132 51t-117 61.5t-101 81.5t-64 107t-26 141q0 169 135.5 287t325.5 118q254 3 481 -178l-147 -194q-181 149 -334 149q-88 0 -146 -45.5t-59 -124.5q0 -26 6 -47t26 -40.5t36 -32t57 -31t65 -28
t83 -32.5z" />
    <glyph glyph-name="scaron" unicode="&#x161;" horiz-adv-x="919" 
d="M569 1135h-204l-232 301h223l113 -156h4l113 156h225zM496 608q14 -5 41 -16q37 -14 54.5 -21.5t48.5 -20.5t46 -21.5t39 -22t35.5 -25l28 -28t24 -33t15.5 -37.5t11 -44.5t3 -51.5q0 -133 -95.5 -218t-277.5 -85q-239 0 -403 145l114 172q61 -60 130 -88.5t159 -28.5
q65 0 102 27t37 72q0 35 -42 58t-154 62q-70 24 -118.5 48.5t-94.5 62t-69.5 92t-23.5 125.5q0 123 99.5 203t253.5 80q198 0 352 -125l-115 -180q-112 106 -250 106q-40 0 -74 -22t-34 -64q0 -35 39.5 -63t118.5 -58z" />
    <glyph glyph-name="uni0162" unicode="&#x162;" horiz-adv-x="1206" 
d="M614 0l-30 -61l2 -5q188 -9 188 -163q0 -72 -60.5 -116t-183.5 -44q-58 0 -120 12v113q47 -15 102 -15q41 0 72.5 16t31.5 46q0 29 -45.5 49.5t-126.5 20.5v73l33 74v1233h-411v221h1077v-221h-418v-1233h-111z" />
    <glyph glyph-name="uni0163" unicode="&#x163;" horiz-adv-x="747" 
d="M428 -66q188 -9 188 -163q0 -72 -60 -116t-183 -44q-59 0 -121 12v113q47 -15 102 -15q41 0 73 16t32 46q0 29 -45.5 49.5t-126.5 20.5v73l37 80q-156 68 -156 309v490h-123v194h123v332l229 25v-357h293v-194h-293v-467q0 -75 23 -107t74 -32q68 0 147 43l59 -199
q-52 -29 -107.5 -44t-143.5 -15l-23 -45z" />
    <glyph glyph-name="Tcaron" unicode="&#x164;" horiz-adv-x="1206" 
d="M696 1608h-204l-232 301h223l113 -156h4l113 156h225zM66 1454h1077v-221h-418v-1233h-248v1233h-411v221z" />
    <glyph glyph-name="tcaron" unicode="&#x165;" horiz-adv-x="747" 
d="M522 1194l64 405h221l-121 -405h-164zM446 -16q-132 0 -205 83.5t-73 247.5v490h-123v194h123v332l229 25v-357h293v-194h-293v-467q0 -75 23 -107t74 -32q68 0 147 43l59 -199q-52 -29 -108 -44t-146 -15z" />
    <glyph glyph-name="Tbar" unicode="&#x166;" horiz-adv-x="1206" 
d="M1143 1233h-418v-406h240v-211h-240v-616h-248v616h-233v211h233v406h-411v221h1077v-221z" />
    <glyph glyph-name="tbar" unicode="&#x167;" horiz-adv-x="747" 
d="M641 242l59 -199q-52 -29 -108 -44t-146 -15q-132 0 -205 83.5t-73 247.5v148h-111v158h111v184h-123v194h123v332l229 25v-357h293v-194h-293v-184h238v-158h-238v-125q0 -75 23 -107t74 -32q68 0 147 43z" />
    <glyph glyph-name="Utilde" unicode="&#x168;" horiz-adv-x="1472" 
d="M899 1606q-34 0 -69.5 11t-57.5 22.5t-53 31.5q-70 45 -115 45q-76 0 -119 -106l-139 63q32 104 91.5 164.5t142.5 60.5q37 0 71 -9t53.5 -19.5t47.5 -28.5q3 -2 13 -8.5t13 -8.5t12 -7.5t13.5 -7.5t12.5 -6t13.5 -5.5t12.5 -3.5t14 -3t14 -1q74 0 117 106l139 -47
q-31 -114 -90.5 -178.5t-136.5 -64.5zM735 -16q-262 0 -419.5 162.5t-157.5 451.5v856h245v-838q0 -177 89 -288t243 -111q149 0 241.5 107.5t92.5 291.5v838h248v-856q0 -284 -155.5 -449t-426.5 -165z" />
    <glyph glyph-name="utilde" unicode="&#x169;" horiz-adv-x="1183" 
d="M457 1243q-76 0 -119 -106l-139 63q32 105 91 165t142 60q37 0 71 -9t53.5 -19.5t47.5 -28.5q64 -41 93 -48q13 -3 26 -3q74 0 117 106l139 -47q-31 -114 -90.5 -178.5t-136.5 -64.5q-78 0 -181 65q-70 45 -114 45zM813 999h229v-999h-229v131q-59 -71 -139.5 -109
t-169.5 -38q-176 0 -275.5 97t-99.5 310v608h229v-546q0 -145 46.5 -202.5t152.5 -57.5t181 86.5t75 240.5v479z" />
    <glyph glyph-name="Umacron" unicode="&#x16a;" horiz-adv-x="1472" 
d="M430 1669v193h610v-193h-610zM735 -16q-262 0 -419.5 162.5t-157.5 451.5v856h245v-838q0 -177 89 -288t243 -111q149 0 241.5 107.5t92.5 291.5v838h248v-856q0 -284 -155.5 -449t-426.5 -165z" />
    <glyph glyph-name="umacron" unicode="&#x16b;" horiz-adv-x="1183" 
d="M893 1389v-193h-610v193h610zM813 999h229v-999h-229v131q-59 -71 -139.5 -109t-169.5 -38q-176 0 -275.5 97t-99.5 310v608h229v-546q0 -145 46.5 -202.5t152.5 -57.5t181 86.5t75 240.5v479z" />
    <glyph glyph-name="Ubreve" unicode="&#x16c;" horiz-adv-x="1472" 
d="M735 1602q-129 0 -219 79t-100 220h180q3 -61 40 -100.5t99 -39.5q60 0 98 38.5t41 101.5h181q-11 -132 -98 -215.5t-222 -83.5zM735 -16q-262 0 -419.5 162.5t-157.5 451.5v856h245v-838q0 -177 89 -288t243 -111q149 0 241.5 107.5t92.5 291.5v838h248v-856
q0 -284 -155.5 -449t-426.5 -165z" />
    <glyph glyph-name="ubreve" unicode="&#x16d;" horiz-adv-x="1183" 
d="M588 1128q-129 0 -219.5 79t-100.5 220h181q3 -61 40 -100t99 -39q60 0 98 38t41 101h180q-11 -132 -97.5 -215.5t-221.5 -83.5zM813 999h229v-999h-229v131q-59 -71 -139.5 -109t-169.5 -38q-176 0 -275.5 97t-99.5 310v608h229v-546q0 -145 46.5 -202.5t152.5 -57.5
t181 86.5t75 240.5v479z" />
    <glyph glyph-name="Uring" unicode="&#x16e;" horiz-adv-x="1472" 
d="M733 1559q-91 0 -156 62t-65 153q0 89 63 152t158 63q93 0 158 -62t65 -153q0 -89 -63 -152t-160 -63zM733 1698q34 0 57 23t23 55t-23 54.5t-57 22.5q-32 0 -55 -23t-23 -54q0 -33 22.5 -55.5t55.5 -22.5zM735 -16q-262 0 -419.5 162.5t-157.5 451.5v856h245v-838
q0 -177 89 -288t243 -111q149 0 241.5 107.5t92.5 291.5v838h248v-856q0 -284 -155.5 -449t-426.5 -165z" />
    <glyph glyph-name="uring" unicode="&#x16f;" horiz-adv-x="1183" 
d="M586 1085q-91 0 -156 62t-65 153q0 89 63 152.5t158 63.5q93 0 158 -62t65 -154q0 -89 -63 -152t-160 -63zM586 1380q-32 0 -55 -23t-23 -54q0 -33 22.5 -55.5t55.5 -22.5q34 0 57 23t23 55t-23 54.5t-57 22.5zM813 999h229v-999h-229v131q-59 -71 -139.5 -109
t-169.5 -38q-176 0 -275.5 97t-99.5 310v608h229v-546q0 -145 46.5 -202.5t152.5 -57.5t181 86.5t75 240.5v479z" />
    <glyph glyph-name="Uhungarumlaut" unicode="&#x170;" horiz-adv-x="1472" 
d="M424 1612l235 295l234 2l-254 -297h-215zM815 1612l234 295l233 2l-254 -297h-213zM735 -16q-262 0 -419.5 162.5t-157.5 451.5v856h245v-838q0 -177 89 -288t243 -111q149 0 241.5 107.5t92.5 291.5v838h248v-856q0 -284 -155.5 -449t-426.5 -165z" />
    <glyph glyph-name="uhungarumlaut" unicode="&#x171;" horiz-adv-x="1183" 
d="M739 1436l-254 -297h-215l236 295zM874 1139h-212l233 295l233 2zM813 520v479h229v-999h-229v131q-59 -71 -139.5 -109t-169.5 -38q-176 0 -275.5 97t-99.5 310v608h229v-546q0 -145 46.5 -202.5t152.5 -57.5t181 86.5t75 240.5z" />
    <glyph glyph-name="Uogonek" unicode="&#x172;" horiz-adv-x="1472" 
d="M1069 1454h248v-856q0 -227 -101 -380.5t-284 -207.5q-80 -23 -127 -64.5t-47 -88.5q0 -39 23 -61.5t65 -22.5q52 0 84 14l12 -137q-59 -27 -145 -27q-102 0 -162 50t-60 132q0 42 26 90t73 89v2q-236 21 -376 181.5t-140 430.5v856h245v-838q0 -177 89 -288t243 -111
q149 0 241.5 107.5t92.5 291.5v838z" />
    <glyph glyph-name="uogonek" unicode="&#x173;" horiz-adv-x="1183" 
d="M1018 0q-73 -17 -117.5 -61t-44.5 -93q0 -39 23 -61.5t65 -22.5q11 0 19.5 0.5t16 1.5t11.5 1.5t11 3t8 2.5t9 4t9 4l14 -139q-61 -25 -147 -25q-101 0 -161 49t-60 131q0 51 37 108.5t102 100.5v127q-59 -71 -139.5 -109t-169.5 -38q-176 0 -275.5 97t-99.5 310v608h229
v-546q0 -145 46.5 -202.5t152.5 -57.5t181 86.5t75 240.5v479h229v-999h-24z" />
    <glyph glyph-name="Wcircumflex" unicode="&#x174;" horiz-adv-x="2119" 
d="M1059 1761l-113 -153h-223l231 301h205l242 -301h-225l-113 153h-4zM1792 1454h262l-461 -1454h-231l-297 1094h-4l-303 -1094h-232l-460 1454h264l311 -1051h2l287 1051h262l285 -1053h2z" />
    <glyph glyph-name="wcircumflex" unicode="&#x175;" horiz-adv-x="1579" 
d="M784 1288l-112 -153h-223l231 301h205l241 -301h-225l-113 153h-4zM1298 999h234l-344 -999h-211l-189 629h-2l-188 -629h-207l-344 999h234l215 -657h4l192 657h193l194 -659h4z" />
    <glyph glyph-name="Ycircumflex" unicode="&#x176;" horiz-adv-x="1280" 
d="M639 1761l-113 -153h-223l232 301h204l242 -301h-225l-113 153h-4zM965 1454h286l-489 -811v-643h-248v643l-485 811h282l326 -563h4z" />
    <glyph glyph-name="ycircumflex" unicode="&#x177;" horiz-adv-x="1095" 
d="M545 1288l-113 -153h-223l231 301h205l242 -301h-225l-113 153h-4zM815 999h240l-549 -1405h-242l180 463l-405 942h242l276 -675z" />
    <glyph glyph-name="Ydieresis" unicode="&#x178;" horiz-adv-x="1280" 
d="M440 1620q-65 0 -110 45t-45 109q0 62 45 106.5t110 44.5q63 0 108.5 -44.5t45.5 -106.5q0 -63 -45.5 -108.5t-108.5 -45.5zM846 1624q-63 0 -107.5 44t-44.5 106q0 60 44.5 104.5t107.5 44.5t108 -44.5t45 -104.5q0 -62 -45 -106t-108 -44zM965 1454h286l-489 -811v-643
h-248v643l-485 811h282l326 -563h4z" />
    <glyph glyph-name="Zacute" unicode="&#x179;" horiz-adv-x="1282" 
d="M924 1909l-254 -297h-234l236 295zM430 221h731v-221h-1044v195l717 1036v2h-684v221h1007v-190l-727 -1039v-4z" />
    <glyph glyph-name="zacute" unicode="&#x17a;" horiz-adv-x="1001" 
d="M788 1436l-253 -297h-234l236 295zM911 842l-522 -645v-2h514v-195h-821v162l514 637v6h-479v194h794v-157z" />
    <glyph glyph-name="Zdotaccent" unicode="&#x17b;" horiz-adv-x="1282" 
d="M641 1620q-64 0 -109 45.5t-45 108.5q0 62 45 106.5t109 44.5t110 -44.5t46 -106.5q0 -63 -46 -108.5t-110 -45.5zM430 221h731v-221h-1044v195l717 1036v2h-684v221h1007v-190l-727 -1039v-4z" />
    <glyph glyph-name="zdotaccent" unicode="&#x17c;" horiz-adv-x="1001" 
d="M506 1147q-64 0 -109 45t-45 108q0 62 45 107t109 45t110 -45t46 -107q0 -63 -46 -108t-110 -45zM911 842l-522 -645v-2h514v-195h-821v162l514 637v6h-479v194h794v-157z" />
    <glyph glyph-name="Zcaron" unicode="&#x17d;" horiz-adv-x="1282" 
d="M737 1608h-205l-231 301h223l113 -156h4l113 156h225zM430 221h731v-221h-1044v195l717 1036v2h-684v221h1007v-190l-727 -1039v-4z" />
    <glyph glyph-name="zcaron" unicode="&#x17e;" horiz-adv-x="1001" 
d="M602 1135h-205l-231 301h223l113 -156h4l112 156h226zM911 842l-522 -645v-2h514v-195h-821v162l514 637v6h-479v194h794v-157z" />
    <glyph glyph-name="longs" unicode="&#x17f;" horiz-adv-x="690" 
d="M186 0v805h-110v194h110v183q0 167 77.5 254.5t225.5 87.5q144 0 250 -70l-51 -192q-109 51 -166 51q-106 0 -106 -156v-1157h-230z" />
    <glyph glyph-name="uni018F" unicode="&#x18f;" horiz-adv-x="1478" 
d="M713 1470q288 0 470.5 -206.5t182.5 -540.5q0 -214 -81.5 -383t-228 -262.5t-331.5 -93.5q-103 0 -195.5 29t-170 88t-134.5 143t-89 200t-32 252q0 32 7 95h999q-17 205 -125.5 327.5t-277.5 122.5q-164 0 -310 -84l-110 209q194 104 426 104zM717 219q146 0 248.5 96.5
t134.5 262.5h-748q28 -164 125 -261.5t240 -97.5z" />
    <glyph glyph-name="florin" unicode="&#x192;" horiz-adv-x="1124" 
d="M225 -293q-104 0 -177.5 25.5t-108.5 60.5l81 162q80 -41 162 -41q71 0 114 43t56 143l86 666h-155l28 195h156l29 223q46 340 358 340q101 0 174.5 -26.5t112.5 -59.5l-84 -162q-83 39 -164 39q-146 0 -168 -187l-20 -167h282l-26 -195h-285l-94 -719
q-43 -340 -357 -340z" />
    <glyph glyph-name="uni019D" unicode="&#x19d;" horiz-adv-x="1562" 
d="M1139 1454h245v-1454h-251l-707 1030v-645v-451q0 -170 -82 -262t-215 -92q-103 0 -197 37l39 188q51 -28 92 -28q49 0 82 40.5t33 106.5v461v1069h246l711 -1044h4v1044z" />
    <glyph glyph-name="Ohorn" unicode="&#x1a0;" horiz-adv-x="1781" 
d="M1499 1585h234v-145q0 -140 -57.5 -235.5t-168.5 -133.5q74 -157 74 -344q0 -163 -55.5 -302t-153 -235.5t-233 -151t-291.5 -54.5q-214 0 -382.5 96t-260.5 265.5t-92 381.5t92 381.5t260.5 265.5t382.5 96q176 0 323 -66.5t248 -189.5q24 11 40 31t24 37.5t11.5 53
t4 54t0.5 64.5v131zM848 215q202 0 338.5 145.5t136.5 366.5q0 222 -136 367t-339 145q-139 0 -249.5 -68.5t-170 -185t-59.5 -258.5t59.5 -258.5t170 -185t249.5 -68.5z" />
    <glyph glyph-name="ohorn" unicode="&#x1a1;" horiz-adv-x="1394" 
d="M1137 1157h233v-145q0 -145 -63 -243.5t-181 -131.5l-2 -4q15 -81 15 -135q0 -227 -147 -370.5t-378 -143.5q-233 0 -378.5 145.5t-145.5 368.5q0 147 64.5 264t184.5 184.5t275 67.5q146 0 262 -60.5t183 -167.5q19 10 33.5 23.5t22.5 34.5t13 36.5t6.5 46.5t2 46
t0.5 53v131zM614 193q123 0 207 86t84 219q0 136 -83 222.5t-208 86.5q-129 0 -209.5 -88t-80.5 -221q0 -129 81.5 -217t208.5 -88z" />
    <glyph glyph-name="Uhorn" unicode="&#x1af;" horiz-adv-x="1677" 
d="M1440 1585h233v-145q0 -177 -92 -282t-264 -109v-451q0 -284 -155.5 -449t-426.5 -165q-262 0 -419.5 162.5t-157.5 451.5v856h245v-838q0 -177 89 -288t243 -111q149 0 241.5 107.5t92.5 291.5v838h248v-254q26 5 45.5 16t32.5 22t22 31.5t13.5 35t6.5 43t2.5 45
t0.5 50.5v11v131z" />
    <glyph glyph-name="uhorn" unicode="&#x1b0;" horiz-adv-x="1406" 
d="M1151 1157h233v-145q0 -174 -88 -278t-254 -113v-621h-229v131q-59 -71 -139.5 -109t-169.5 -38q-176 0 -275.5 97t-99.5 310v608h229v-546q0 -145 46.5 -202.5t152.5 -57.5t181 86.5t75 240.5v479h229v-225q27 8 46 20t31 31.5t18.5 36t9.5 47t3.5 49t0.5 56.5v12v131z
" />
    <glyph glyph-name="Gcaron" unicode="&#x1e6;" horiz-adv-x="1554" 
d="M928 1608h-205l-231 301h223l112 -156h4l113 156h225zM813 776h602v-606q-101 -84 -252 -133t-317 -49q-210 0 -375 87t-261.5 256t-96.5 394q0 160 50.5 297t143 236t229.5 155.5t302 56.5q159 0 308 -60t259 -179l-174 -152q-161 158 -395 158q-201 0 -333 -140
t-132 -372q0 -145 57.5 -261t166.5 -183.5t251 -67.5q180 0 323 96v246h-356v221z" />
    <glyph glyph-name="gcaron" unicode="&#x1e7;" horiz-adv-x="1243" 
d="M696 1135h-204l-232 301h223l113 -156h4l113 156h225zM877 999h229v-897q0 -117 -28 -210t-87 -164t-159 -109.5t-236 -38.5q-234 0 -408 105l56 200q97 -51 169.5 -74.5t170.5 -23.5q142 0 219.5 70.5t77.5 175.5v106h-2q-120 -123 -306 -123q-212 0 -349.5 137
t-137.5 357t134 362t341 142q184 0 311 -121h5v106zM604 227q124 0 203.5 82.5t79.5 210.5q0 126 -80.5 205.5t-202.5 79.5q-127 0 -206 -80.5t-79 -208.5q0 -131 80.5 -210t204.5 -79z" />
    <glyph glyph-name="uni01EA" unicode="&#x1ea;" horiz-adv-x="1693" 
d="M975 -6q-63 -21 -100 -62.5t-37 -85.5q0 -39 23 -61.5t65 -22.5q11 0 19.5 0.5t16 1.5t11.5 1.5t11 3t8 2.5t9 4t9 4l14 -139q-61 -25 -147 -25q-101 0 -161.5 49t-60.5 131q0 45 29 96t82 93v4q-292 28 -472.5 232.5t-180.5 506.5q0 212 92 381.5t260.5 265.5t382.5 96
q209 0 375.5 -92.5t262 -262.5t95.5 -388q0 -294 -168.5 -493.5t-437.5 -239.5zM369 727q0 -142 59.5 -258.5t170 -185t249.5 -68.5q202 0 338.5 145.5t136.5 366.5q0 222 -136 367t-339 145q-139 0 -249.5 -68.5t-170 -185t-59.5 -258.5z" />
    <glyph glyph-name="uni01EB" unicode="&#x1eb;" horiz-adv-x="1228" 
d="M692 -12q-57 -21 -90 -60.5t-33 -81.5q0 -39 23 -61.5t65 -22.5q11 0 19.5 0.5t16 1.5t11.5 1.5t11 3t8 2.5t9 4t9 4l15 -139q-61 -25 -148 -25q-101 0 -161 49t-60 131q0 48 31 101t88 94v4q-189 32 -302.5 170.5t-113.5 333.5q0 147 64.5 264t184.5 184.5t275 67.5
q231 0 378 -143.5t147 -372.5q0 -206 -123.5 -345.5t-323.5 -164.5zM324 498q0 -129 81.5 -217t208.5 -88q123 0 207 86t84 219q0 136 -83 222.5t-208 86.5q-129 0 -209.5 -88t-80.5 -221z" />
    <glyph glyph-name="Aringacute" unicode="&#x1fa;" horiz-adv-x="1427" 
d="M715 1559q-91 0 -156 62t-65 153q0 89 63 152t158 63q92 0 159 -64l117 86l258 2l-311 -241q-2 -90 -64.5 -151.5t-158.5 -61.5zM715 1853q-32 0 -55 -23t-23 -54q0 -33 22.5 -55.5t55.5 -22.5q34 0 57 23t23 55t-23 54.5t-57 22.5zM1122 0l-110 313h-594l-109 -313h-258
l543 1454h242l544 -1454h-258zM494 526h444l-221 631h-4z" />
    <glyph glyph-name="aringacute" unicode="&#x1fb;" horiz-adv-x="1251" 
d="M623 1085q-91 0 -156.5 62t-65.5 153q0 89 63.5 152.5t158.5 63.5q86 0 147 -52l123 90h260l-307 -235v-19q0 -89 -63 -152t-160 -63zM623 1380q-32 0 -55 -23t-23 -54q0 -33 22.5 -55.5t55.5 -22.5t56 22.5t23 55.5q0 32 -22.5 54.5t-56.5 22.5zM883 879v120h229v-999
h-219v133h-4q-112 -149 -318 -149q-210 0 -346.5 141.5t-136.5 370.5q0 225 137.5 371.5t343.5 146.5q196 0 310 -135h4zM608 193q120 0 202.5 84.5t82.5 216.5q0 134 -81 223.5t-204 89.5t-204.5 -85.5t-81.5 -227.5q0 -133 79.5 -217t206.5 -84z" />
    <glyph glyph-name="AEacute" unicode="&#x1fc;" horiz-adv-x="1955" 
d="M1331 1909l-254 -297h-233l235 295zM1137 221h710v-221h-958v313h-455l-160 -313h-260l748 1454h1044v-221h-669v-399h549v-222h-549v-391zM543 526h346v672h-4z" />
    <glyph glyph-name="aeacute" unicode="&#x1fd;" horiz-adv-x="1615" 
d="M1169 1436l-254 -297h-233l236 295zM1556 512q0 -65 -6 -92h-667q21 -105 89 -166t171 -61q117 0 215 116l158 -137q-68 -86 -167 -137t-219 -51q-213 0 -344 157h-4q-52 -68 -141.5 -112.5t-212.5 -44.5q-182 0 -274.5 85.5t-92.5 223.5q0 150 101.5 234.5t294.5 84.5
h198v13q0 101 -38 141.5t-115 40.5q-136 0 -279 -68l-88 183q63 34 164 63t219 29q212 0 289 -152h2q126 152 328 152q185 0 302 -141.5t117 -360.5zM1118 807q-82 0 -143 -52t-86 -143h436q-22 88 -78 141.5t-129 53.5zM451 182q78 0 139.5 49.5t66.5 98.5v94l-178 -2
q-186 0 -186 -121q0 -52 41 -85.5t117 -33.5z" />
    <glyph glyph-name="Oslashacute" unicode="&#x1fe;" horiz-adv-x="1693" 
d="M1206 1909l-254 -297h-233l235 295zM1608 1386l-174 -190q147 -197 147 -469q0 -163 -55.5 -302t-153 -235.5t-233 -151t-291.5 -54.5q-238 0 -420 118l-160 -174l-141 131l158 170q-172 200 -172 498q0 212 92 381.5t260.5 265.5t382.5 96q257 0 450 -141l170 184z
M369 727q0 -174 90 -307l671 727q-125 92 -282 92q-139 0 -249.5 -68.5t-170 -185t-59.5 -258.5zM1323 727q0 153 -70 274l-657 -716q112 -70 252 -70q202 0 338.5 145.5t136.5 366.5z" />
    <glyph glyph-name="oslashacute" unicode="&#x1ff;" horiz-adv-x="1228" 
d="M983 1436l-254 -297h-233l235 295zM1165 940l-121 -129q95 -138 95 -313q0 -227 -147 -370.5t-378 -143.5q-156 0 -276 69l-105 -112l-122 114l96 105q-117 139 -117 338q0 147 64.5 264t184.5 184.5t275 67.5q180 0 310 -88l120 129zM324 498q0 -92 45 -168l403 432
q-70 45 -158 45q-129 0 -209.5 -88t-80.5 -221zM905 498q0 72 -26 135l-387 -414q53 -26 122 -26q123 0 207 86t84 219z" />
    <glyph glyph-name="Scommaaccent" unicode="&#x218;" horiz-adv-x="1210" 
d="M612 -16q-144 0 -279.5 57t-246.5 172l156 190q76 -92 175.5 -141t196.5 -49q117 0 179.5 47.5t62.5 128.5q0 38 -13 67.5t-32 50.5t-59 42t-76 36t-101 38q-78 28 -132 51t-117 61.5t-101 81.5t-64 107t-26 141q0 169 135.5 287t325.5 118q254 3 481 -178l-147 -194
q-181 149 -334 149q-88 0 -146 -45.5t-59 -124.5q0 -26 6 -47t26 -40.5t36 -32t57 -31t65 -28t83 -32.5q181 -71 241 -104q136 -74 181 -184q28 -68 28 -158q0 -87 -30 -160.5t-79.5 -123.5t-115 -85t-135.5 -51t-142 -16zM473 -449l-53 134q62 22 87 50t25 77q0 26 -12 79
h209q8 -41 8 -96q0 -110 -75 -171.5t-189 -72.5z" />
    <glyph glyph-name="scommaaccent" unicode="&#x219;" horiz-adv-x="919" 
d="M469 -16q-239 0 -403 145l114 172q61 -60 130 -88.5t159 -28.5q65 0 102 27t37 72q0 35 -42 58t-154 62q-70 24 -118.5 48.5t-94.5 62t-69.5 92t-23.5 125.5q0 123 99.5 203t253.5 80q198 0 352 -125l-115 -180q-112 106 -250 106q-40 0 -74 -22t-34 -64q0 -35 39.5 -63
t118.5 -58q14 -5 41 -16q37 -14 54.5 -21.5t48.5 -20.5t46 -21.5t39 -22t35.5 -25l28 -28t24 -33t15.5 -37.5t11 -44.5t3 -51.5q0 -133 -95.5 -218t-277.5 -85zM305 -449l-53 134q62 22 87.5 50t25.5 77q0 22 -13 79h209q8 -41 8 -96q0 -110 -75 -171.5t-189 -72.5z" />
    <glyph glyph-name="uni021A" unicode="&#x21a;" horiz-adv-x="1206" 
d="M477 0v1233h-411v221h1077v-221h-418v-1233h-248zM438 -449l-53 134q62 22 87.5 50t25.5 77q0 22 -13 79h209q8 -41 8 -96q0 -110 -75 -171.5t-189 -72.5z" />
    <glyph glyph-name="uni021B" unicode="&#x21b;" horiz-adv-x="747" 
d="M446 -16q-132 0 -205 83.5t-73 247.5v490h-123v194h123v332l229 25v-357h293v-194h-293v-467q0 -75 23 -107t74 -32q68 0 147 43l59 -199q-52 -29 -108 -44t-146 -15zM281 -449l-54 134q62 22 87.5 50t25.5 77q0 26 -12 79h209q8 -41 8 -96q0 -110 -75 -171.5t-189 -72.5
z" />
    <glyph glyph-name="uni0232" unicode="&#x232;" horiz-adv-x="1280" 
d="M948 1862v-193h-610v193h610zM965 1454h286l-489 -811v-643h-248v643l-485 811h282l326 -563h4z" />
    <glyph glyph-name="uni0233" unicode="&#x233;" horiz-adv-x="1095" 
d="M854 1389v-193h-610v193h610zM815 999h240l-549 -1405h-242l180 463l-405 942h242l276 -675z" />
    <glyph glyph-name="uni0237" unicode="&#x237;" horiz-adv-x="509" 
d="M94 -422q-57 0 -98 7.5t-96 29.5l39 199q47 -29 90 -29q50 0 82 37.5t32 109.5v1067h230v-1067q0 -169 -78.5 -261.5t-200.5 -92.5z" />
    <glyph glyph-name="uni0259" unicode="&#x259;" horiz-adv-x="1150" 
d="M535 1014q142 0 260 -59t192 -178.5t74 -278.5q0 -227 -138.5 -370.5t-349.5 -143.5q-219 0 -352 140.5t-133 362.5q0 67 6 91h735q-23 112 -104.5 170.5t-202.5 58.5q-131 0 -268 -70l-88 185q188 92 369 92zM561 193q102 0 170.5 51.5t93.5 148.5h-503
q13 -95 79 -147.5t160 -52.5z" />
    <glyph glyph-name="uni0272" unicode="&#x272;" horiz-adv-x="1214" 
d="M717 1014q172 0 269 -104t97 -322v-588h-229v528q0 152 -54.5 215.5t-162.5 63.5q-119 0 -188.5 -80t-69.5 -225v-502v-66q0 -169 -78.5 -261.5t-202.5 -92.5q-103 0 -194 37l39 188q51 -28 92 -28q49 0 82 40.5t33 106.5v461v614h229v-139h2q62 74 150 114t186 40z" />
    <glyph glyph-name="circumflex" unicode="&#x2c6;" horiz-adv-x="976" 
d="M602 1098l-113 153h-4l-112 -153h-223l231 301h205l241 -301h-225z" />
    <glyph glyph-name="caron" unicode="&#x2c7;" horiz-adv-x="976" 
d="M602 1399h225l-241 -301h-205l-231 301h223l112 -156h4z" />
    <glyph glyph-name="breve" unicode="&#x2d8;" horiz-adv-x="942" 
d="M471 1092q-129 0 -219 79t-100 220h180q3 -61 40 -100.5t99 -39.5q60 0 98 38.5t41 101.5h181q-11 -132 -98 -215.5t-222 -83.5z" />
    <glyph glyph-name="dotaccent" unicode="&#x2d9;" horiz-adv-x="1024" 
d="M512 1110q-64 0 -109 45.5t-45 108.5q0 62 45 106.5t109 44.5t110 -44.5t46 -106.5q0 -63 -46 -108.5t-110 -45.5z" />
    <glyph glyph-name="ring" unicode="&#x2da;" horiz-adv-x="964" 
d="M481 1049q-91 0 -156 62t-65 153q0 89 63 152t158 63q93 0 158.5 -62t65.5 -153q0 -89 -63.5 -152t-160.5 -63zM481 1188q34 0 57 23t23 55t-23 54.5t-57 22.5q-32 0 -55 -23t-23 -54q0 -33 22.5 -55.5t55.5 -22.5z" />
    <glyph glyph-name="ogonek" unicode="&#x2db;" horiz-adv-x="960" 
d="M557 -385q-101 0 -161 49t-60 131q0 60 48 126t132 108l174 -27q-77 -15 -124.5 -60t-47.5 -96q0 -39 23 -61.5t65 -22.5q11 0 19.5 0.5t16 1.5t11.5 1.5t11 3t8 2.5t9 4t9 4l15 -139q-61 -25 -148 -25z" />
    <glyph glyph-name="tilde" unicode="&#x2dc;" horiz-adv-x="1013" 
d="M670 1096q-78 0 -181 65q-70 45 -114 45q-76 0 -119 -106l-139 63q32 105 91 165.5t142 60.5q37 0 71 -9.5t53 -19.5t48 -29q64 -41 93 -48q13 -3 26 -3q74 0 117 106l139 -47q-31 -114 -90.5 -178.5t-136.5 -64.5z" />
    <glyph glyph-name="hungarumlaut" unicode="&#x2dd;" horiz-adv-x="1060" 
d="M106 1102l236 295l233 2l-253 -297h-216zM498 1102l233 295l234 2l-254 -297h-213z" />
    <glyph glyph-name="gravecomb" unicode="&#x300;" horiz-adv-x="0" 
d="M0 1102l-254 297l252 -2l235 -295h-233z" />
    <glyph glyph-name="acutecomb" unicode="&#x301;" horiz-adv-x="0" 
d="M-205 1102l236 295l252 2l-254 -297h-234z" />
    <glyph glyph-name="uni0302" unicode="&#x302;" horiz-adv-x="0" 
d="M113 1098l-113 153h-4l-113 -153h-223l231 301h205l242 -301h-225z" />
    <glyph glyph-name="tildecomb" unicode="&#x303;" horiz-adv-x="0" 
d="M162 1096q-34 0 -69.5 11t-57.5 22.5t-53 31.5q-70 45 -115 45q-76 0 -119 -106l-139 63q32 105 91 165.5t142 60.5q37 0 71 -9.5t53 -19.5t48 -29q64 -41 93 -48q13 -3 26 -3q74 0 117 106l139 -47q-31 -114 -90.5 -178.5t-136.5 -64.5z" />
    <glyph glyph-name="uni0304" unicode="&#x304;" horiz-adv-x="0" 
d="M-305 1159v193h610v-193h-610z" />
    <glyph glyph-name="uni0306" unicode="&#x306;" horiz-adv-x="0" 
d="M0 1092q-129 0 -219 79t-100 220h180q3 -61 40 -100.5t99 -39.5q60 0 98 38.5t41 101.5h180q-11 -132 -97.5 -215.5t-221.5 -83.5z" />
    <glyph glyph-name="uni0307" unicode="&#x307;" horiz-adv-x="0" 
d="M0 1110q-64 0 -109 45.5t-45 108.5q0 62 45 106.5t109 44.5t110 -44.5t46 -106.5q0 -63 -46 -108.5t-110 -45.5z" />
    <glyph glyph-name="uni0308" unicode="&#x308;" horiz-adv-x="0" 
d="M-203 1110q-65 0 -110 45t-45 109q0 62 45 106.5t110 44.5q63 0 108.5 -44.5t45.5 -106.5q0 -63 -45.5 -108.5t-108.5 -45.5zM203 1114q-63 0 -107.5 44t-44.5 106q0 60 44.5 104.5t107.5 44.5t108 -44.5t45 -104.5q0 -62 -45 -106t-108 -44z" />
    <glyph glyph-name="hookabovecomb" unicode="&#x309;" horiz-adv-x="0" 
d="M-63 1055q-15 13 -22 20t-13 18t-6 23q0 22 27 42t59 33.5t59 34.5t27 44q0 41 -60 41q-84 0 -145 -64l-92 86q42 43 111.5 71t140.5 28q97 0 149.5 -44.5t52.5 -115.5q0 -62 -46.5 -103.5t-135.5 -60.5l-16 -53h-90z" />
    <glyph glyph-name="uni030A" unicode="&#x30a;" horiz-adv-x="0" 
d="M-2 1049q-91 0 -156 62t-65 153q0 89 63 152t158 63q93 0 158 -62t65 -153q0 -89 -63 -152t-160 -63zM-2 1188q34 0 57 23t23 55t-23 54.5t-57 22.5q-32 0 -55 -23t-23 -54q0 -33 22.5 -55.5t55.5 -22.5z" />
    <glyph glyph-name="uni030B" unicode="&#x30b;" horiz-adv-x="0" 
d="M-303 1102l235 295l234 2l-254 -297h-215zM88 1102l234 295l233 2l-254 -297h-213z" />
    <glyph glyph-name="uni030C" unicode="&#x30c;" horiz-adv-x="0" 
d="M113 1399h225l-242 -301h-205l-231 301h223l113 -156h4z" />
    <glyph glyph-name="uni0312" unicode="&#x312;" horiz-adv-x="0" 
d="M160 1448l53 -133q-62 -23 -87.5 -51.5t-25.5 -75.5q0 -23 13 -80h-209q-8 41 -8 96q0 110 75 171.5t189 72.5z" />
    <glyph glyph-name="uni031B" unicode="&#x31b;" horiz-adv-x="0" 
d="M-43 918l-4 145q30 2 54 8t41 18t29 23t19.5 31.5t12 35t6 42.5t2 44t0.5 49v9v131h233v-145q0 -187 -101.5 -292.5t-291.5 -98.5z" />
    <glyph glyph-name="dotbelowcomb" unicode="&#x323;" horiz-adv-x="0" 
d="M0 -199q64 0 109 -45t45 -108q0 -62 -45 -107t-109 -45t-110 45t-46 107q0 63 46 108t110 45z" />
    <glyph glyph-name="uni0326" unicode="&#x326;" horiz-adv-x="0" 
d="M-160 -449l-53 134q62 22 87.5 50t25.5 77q0 22 -13 79h209q8 -41 8 -96q0 -110 -75 -171.5t-189 -72.5z" />
    <glyph glyph-name="uni0327" unicode="&#x327;" horiz-adv-x="0" 
d="M-14 -66q188 -9 188 -163q0 -72 -60.5 -116t-183.5 -44q-58 0 -120 12v113q47 -15 102 -15q41 0 72.5 16t31.5 46q0 29 -45.5 49.5t-126.5 20.5v73l39 86h137l-36 -73z" />
    <glyph glyph-name="uni0328" unicode="&#x328;" horiz-adv-x="0" 
d="M-147 -385q-101 0 -161.5 49t-60.5 131q0 60 48.5 126t132.5 108l174 -27q-77 -15 -124.5 -60t-47.5 -96q0 -39 23 -61.5t65 -22.5q11 0 19.5 0.5t16 1.5t11.5 1.5t11 3t8 2.5t9 4t9 4l14 -139q-61 -25 -147 -25z" />
    <glyph glyph-name="uni0335" unicode="&#x335;" horiz-adv-x="0" 
d="M-285 463v158h578v-158h-578z" />
    <glyph glyph-name="uni0374" unicode="&#x374;" horiz-adv-x="532" 
d="M70 973l106 520h238l-146 -520h-198z" />
    <glyph glyph-name="uni0375" unicode="&#x375;" horiz-adv-x="555" 
d="M131 -309l107 520h237l-145 -520h-199z" />
    <glyph glyph-name="uni037E" unicode="&#x37e;" horiz-adv-x="507" 
d="M242 709q-65 0 -110.5 44t-45.5 107t46 108.5t110 45.5q63 0 108 -45.5t45 -108.5t-45 -107t-108 -44zM55 -270l66 518h246l-144 -518h-168z" />
    <glyph glyph-name="tonos" unicode="&#x384;" horiz-adv-x="956" 
d="M305 1102l119 346h264l-162 -346h-221z" />
    <glyph glyph-name="dieresistonos" unicode="&#x385;" horiz-adv-x="1085" 
d="M381 1120l27 346h213l-66 -346h-174zM184 1110q-64 0 -108.5 45.5t-44.5 108.5q0 62 44.5 106.5t108.5 44.5t110 -44.5t46 -106.5q0 -63 -46 -108.5t-110 -45.5zM788 1114q-63 0 -107 44t-44 106q0 59 44.5 104t106.5 45q61 0 106.5 -44.5t45.5 -104.5q0 -61 -45 -105.5
t-107 -44.5z" />
    <glyph glyph-name="Alphatonos" unicode="&#x386;" horiz-adv-x="1427" 
d="M1122 0l-110 313h-594l-109 -313h-258l543 1454h242l544 -1454h-258zM371 1448l-193 -346h-215l146 346h262zM494 526h444l-221 631h-4z" />
    <glyph glyph-name="anoteleia" unicode="&#x387;" horiz-adv-x="552" 
d="M276 709q-65 0 -110 44t-45 107t45.5 108.5t109.5 45.5q63 0 108.5 -45.5t45.5 -108.5t-45.5 -107t-108.5 -44z" />
    <glyph glyph-name="Epsilontonos" unicode="&#x388;" horiz-adv-x="1243" 
d="M-350 1108l145 346h262l-192 -346h-215zM178 0v1454h916v-221h-668v-402h539v-221h-539v-389h711v-221h-959z" />
    <glyph glyph-name="Etatonos" unicode="&#x389;" horiz-adv-x="1507" 
d="M-352 1108l145 346h262l-192 -346h-215zM178 0v1454h248v-649h657v649h246v-1454h-246v584h-657v-584h-248z" />
    <glyph glyph-name="Iotatonos" unicode="&#x38a;" horiz-adv-x="622" 
d="M-360 1108l145 346h262l-192 -346h-215zM186 0v1454h248v-1454h-248z" />
    <glyph glyph-name="Omicrontonos" unicode="&#x38c;" horiz-adv-x="1693" 
d="M848 -16q-214 0 -382.5 96t-260.5 265.5t-92 381.5t92 381.5t260.5 265.5t382.5 96q209 0 375.5 -92.5t262 -262.5t95.5 -388q0 -163 -55.5 -302t-153 -235.5t-233 -151t-291.5 -54.5zM-223 1108l145 346h262l-192 -346h-215zM848 215q202 0 338.5 145.5t136.5 366.5
q0 222 -136 367t-339 145q-139 0 -249.5 -68.5t-170 -185t-59.5 -258.5t59.5 -258.5t170 -185t249.5 -68.5z" />
    <glyph glyph-name="Upsilontonos" unicode="&#x38e;" horiz-adv-x="1280" 
d="M-465 1108l146 346h262l-193 -346h-215zM965 1454h286l-489 -811v-643h-248v643l-485 811h282l326 -563h4z" />
    <glyph glyph-name="Omegatonos" unicode="&#x38f;" horiz-adv-x="1581" 
d="M1206 225v-4h248v-221h-561v221q324 238 324 567q0 200 -118 325.5t-308 125.5q-190 -1 -307 -126t-117 -325q0 -331 321 -567v-221h-559v221h246v4q-126 106 -196 252.5t-70 315.5q0 192 84.5 345.5t241 242.5t356.5 89t356.5 -89t241 -242.5t84.5 -345.5
q0 -169 -70 -315.5t-197 -252.5zM-100 1454h262l-193 -346h-215z" />
    <glyph glyph-name="iotadieresistonos" unicode="&#x390;" horiz-adv-x="604" 
d="M186 1157l27 346h213l-66 -346h-174zM-10 1147q-64 0 -109 45t-45 108q0 62 45 107t109 45t109.5 -45t45.5 -107q0 -63 -45.5 -108t-109.5 -45zM594 1151q-63 0 -107.5 43.5t-44.5 105.5q0 59 45 104.5t107 45.5q61 0 106 -45t45 -105q0 -61 -44.5 -105t-106.5 -44z
M389 -16q-235 0 -235 254v761h229v-698q0 -66 12.5 -85t53.5 -19q42 0 94 14l22 -191q-37 -13 -56.5 -19t-52 -11.5t-67.5 -5.5z" />
    <glyph glyph-name="Alpha" unicode="&#x391;" horiz-adv-x="1427" 
d="M1122 0l-110 313h-594l-109 -313h-258l543 1454h242l544 -1454h-258zM494 526h444l-221 631h-4z" />
    <glyph glyph-name="Beta" unicode="&#x392;" horiz-adv-x="1327" 
d="M942 768q132 -32 210.5 -127.5t78.5 -241.5q0 -180 -122 -289.5t-355 -109.5h-576v1454h506q228 0 350.5 -89t122.5 -265q0 -108 -54 -198t-161 -132v-2zM426 1233v-381h236q102 0 172.5 48t70.5 144q0 90 -65.5 140t-202.5 49h-211zM680 221q135 2 214 53.5t79 151.5
q0 99 -74.5 156t-214.5 57h-258v-418h254z" />
    <glyph glyph-name="Gamma" unicode="&#x393;" horiz-adv-x="1187" 
d="M178 0v1454h940v-221h-692v-1233h-248z" />
    <glyph glyph-name="uni0394" unicode="&#x394;" horiz-adv-x="1398" 
d="M821 1454l500 -1264v-190h-203h-1014h-26v190l495 1264h248zM356 221h682l-338 928h-4z" />
    <glyph glyph-name="Epsilon" unicode="&#x395;" horiz-adv-x="1243" 
d="M178 0v1454h916v-221h-668v-402h539v-221h-539v-389h711v-221h-959z" />
    <glyph glyph-name="Zeta" unicode="&#x396;" horiz-adv-x="1282" 
d="M430 221h731v-221h-1044v195l717 1036v2h-684v221h1007v-190l-727 -1039v-4z" />
    <glyph glyph-name="Eta" unicode="&#x397;" horiz-adv-x="1507" 
d="M178 0v1454h248v-649h657v649h246v-1454h-246v584h-657v-584h-248z" />
    <glyph glyph-name="Theta" unicode="&#x398;" horiz-adv-x="1716" 
d="M848 -16q-214 0 -382.5 96t-260.5 265.5t-92 381.5t92 381.5t260.5 265.5t382.5 96q209 0 375.5 -92.5t262 -262.5t95.5 -388q0 -163 -55.5 -302t-153 -235.5t-233 -151t-291.5 -54.5zM848 215q202 0 338.5 145.5t136.5 366.5q0 222 -136 367t-339 145
q-139 0 -249.5 -68.5t-170 -185t-59.5 -258.5t59.5 -258.5t170 -185t249.5 -68.5zM559 606v221h604v-221h-604z" />
    <glyph glyph-name="Iota" unicode="&#x399;" horiz-adv-x="622" 
d="M186 0v1454h248v-1454h-248z" />
    <glyph glyph-name="Kappa" unicode="&#x39a;" horiz-adv-x="1359" 
d="M594 606h-4l-164 -194v-412h-248v1454h248v-696h4l557 696h316l-547 -649l563 -805h-307z" />
    <glyph glyph-name="Lambda" unicode="&#x39b;" horiz-adv-x="1400" 
d="M1077 0l-377 1106h-4l-377 -1106h-266l522 1454h246l525 -1454h-269z" />
    <glyph glyph-name="Mu" unicode="&#x39c;" horiz-adv-x="1814" 
d="M1389 1454h247v-1454h-247v975h-3l-399 -694h-162l-397 694h-2v-975h-248v1454h248l479 -870h4z" />
    <glyph glyph-name="Nu" unicode="&#x39d;" horiz-adv-x="1562" 
d="M1139 1454h245v-1454h-251l-707 1030v-1030h-248v1454h246l711 -1044h4v1044z" />
    <glyph glyph-name="Xi" unicode="&#x39e;" horiz-adv-x="1314" 
d="M141 1225v229h1033v-229h-1033zM248 606v223h815v-223h-815zM127 0v229h1061v-229h-1061z" />
    <glyph glyph-name="Omicron" unicode="&#x39f;" horiz-adv-x="1693" 
d="M848 -16q-214 0 -382.5 96t-260.5 265.5t-92 381.5t92 381.5t260.5 265.5t382.5 96q209 0 375.5 -92.5t262 -262.5t95.5 -388q0 -163 -55.5 -302t-153 -235.5t-233 -151t-291.5 -54.5zM848 215q202 0 338.5 145.5t136.5 366.5q0 222 -136 367t-339 145
q-139 0 -249.5 -68.5t-170 -185t-59.5 -258.5t59.5 -258.5t170 -185t249.5 -68.5z" />
    <glyph glyph-name="Pi" unicode="&#x3a0;" horiz-adv-x="1452" 
d="M178 0v1454h1096v-1454h-248v1233h-600v-1233h-248z" />
    <glyph glyph-name="Rho" unicode="&#x3a1;" horiz-adv-x="1288" 
d="M178 0v1454h527q127 0 224 -35.5t155.5 -99.5t88 -148.5t29.5 -187.5q0 -229 -141.5 -347t-384.5 -118h-250v-518h-248zM426 741h225q147 0 221 67t74 179q0 116 -71.5 181t-204.5 65h-244v-492z" />
    <glyph glyph-name="Sigma" unicode="&#x3a3;" horiz-adv-x="1206" 
d="M1120 1233h-680v-2l361 -502l-361 -506v-2h680v-221h-1011v174l393 555l-393 545v180h1011v-221z" />
    <glyph glyph-name="Tau" unicode="&#x3a4;" horiz-adv-x="1206" 
d="M477 0v1233h-411v221h1077v-221h-418v-1233h-248z" />
    <glyph glyph-name="Upsilon" unicode="&#x3a5;" horiz-adv-x="1280" 
d="M965 1454h286l-489 -811v-643h-248v643l-485 811h282l326 -563h4z" />
    <glyph glyph-name="Phi" unicode="&#x3a6;" horiz-adv-x="1667" 
d="M1579 731q0 -250 -163.5 -409.5t-454.5 -188.5v-133h-248v133q-294 29 -459.5 188t-165.5 410q0 256 166.5 425.5t458.5 201.5v121h248v-121q289 -32 453.5 -201.5t164.5 -425.5zM346 731q0 -155 98 -253.5t275 -123.5v779q-177 -28 -275 -134t-98 -268zM956 354
q174 26 269.5 124t95.5 253q0 160 -96 265.5t-269 133.5v-776z" />
    <glyph glyph-name="Chi" unicode="&#x3a7;" horiz-adv-x="1421" 
d="M1067 0l-354 537h-4l-355 -537h-288l481 729l-471 725h284l351 -532h2l350 532h283l-472 -725l484 -729h-291z" />
    <glyph glyph-name="Psi" unicode="&#x3a8;" horiz-adv-x="1632" 
d="M1257 1454h248l-2 -524q0 -288 -141.5 -442.5t-423.5 -157.5v-330h-248v330q-276 3 -419.5 156.5t-143.5 443.5l2 524h248l-2 -498q0 -205 74 -302t241 -103v903h248v-903q163 5 240.5 101.5t78.5 303.5v498z" />
    <glyph glyph-name="uni03A9" unicode="&#x3a9;" horiz-adv-x="1581" 
d="M1206 225v-4h248v-221h-561v221q324 238 324 567q0 200 -118 325.5t-308 125.5q-190 -1 -307 -126t-117 -325q0 -331 321 -567v-221h-559v221h246v4q-126 106 -196 252.5t-70 315.5q0 192 84.5 345.5t241 242.5t356.5 89t356.5 -89t241 -242.5t84.5 -345.5
q0 -169 -70 -315.5t-197 -252.5z" />
    <glyph glyph-name="Iotadieresis" unicode="&#x3aa;" horiz-adv-x="622" 
d="M94 1620q-64 0 -108.5 45.5t-44.5 108.5q0 62 44.5 106.5t108.5 44.5q63 0 109.5 -45t46.5 -106q0 -63 -46.5 -108.5t-109.5 -45.5zM532 1624q-63 0 -108 44t-45 106q0 59 45.5 104t107.5 45q61 0 106.5 -44.5t45.5 -104.5q0 -61 -45 -105.5t-107 -44.5zM186 0v1454h248
v-1454h-248z" />
    <glyph glyph-name="Upsilondieresis" unicode="&#x3ab;" horiz-adv-x="1280" 
d="M414 1620q-64 0 -109 45.5t-45 108.5q0 62 45 106.5t109 44.5q63 0 109 -45t46 -106q0 -63 -46 -108.5t-109 -45.5zM852 1624q-63 0 -108.5 44.5t-45.5 105.5q0 59 46 104t108 45q61 0 106.5 -44.5t45.5 -104.5q0 -61 -45 -105.5t-107 -44.5zM965 1454h286l-489 -811
v-643h-248v643l-485 811h282l326 -563h4z" />
    <glyph glyph-name="alphatonos" unicode="&#x3ac;" horiz-adv-x="1214" 
d="M885 1485l-162 -346h-221l119 346h264zM1167 205l23 -187q-78 -34 -166 -34q-72 0 -119.5 37.5t-60.5 107.5h-4q-105 -143 -301 -143q-208 0 -330.5 140.5t-122.5 369.5q0 226 130.5 372t334.5 146q203 0 311 -166h4l4 151h217l-51 -495v-191q0 -64 14.5 -91t55.5 -27
q30 0 61 10zM565 193q116 0 192 82.5t91 218.5q-1 147 -72 230t-192 83q-115 0 -190 -85.5t-75 -227.5q0 -134 66.5 -217.5t179.5 -83.5z" />
    <glyph glyph-name="epsilontonos" unicode="&#x3ad;" horiz-adv-x="1040" 
d="M793 1485l-162 -346h-221l118 346h265zM877 274l106 -165q-112 -74 -223 -99.5t-260 -25.5q-185 0 -292.5 75.5t-107.5 214.5q0 85 42.5 149t125.5 99q-68 36 -103.5 91t-35.5 116q0 60 21.5 108.5t58.5 81t88 54t109 31.5t124 10q258 0 437 -105l-97 -170
q-168 71 -321 68q-187 -3 -187 -96q0 -40 44.5 -71.5t130.5 -31.5l172 -2v-194h-187q-92 0 -137 -36t-45 -77q0 -106 219 -106q93 0 168 17.5t150 63.5z" />
    <glyph glyph-name="etatonos" unicode="&#x3ae;" horiz-adv-x="1208" 
d="M874 1485l-161 -346h-221l118 346h264zM711 1014q172 0 268 -104.5t96 -321.5v-994h-229v934q0 146 -55 212.5t-162 66.5q-111 0 -179.5 -82t-68.5 -227v-498h-229v999h229v-139h2q62 74 148.5 114t179.5 40z" />
    <glyph glyph-name="iotatonos" unicode="&#x3af;" horiz-adv-x="579" 
d="M160 1139l119 346h264l-162 -346h-221zM389 -16q-235 0 -235 254v761h229v-698q0 -66 12.5 -85t53.5 -19q42 0 94 14l22 -191q-37 -13 -56.5 -19t-52 -11.5t-67.5 -5.5z" />
    <glyph glyph-name="upsilondieresistonos" unicode="&#x3b0;" horiz-adv-x="1153" 
d="M481 1157l27 346h213l-66 -346h-174zM285 1147q-64 0 -109 45t-45 108q0 62 45 107t109 45t109.5 -45t45.5 -107q0 -63 -45.5 -108t-109.5 -45zM889 1151q-63 0 -107.5 43.5t-44.5 105.5q0 59 45 104.5t107 45.5q61 0 106 -45t45 -105q0 -61 -44.5 -105t-106.5 -44z
M575 -16q-206 0 -328 127.5t-122 371.5v516h229v-493q0 -156 61.5 -234.5t159.5 -78.5q106 0 166 77t60 236v493h227v-516q0 -246 -119.5 -372.5t-333.5 -126.5z" />
    <glyph glyph-name="alpha" unicode="&#x3b1;" horiz-adv-x="1214" 
d="M1167 205l23 -187q-78 -34 -166 -34q-72 0 -119.5 37.5t-60.5 107.5h-4q-105 -143 -301 -143q-208 0 -330.5 140.5t-122.5 369.5q0 226 130.5 372t334.5 146q203 0 311 -166h4l4 151h217l-51 -495v-191q0 -64 14.5 -91t55.5 -27q30 0 61 10zM565 193q116 0 192 82.5
t91 218.5q-1 147 -72 230t-192 83q-115 0 -190 -85.5t-75 -227.5q0 -134 66.5 -217.5t179.5 -83.5z" />
    <glyph glyph-name="beta" unicode="&#x3b2;" horiz-adv-x="1224" 
d="M897 819q113 -52 178.5 -152t65.5 -218q0 -215 -128 -340t-341 -125q-178 0 -289 108h-2v-498h-229v1412q0 254 127 386t339 132q206 0 327.5 -107t121.5 -274q0 -225 -170 -322v-2zM647 190q119 0 189.5 67t70.5 181q0 102 -79 177t-216 75h-84v195h74q60 1 105.5 17
t70 40t39.5 57t19 60.5t4 58.5q0 84 -55 141.5t-158 57.5q-107 0 -176.5 -73t-69.5 -222v-561q0 -109 76 -190t190 -81z" />
    <glyph glyph-name="gamma" unicode="&#x3b3;" horiz-adv-x="1091" 
d="M1053 999l-391 -1001q11 -43 17 -101t7 -93.5t1.5 -113t0.5 -96.5h-225q0 8 -0.5 64t-1 75t-4.5 69.5t-9.5 81.5t-17 76.5t-27.5 86.5l-362 952h248l256 -731h6l254 731h248z" />
    <glyph glyph-name="delta" unicode="&#x3b4;" horiz-adv-x="1177" 
d="M797 954q56 -29 106 -70.5t95.5 -99t72.5 -137t27 -168.5q0 -149 -65.5 -262.5t-178 -173t-254.5 -59.5q-227 0 -370.5 141.5t-143.5 363.5q0 156 77.5 273.5t213.5 187.5q-154 112 -154 275q0 125 106.5 210.5t268.5 88.5q269 4 459 -107l-96 -180q-145 78 -334 78
q-75 0 -124.5 -25t-49.5 -80q0 -42 34 -73t138 -86q100 -60 172 -97zM600 193q114 0 190 76.5t76 209.5q0 120 -70.5 201t-191.5 139q-39 19 -51 27q-110 -54 -173 -146.5t-63 -210.5q0 -130 77.5 -213t205.5 -83z" />
    <glyph glyph-name="epsilon" unicode="&#x3b5;" horiz-adv-x="1040" 
d="M877 274l106 -165q-112 -74 -223 -99.5t-260 -25.5q-185 0 -292.5 75.5t-107.5 214.5q0 85 42.5 149t125.5 99q-68 36 -103.5 91t-35.5 116q0 60 21.5 108.5t58.5 81t88 54t109 31.5t124 10q258 0 437 -105l-97 -170q-168 71 -321 68q-187 -3 -187 -96q0 -40 44.5 -71.5
t130.5 -31.5l172 -2v-194h-187q-92 0 -137 -36t-45 -77q0 -106 219 -106q93 0 168 17.5t150 63.5z" />
    <glyph glyph-name="zeta" unicode="&#x3b6;" horiz-adv-x="958" 
d="M958 1335q-181 -137 -320.5 -279t-229.5 -295.5t-91 -281.5q-1 -48 15.5 -86.5t40 -64t68.5 -48.5t83 -36.5t101 -32.5q131 -39 203.5 -84.5t99 -97t26.5 -127.5q0 -91 -50.5 -184t-123.5 -169l-192 105q5 5 24.5 26.5t27 30t23.5 28t23 32t16.5 30.5t13 34.5t3.5 33.5
q0 34 -15 57t-70.5 51t-160.5 56q-67 18 -118 38t-104 55.5t-87.5 81.5t-56.5 115t-21 156q3 367 547 832v2h-469v194h794v-172z" />
    <glyph glyph-name="eta" unicode="&#x3b7;" horiz-adv-x="1208" 
d="M711 1014q172 0 268 -104.5t96 -321.5v-994h-229v934q0 146 -55 212.5t-162 66.5q-111 0 -179.5 -82t-68.5 -227v-498h-229v999h229v-139h2q62 74 148.5 114t179.5 40z" />
    <glyph glyph-name="theta" unicode="&#x3b8;" horiz-adv-x="1212" 
d="M606 1524q114 0 207.5 -46t164 -137.5t109.5 -240.5t39 -344q0 -133 -18 -246.5t-57.5 -211.5t-99 -167t-147.5 -108t-198 -39q-115 0 -208 45t-163.5 136.5t-109.5 241.5t-39 349q0 163 29 298.5t89.5 242.5t163 167t238.5 60zM606 1317q-125 0 -196.5 -120.5
t-85.5 -336.5h567q-14 219 -87.5 338t-197.5 119zM606 193q129 0 202 123.5t85 349.5h-571q12 -230 85 -351.5t199 -121.5z" />
    <glyph glyph-name="iota" unicode="&#x3b9;" horiz-adv-x="579" 
d="M389 -16q-235 0 -235 254v761h229v-698q0 -66 12.5 -85t53.5 -19q42 0 94 14l22 -191q-37 -13 -56.5 -19t-52 -11.5t-67.5 -5.5z" />
    <glyph glyph-name="kappa" unicode="&#x3ba;" horiz-adv-x="1179" 
d="M543 416h-2l-162 -164v-252h-229v999h229v-458h2l446 458h287l-407 -415l446 -584h-285z" />
    <glyph glyph-name="lambda" unicode="&#x3bb;" horiz-adv-x="1132" 
d="M850 0q-16 43 -258 731h-2l-291 -731h-250l430 1026l-49 135q-28 87 -66 123.5t-92 36.5q-51 0 -112 -21l-31 191q111 33 205 33q114 0 188.5 -79.5t136.5 -252.5q73 -198 216.5 -595.5t216.5 -596.5h-242z" />
    <glyph glyph-name="uni03BC" unicode="&#x3bc;" horiz-adv-x="1187" 
d="M821 999h230v-999h-209l-13 133h-2q-58 -71 -133 -110t-159 -39q-115 0 -177 65h-4q13 -117 13 -219v-236h-230v1405h230v-520q0 -286 217 -286q104 0 170.5 81.5t66.5 225.5v499z" />
    <glyph glyph-name="nu" unicode="&#x3bd;" horiz-adv-x="1093" 
d="M807 999h246l-396 -999h-219l-397 999h244l262 -712h2z" />
    <glyph glyph-name="xi" unicode="&#x3be;" horiz-adv-x="1015" 
d="M653 203q181 -69 252.5 -136t71.5 -171q0 -81 -55 -181t-119 -166l-193 105q133 138 133 215q0 46 -43.5 79.5t-158.5 74.5q-75 27 -132.5 52t-120 64.5t-103 83.5t-67 106.5t-26.5 135.5q0 104 67.5 199.5t184.5 150.5v4q-182 105 -182 318q0 79 25.5 144.5t68 109.5
t97.5 74.5t113 44.5t116 14q240 0 422 -107l-97 -180q-142 78 -295 78q-104 0 -161.5 -55t-57.5 -136q0 -117 93.5 -171t281.5 -54h119v-194h-225q-156 0 -246 -67.5t-90 -158.5q0 -39 15 -72.5t40 -59t69 -51.5t89.5 -46t113.5 -47z" />
    <glyph glyph-name="omicron" unicode="&#x3bf;" horiz-adv-x="1196" 
d="M598 -16q-225 0 -368.5 143.5t-143.5 370.5q0 229 143.5 372.5t368.5 143.5t368.5 -143.5t143.5 -372.5q0 -227 -143.5 -370.5t-368.5 -143.5zM598 193q119 0 200 86t81 219q0 136 -80.5 222.5t-200.5 86.5t-200.5 -86.5t-80.5 -222.5q0 -133 81 -219t200 -86z" />
    <glyph glyph-name="pi" unicode="&#x3c0;" horiz-adv-x="1251" 
d="M1206 999v-194h-166v-805h-229v805h-373v-805h-227v805h-156v194h1151z" />
    <glyph glyph-name="rho" unicode="&#x3c1;" horiz-adv-x="1232" 
d="M629 1014q146 0 265 -66t187 -185t68 -267q0 -226 -135 -369t-336 -143q-191 0 -311 114h-5v-504h-229v902q0 227 136 372.5t360 145.5zM629 193q125 0 205.5 85.5t80.5 215.5q0 138 -82.5 225.5t-203.5 87.5q-120 0 -198.5 -89.5t-78.5 -223.5q0 -132 80.5 -216.5
t196.5 -84.5z" />
    <glyph glyph-name="uni03C2" unicode="&#x3c2;" horiz-adv-x="1040" 
d="M772 -453l-192 107q9 10 30 33t31 34t25.5 32t23 36.5t13.5 36.5t6 43q0 47 -38.5 78.5t-148.5 70.5q-79 27 -138 54.5t-120 71t-100 95t-63.5 126t-24.5 165.5q0 216 144 350t378 134q118 0 228.5 -48.5t183.5 -138.5l-156 -135q-44 53 -109 84t-141 31
q-135 0 -216 -77.5t-81 -199.5q0 -120 84.5 -194t261.5 -133q163 -55 226 -125.5t63 -181.5q0 -53 -13.5 -101.5t-38.5 -90.5t-48.5 -72.5t-55.5 -68.5q-9 -11 -14 -16z" />
    <glyph glyph-name="sigma" unicode="&#x3c3;" horiz-adv-x="1230" 
d="M1194 805h-244v-2q156 -146 156 -346q0 -206 -141 -339.5t-367 -133.5q-225 0 -366.5 138t-141.5 367q0 224 144.5 367t371.5 143h588v-194zM598 193q125 0 197.5 82t72.5 214q0 192 -157 316h-105q-122 0 -202 -90t-80 -226q0 -135 78.5 -215.5t195.5 -80.5z" />
    <glyph glyph-name="tau" unicode="&#x3c4;" horiz-adv-x="956" 
d="M588 -16q-271 0 -271 319v502h-276v194h862v-194h-356v-453q0 -84 22.5 -120.5t89.5 -36.5q63 0 152 47l59 -199q-130 -59 -282 -59z" />
    <glyph glyph-name="upsilon" unicode="&#x3c5;" horiz-adv-x="1153" 
d="M575 -16q-206 0 -328 127.5t-122 371.5v516h229v-493q0 -156 61.5 -234.5t159.5 -78.5q106 0 166 77t60 236v493h227v-516q0 -246 -119.5 -372.5t-333.5 -126.5z" />
    <glyph glyph-name="phi" unicode="&#x3c6;" horiz-adv-x="1462" 
d="M1374 545q0 -150 -64 -272.5t-188.5 -198t-290.5 -80.5v-400h-229v400q-224 6 -366 144t-142 360q0 172 52 293t151 237l231 -63q-94 -94 -147 -213.5t-53 -233.5q0 -129 74 -215.5t200 -99.5v399q0 203 93.5 307.5t242.5 104.5q194 0 315 -134.5t121 -334.5zM831 201
q150 10 231 104t81 234q0 64 -21.5 124t-66 102t-101.5 42q-34 0 -57.5 -14t-36 -33.5t-19.5 -52.5t-8.5 -59t-1.5 -64v-383z" />
    <glyph glyph-name="chi" unicode="&#x3c7;" horiz-adv-x="1075" 
d="M1049 -207l24 -178q-39 -20 -69 -27.5t-78 -7.5q-92 0 -150 55t-110 168l-131 283h-3l-251 -492h-250l397 719l-201 387q-30 56 -57 81.5t-66 25.5q-11 0 -51 -8l-28 180q69 35 157 35q89 0 146.5 -57t105.5 -166l113 -252h2l239 460h246l-379 -682l217 -423
q28 -57 55 -83t60 -26q14 0 62 8z" />
    <glyph glyph-name="psi" unicode="&#x3c8;" horiz-adv-x="1470" 
d="M1120 999h230v-522q0 -238 -136 -364t-364 -129v-390h-229v390q-228 3 -364 129t-136 364v522h227v-497q0 -148 75.5 -224t197.5 -79v1118h229v-1118q120 3 195 79t75 224v497z" />
    <glyph glyph-name="omega" unicode="&#x3c9;" horiz-adv-x="1568" 
d="M1278 1030q94 -106 145.5 -233.5t51.5 -321.5q0 -223 -113.5 -357t-274.5 -134q-215 0 -303 188h-2q-88 -188 -303 -188q-161 0 -274 134t-113 357q0 134 28 242t68.5 176t102.5 137l207 -47q-70 -92 -121 -225.5t-51 -259.5q0 -147 49.5 -226t134.5 -79q71 0 115.5 82
t44.5 225v248h227v-248q0 -143 45 -225t117 -82q84 0 133 79.5t49 225.5q0 126 -51 259.5t-121 225.5z" />
    <glyph glyph-name="iotadieresis" unicode="&#x3ca;" horiz-adv-x="579" 
d="M57 1147q-64 0 -108.5 45t-44.5 108q0 62 44.5 107t108.5 45q63 0 109.5 -45.5t46.5 -106.5q0 -63 -46.5 -108t-109.5 -45zM496 1151q-63 0 -108.5 44t-45.5 105q0 59 46 104.5t108 45.5q61 0 106 -45t45 -105q0 -61 -44.5 -105t-106.5 -44zM389 -16q-235 0 -235 254v761
h229v-698q0 -66 12.5 -85t53.5 -19q42 0 94 14l22 -191q-37 -13 -56.5 -19t-52 -11.5t-67.5 -5.5z" />
    <glyph glyph-name="upsilondieresis" unicode="&#x3cb;" horiz-adv-x="1153" 
d="M360 1147q-64 0 -108.5 45t-44.5 108q0 62 44.5 107t108.5 45q63 0 109.5 -45.5t46.5 -106.5q0 -63 -46.5 -108t-109.5 -45zM799 1151q-63 0 -108.5 44t-45.5 105q0 59 46 104.5t108 45.5q61 0 106 -45t45 -105q0 -61 -44.5 -105t-106.5 -44zM575 -16q-206 0 -328 127.5
t-122 371.5v516h229v-493q0 -156 61.5 -234.5t159.5 -78.5q106 0 166 77t60 236v493h227v-516q0 -246 -119.5 -372.5t-333.5 -126.5z" />
    <glyph glyph-name="omicrontonos" unicode="&#x3cc;" horiz-adv-x="1196" 
d="M481 1139l119 346h264l-162 -346h-221zM598 -16q-225 0 -368.5 143.5t-143.5 370.5q0 229 143.5 372.5t368.5 143.5t368.5 -143.5t143.5 -372.5q0 -227 -143.5 -370.5t-368.5 -143.5zM598 193q119 0 200 86t81 219q0 136 -80.5 222.5t-200.5 86.5t-200.5 -86.5
t-80.5 -222.5q0 -133 81 -219t200 -86z" />
    <glyph glyph-name="upsilontonos" unicode="&#x3cd;" horiz-adv-x="1153" 
d="M463 1139l119 346h264l-162 -346h-221zM575 -16q-206 0 -328 127.5t-122 371.5v516h229v-493q0 -156 61.5 -234.5t159.5 -78.5q106 0 166 77t60 236v493h227v-516q0 -246 -119.5 -372.5t-333.5 -126.5z" />
    <glyph glyph-name="omegatonos" unicode="&#x3ce;" horiz-adv-x="1568" 
d="M1055 1485l-162 -346h-221l119 346h264zM1278 1030q94 -106 145.5 -233.5t51.5 -321.5q0 -223 -113.5 -357t-274.5 -134q-215 0 -303 188h-2q-88 -188 -303 -188q-161 0 -274 134t-113 357q0 134 28 242t68.5 176t102.5 137l207 -47q-70 -92 -121 -225.5t-51 -259.5
q0 -147 49.5 -226t134.5 -79q71 0 115.5 82t44.5 225v248h227v-248q0 -143 45 -225t117 -82q84 0 133 79.5t49 225.5q0 126 -51 259.5t-121 225.5z" />
    <glyph glyph-name="uni03D7" unicode="&#x3d7;" horiz-adv-x="1224" 
d="M702 578q76 -191 177.5 -283.5t298.5 -134.5v-135q-118 -129 -204 -208.5t-180 -142t-188 -89.5t-205 -27q-224 0 -391 100l45 205q70 -54 155 -82.5t159 -28.5q241 0 514 240v6q-253 123 -344 408h-2l-158 -173v-233h-229v999h229v-467l430 467h276l-383 -415v-6z" />
    <glyph glyph-name="Wgrave" unicode="&#x1e80;" horiz-adv-x="2119" 
d="M1174 1612h-234l-254 297l252 -2zM1792 1454h262l-461 -1454h-231l-297 1094h-4l-303 -1094h-232l-460 1454h264l311 -1051h2l287 1051h262l285 -1053h2z" />
    <glyph glyph-name="wgrave" unicode="&#x1e81;" horiz-adv-x="1579" 
d="M903 1139h-233l-254 297l252 -2zM1298 999h234l-344 -999h-211l-189 629h-2l-188 -629h-207l-344 999h234l215 -657h4l192 657h193l194 -659h4z" />
    <glyph glyph-name="Wacute" unicode="&#x1e82;" horiz-adv-x="2119" 
d="M1444 1909l-254 -297h-234l236 295zM1792 1454h262l-461 -1454h-231l-297 1094h-4l-303 -1094h-232l-460 1454h264l311 -1051h2l287 1051h262l285 -1053h2z" />
    <glyph glyph-name="wacute" unicode="&#x1e83;" horiz-adv-x="1579" 
d="M1165 1436l-254 -297h-233l235 295zM1298 999h234l-344 -999h-211l-189 629h-2l-188 -629h-207l-344 999h234l215 -657h4l192 657h193l194 -659h4z" />
    <glyph glyph-name="Wdieresis" unicode="&#x1e84;" horiz-adv-x="2119" 
d="M860 1620q-65 0 -110 45t-45 109q0 62 45 106.5t110 44.5q63 0 108.5 -44.5t45.5 -106.5q0 -63 -45.5 -108.5t-108.5 -45.5zM1266 1624q-63 0 -107.5 44t-44.5 106q0 60 44.5 104.5t107.5 44.5t108 -44.5t45 -104.5q0 -62 -45 -106t-108 -44zM1792 1454h262l-461 -1454
h-231l-297 1094h-4l-303 -1094h-232l-460 1454h264l311 -1051h2l287 1051h262l285 -1053h2z" />
    <glyph glyph-name="wdieresis" unicode="&#x1e85;" horiz-adv-x="1579" 
d="M586 1147q-66 0 -111 45t-45 108q0 62 45.5 107t110.5 45q63 0 108 -45t45 -107q0 -63 -45 -108t-108 -45zM991 1151q-63 0 -107 43.5t-44 105.5q0 61 44.5 105.5t106.5 44.5q63 0 108.5 -45t45.5 -105q0 -61 -45.5 -105t-108.5 -44zM1298 999h234l-344 -999h-211
l-189 629h-2l-188 -629h-207l-344 999h234l215 -657h4l192 657h193l194 -659h4z" />
    <glyph glyph-name="uni1E9E" unicode="&#x1e9e;" horiz-adv-x="1560" 
d="M1071 864q179 -71 238 -105q135 -75 178 -186q26 -66 26 -153t-29.5 -160.5t-78.5 -123.5t-112 -85t-129 -51t-132 -16q-109 0 -224 42.5t-216 125.5l115 223q73 -78 162 -120t165 -42q103 0 162 48t59 128q0 38 -12.5 67.5t-32 50.5t-59 42t-75.5 36t-101 38
q-97 33 -230 96l256 502v2q-201 24 -290 24q-164 0 -241.5 -63t-78.5 -215v-969h-248l2 981q0 252 140 370.5t397 118.5q104 0 291 -27.5t366 -68.5z" />
    <glyph glyph-name="uni1EA0" unicode="&#x1ea0;" horiz-adv-x="1427" 
d="M1380 0h-258l-110 313h-594l-109 -313h-258l543 1454h242zM494 526h444l-221 631h-4zM719 -199q64 0 108.5 -45t44.5 -108q0 -62 -44.5 -107t-108.5 -45t-110 45t-46 107q0 63 46 108t110 45z" />
    <glyph glyph-name="uni1EA1" unicode="&#x1ea1;" horiz-adv-x="1251" 
d="M883 999h229v-999h-219v133h-4q-112 -149 -318 -149q-210 0 -346.5 141.5t-136.5 370.5q0 225 137.5 371.5t343.5 146.5q196 0 310 -135h4v120zM608 193q120 0 202.5 84.5t82.5 216.5q0 134 -81 223.5t-204 89.5t-204.5 -85.5t-81.5 -227.5q0 -133 79.5 -217t206.5 -84z
M602 -199q64 0 109 -45t45 -108q0 -62 -45 -107t-109 -45t-110 45t-46 107q0 63 46 108t110 45z" />
    <glyph glyph-name="uni1EA2" unicode="&#x1ea2;" horiz-adv-x="1427" 
d="M723 1821q-84 0 -145 -64l-93 86q42 43 111.5 71t140.5 28q97 0 150 -44.5t53 -115.5q0 -62 -46.5 -103.5t-135.5 -60.5l-17 -53h-90q-15 13 -22 20t-13 18t-6 23q0 22 27 42t59 33.5t59 34.5t27 44q0 41 -59 41zM1122 0l-110 313h-594l-109 -313h-258l543 1454h242
l544 -1454h-258zM494 526h444l-221 631h-4z" />
    <glyph glyph-name="uni1EA3" unicode="&#x1ea3;" horiz-adv-x="1251" 
d="M633 1348q-85 0 -146 -64l-92 86q42 43 111.5 70.5t140.5 27.5q97 0 150 -44t53 -115q0 -62 -46.5 -103.5t-135.5 -60.5l-17 -53h-90q-15 13 -22 20t-13 18t-6 23q0 22 27 42t59 33.5t59 34.5t27 44q0 41 -59 41zM883 999h229v-999h-219v133h-4q-112 -149 -318 -149
q-210 0 -346.5 141.5t-136.5 370.5q0 225 137.5 371.5t343.5 146.5q196 0 310 -135h4v120zM608 193q120 0 202.5 84.5t82.5 216.5q0 134 -81 223.5t-204 89.5t-204.5 -85.5t-81.5 -227.5q0 -133 79.5 -217t206.5 -84z" />
    <glyph glyph-name="uni1EA4" unicode="&#x1ea4;" horiz-adv-x="1427" 
d="M1493 1954l-313 -297h-174l235 295zM711 1731l-113 -154h-223l231 301h205l242 -301h-226l-112 154h-4zM594 1454h242l544 -1454h-258l-110 313h-594l-109 -313h-258zM494 526h444l-221 631h-4z" />
    <glyph glyph-name="uni1EA5" unicode="&#x1ea5;" horiz-adv-x="1251" 
d="M1348 1616l-314 -297h-174l236 297h252zM623 1288l-113 -153h-223l231 301h205l242 -301h-226l-112 153h-4zM883 879v120h229v-999h-219v133h-4q-112 -149 -318 -149q-210 0 -346.5 141.5t-136.5 370.5q0 225 137.5 371.5t343.5 146.5q196 0 310 -135h4zM608 193
q120 0 202.5 84.5t82.5 216.5q0 134 -81 223.5t-204 89.5t-204.5 -85.5t-81.5 -227.5q0 -133 79.5 -217t206.5 -84z" />
    <glyph glyph-name="uni1EA6" unicode="&#x1ea6;" horiz-adv-x="1427" 
d="M1294 1657h-172l-254 297h252zM711 1731l-113 -154h-223l231 301h205l242 -301h-226l-112 154h-4zM1122 0l-110 313h-594l-109 -313h-258l543 1454h242l544 -1454h-258zM494 526h444l-221 631h-4z" />
    <glyph glyph-name="uni1EA7" unicode="&#x1ea7;" horiz-adv-x="1251" 
d="M1110 1319h-174l-254 297h254zM623 1288l-113 -153h-223l231 301h205l242 -301h-226l-112 153h-4zM883 999h229v-999h-219v133h-4q-112 -149 -318 -149q-210 0 -346.5 141.5t-136.5 370.5q0 225 137.5 371.5t343.5 146.5q196 0 310 -135h4v120zM608 193q120 0 202.5 84.5
t82.5 216.5q0 134 -81 223.5t-204 89.5t-204.5 -85.5t-81.5 -227.5q0 -133 79.5 -217t206.5 -84z" />
    <glyph glyph-name="uni1EA8" unicode="&#x1ea8;" horiz-adv-x="1427" 
d="M1159 1849q-85 0 -145 -63l-92 88q40 42 110.5 69t141.5 27q90 0 141 -44.5t51 -115.5q0 -61 -44.5 -102.5t-127.5 -60.5l-16 -54h-91q-40 32 -40 64q0 21 25 40.5t55.5 33t55.5 34t25 43.5q0 41 -49 41zM711 1731l-113 -154h-223l231 301h205l242 -301h-226l-112 154h-4
zM1122 0l-110 313h-594l-109 -313h-258l543 1454h242l544 -1454h-258zM494 526h444l-221 631h-4z" />
    <glyph glyph-name="uni1EA9" unicode="&#x1ea9;" horiz-adv-x="1251" 
d="M993 1642q90 0 142.5 -45t52.5 -114q0 -62 -45.5 -104.5t-126.5 -61.5l-19 -51h-90q-39 31 -39 61q0 21 25.5 41t55.5 33.5t55.5 35t25.5 44.5q0 19 -14 30t-37 11q-82 0 -145 -66l-93 88q42 42 112.5 70t139.5 28zM621 1288l-113 -153h-223l231 301h205l242 -301h-226
l-112 153h-4zM883 879v120h229v-999h-219v133h-4q-112 -149 -318 -149q-210 0 -346.5 141.5t-136.5 370.5q0 225 137.5 371.5t343.5 146.5q196 0 310 -135h4zM608 193q120 0 202.5 84.5t82.5 216.5q0 134 -81 223.5t-204 89.5t-204.5 -85.5t-81.5 -227.5q0 -133 79.5 -217
t206.5 -84z" />
    <glyph glyph-name="uni1EAA" unicode="&#x1eaa;" horiz-adv-x="1427" 
d="M596 1868q-40 0 -82 -72l-117 41q25 69 73 111.5t105 42.5q16 0 33 -2.5t27.5 -5t27.5 -9t22 -9t24 -11.5t20 -10q56 -27 84 -27q63 0 100 72l115 -31q-25 -77 -75 -121.5t-115 -44.5q-13 0 -27.5 2t-23.5 4t-25 8t-21 8t-23.5 10t-19.5 9q-68 35 -102 35zM707 1649
l-123 -140h-211l231 250h205l242 -250h-211l-125 140h-8zM1122 0l-110 313h-594l-109 -313h-258l543 1454h242l544 -1454h-258zM494 526h444l-221 631h-4z" />
    <glyph glyph-name="uni1EAB" unicode="&#x1eab;" horiz-adv-x="1251" 
d="M506 1573q-25 0 -51.5 -29t-46.5 -78l-140 64q32 102 88 163.5t125 61.5q12 0 23 -1t20 -2t19.5 -4t16 -4.5t16 -6.5t14 -6.5t14 -8t12.5 -7.5t14 -8.5t13 -8.5q64 -41 93 -48q13 -3 26 -3q74 0 117 106l139 -47q-31 -114 -90.5 -179t-136.5 -65t-181 66q-7 4 -21 14
t-20 13.5t-17.5 8.5t-22 7t-23.5 2zM518 1436h205l242 -301h-226l-112 153h-4l-113 -153h-223zM883 999h229v-999h-219v133h-4q-112 -149 -318 -149q-210 0 -346.5 141.5t-136.5 370.5q0 225 137.5 371.5t343.5 146.5q196 0 310 -135h4v120zM608 193q120 0 202.5 84.5
t82.5 216.5q0 134 -81 223.5t-204 89.5t-204.5 -85.5t-81.5 -227.5q0 -133 79.5 -217t206.5 -84z" />
    <glyph glyph-name="uni1EAC" unicode="&#x1eac;" horiz-adv-x="1427" 
d="M711 1761l-113 -153h-223l231 301h205l242 -301h-226l-112 153h-4zM1380 0h-258l-110 313h-594l-109 -313h-258l543 1454h242zM494 526h444l-221 631h-4zM719 -199q64 0 108.5 -45t44.5 -108q0 -62 -44.5 -107t-108.5 -45t-110 45t-46 107q0 63 46 108t110 45z" />
    <glyph glyph-name="uni1EAD" unicode="&#x1ead;" horiz-adv-x="1251" 
d="M621 1288l-113 -153h-223l231 301h205l242 -301h-226l-112 153h-4zM883 999h229v-999h-219v133h-4q-112 -149 -318 -149q-210 0 -346.5 141.5t-136.5 370.5q0 225 137.5 371.5t343.5 146.5q196 0 310 -135h4v120zM608 193q120 0 202.5 84.5t82.5 216.5q0 134 -81 223.5
t-204 89.5t-204.5 -85.5t-81.5 -227.5q0 -133 79.5 -217t206.5 -84zM602 -199q64 0 109 -45t45 -108q0 -62 -45 -107t-109 -45t-110 45t-46 107q0 63 46 108t110 45z" />
    <glyph glyph-name="uni1EAE" unicode="&#x1eae;" horiz-adv-x="1427" 
d="M1071 1946l-274 -207h-183l215 205zM715 1522q-125 0 -212 62.5t-118 176.5h158q34 -108 172 -108t172 108h157q-31 -114 -117.5 -176.5t-211.5 -62.5zM1122 0l-110 313h-594l-109 -313h-258l543 1454h242l544 -1454h-258zM494 526h444l-221 631h-4z" />
    <glyph glyph-name="uni1EAF" unicode="&#x1eaf;" horiz-adv-x="1251" 
d="M948 1755l-254 -297h-233l235 295zM621 1128q-129 0 -219.5 79t-100.5 220h180q3 -61 40 -100t100 -39q60 0 98 38t41 101h180q-11 -132 -97.5 -215.5t-221.5 -83.5zM883 999h229v-999h-219v133h-4q-112 -149 -318 -149q-210 0 -346.5 141.5t-136.5 370.5
q0 225 137.5 371.5t343.5 146.5q196 0 310 -135h4v120zM608 193q120 0 202.5 84.5t82.5 216.5q0 134 -81 223.5t-204 89.5t-204.5 -85.5t-81.5 -227.5q0 -133 79.5 -217t206.5 -84z" />
    <glyph glyph-name="uni1EB0" unicode="&#x1eb0;" horiz-adv-x="1427" 
d="M815 1739h-182l-275 207l242 -2zM543 1761q34 -108 172 -108t172 108h157q-31 -114 -117.5 -176.5t-211.5 -62.5t-212 62.5t-118 176.5h158zM1122 0l-110 313h-594l-109 -313h-258l543 1454h242l544 -1454h-258zM494 526h444l-221 631h-4z" />
    <glyph glyph-name="uni1EB1" unicode="&#x1eb1;" horiz-adv-x="1251" 
d="M735 1458h-233l-254 297l252 -2zM627 1288q60 0 98 38t41 101h180q-11 -132 -97.5 -215.5t-221.5 -83.5q-129 0 -219.5 79t-100.5 220h180q3 -61 40 -100t100 -39zM883 999h229v-999h-219v133h-4q-112 -149 -318 -149q-210 0 -346.5 141.5t-136.5 370.5
q0 225 137.5 371.5t343.5 146.5q196 0 310 -135h4v120zM608 193q120 0 202.5 84.5t82.5 216.5q0 134 -81 223.5t-204 89.5t-204.5 -85.5t-81.5 -227.5q0 -133 79.5 -217t206.5 -84z" />
    <glyph glyph-name="uni1EB2" unicode="&#x1eb2;" horiz-adv-x="1427" 
d="M713 1878q-74 0 -129 -55l-82 75q36 39 98.5 64t124.5 25q79 0 124.5 -40t45.5 -102q0 -49 -39.5 -84.5t-110.5 -52.5l-16 -27h-51q-45 0 -45 35q0 19 21 36.5t45.5 28.5t45.5 27.5t21 34.5q0 35 -53 35zM715 1522q-125 0 -212 62.5t-118 176.5h158q34 -108 172 -108
t172 108h157q-31 -114 -117.5 -176.5t-211.5 -62.5zM1122 0l-110 313h-594l-109 -313h-258l543 1454h242l544 -1454h-258zM494 526h444l-221 631h-4z" />
    <glyph glyph-name="uni1EB3" unicode="&#x1eb3;" horiz-adv-x="1251" 
d="M633 1677q-86 0 -146 -63l-92 86q42 43 111.5 70.5t140.5 27.5q97 0 150 -44.5t53 -115.5q0 -125 -182 -163l-17 -54h-90q-41 36 -41 62q0 22 27 42t59 33t59 34t27 44q0 41 -59 41zM625 1128q-129 0 -219.5 79t-100.5 220h180q3 -61 40 -100t100 -39q60 0 98 38t41 101
h180q-11 -132 -97.5 -215.5t-221.5 -83.5zM883 999h229v-999h-219v133h-4q-112 -149 -318 -149q-210 0 -346.5 141.5t-136.5 370.5q0 225 137.5 371.5t343.5 146.5q196 0 310 -135h4v120zM608 193q120 0 202.5 84.5t82.5 216.5q0 134 -81 223.5t-204 89.5t-204.5 -85.5
t-81.5 -227.5q0 -133 79.5 -217t206.5 -84z" />
    <glyph glyph-name="uni1EB4" unicode="&#x1eb4;" horiz-adv-x="1427" 
d="M596 1868q-40 0 -82 -72l-117 41q25 69 73 111.5t105 42.5q16 0 33 -2.5t27.5 -5t27.5 -9t22 -9t24 -11.5t20 -10q56 -27 84 -27q63 0 100 72l115 -31q-25 -77 -75 -121.5t-115 -44.5q-13 0 -27.5 2t-23.5 4t-25 8t-21 8t-23.5 10t-19.5 9q-68 35 -102 35zM715 1522
q-125 0 -212 62.5t-118 176.5h158q34 -108 172 -108t172 108h157q-31 -114 -117.5 -176.5t-211.5 -62.5zM1122 0l-110 313h-594l-109 -313h-258l543 1454h242l544 -1454h-258zM494 526h444l-221 631h-4z" />
    <glyph glyph-name="uni1EB5" unicode="&#x1eb5;" horiz-adv-x="1251" 
d="M502 1573q-25 0 -52 -29t-47 -78l-139 64q32 102 88 163.5t125 61.5q12 0 23 -1t20 -2t19.5 -4t16 -4.5t16 -6.5t14 -6.5t14 -8t12.5 -7.5t14 -8.5t13 -8.5q64 -41 93 -48q13 -3 26 -3q73 0 116 106l140 -47q-31 -114 -91 -179t-137 -65q-34 0 -70 11.5t-57 22.5t-53 32
q-7 4 -21 14t-20 13.5t-17.5 8.5t-22 7t-23.5 2zM623 1288q60 0 98 38t41 101h180q-11 -132 -97.5 -215.5t-221.5 -83.5q-129 0 -219.5 79t-100.5 220h180q3 -61 40 -100t100 -39zM883 999h229v-999h-219v133h-4q-112 -149 -318 -149q-210 0 -346.5 141.5t-136.5 370.5
q0 225 137.5 371.5t343.5 146.5q196 0 310 -135h4v120zM608 193q120 0 202.5 84.5t82.5 216.5q0 134 -81 223.5t-204 89.5t-204.5 -85.5t-81.5 -227.5q0 -133 79.5 -217t206.5 -84z" />
    <glyph glyph-name="uni1EB6" unicode="&#x1eb6;" horiz-adv-x="1427" 
d="M715 1602q-129 0 -219.5 79t-100.5 220h180q3 -61 40.5 -100.5t99.5 -39.5q60 0 98 38.5t41 101.5h180q-11 -132 -97.5 -215.5t-221.5 -83.5zM1380 0h-258l-110 313h-594l-109 -313h-258l543 1454h242zM494 526h444l-221 631h-4zM719 -199q64 0 108.5 -45t44.5 -108
q0 -62 -44.5 -107t-108.5 -45t-110 45t-46 107q0 63 46 108t110 45z" />
    <glyph glyph-name="uni1EB7" unicode="&#x1eb7;" horiz-adv-x="1251" 
d="M625 1128q-129 0 -219.5 79t-100.5 220h180q3 -61 40 -100t100 -39q60 0 98 38t41 101h180q-11 -132 -97.5 -215.5t-221.5 -83.5zM883 999h229v-999h-219v133h-4q-112 -149 -318 -149q-210 0 -346.5 141.5t-136.5 370.5q0 225 137.5 371.5t343.5 146.5q196 0 310 -135h4
v120zM608 193q120 0 202.5 84.5t82.5 216.5q0 134 -81 223.5t-204 89.5t-204.5 -85.5t-81.5 -227.5q0 -133 79.5 -217t206.5 -84zM602 -199q64 0 109 -45t45 -108q0 -62 -45 -107t-109 -45t-110 45t-46 107q0 63 46 108t110 45z" />
    <glyph glyph-name="uni1EB8" unicode="&#x1eb8;" horiz-adv-x="1243" 
d="M178 0v1454h916v-221h-668v-402h539v-221h-539v-389h711v-221h-959zM670 -199q64 0 108.5 -45t44.5 -108q0 -62 -44.5 -107t-108.5 -45t-110 45t-46 107q0 63 46 108t110 45z" />
    <glyph glyph-name="uni1EB9" unicode="&#x1eb9;" horiz-adv-x="1150" 
d="M1063 512q0 -38 -6 -92h-729q23 -106 98.5 -166.5t185.5 -60.5q156 0 250 116l160 -137q-67 -87 -174 -137.5t-248 -50.5q-221 0 -365.5 143t-144.5 373q0 228 138.5 371t349.5 143q219 0 352 -140.5t133 -361.5zM590 807q-96 0 -165 -53t-93 -150h499
q-23 94 -84.5 148.5t-156.5 54.5zM606 -199q64 0 109 -45t45 -108q0 -62 -45 -107t-109 -45t-109.5 45t-45.5 107q0 63 45.5 108t109.5 45z" />
    <glyph glyph-name="uni1EBA" unicode="&#x1eba;" horiz-adv-x="1243" 
d="M592 1565q-15 13 -22 20t-13 18t-6 23q0 22 27 42t59 33.5t59 34.5t27 44q0 41 -59 41q-85 0 -146 -64l-92 86q42 43 111.5 71t140.5 28q97 0 150 -44.5t53 -115.5q0 -61 -47 -103t-136 -61l-16 -53h-90zM178 0v1454h916v-221h-668v-402h539v-221h-539v-389h711v-221
h-959z" />
    <glyph glyph-name="uni1EBB" unicode="&#x1ebb;" horiz-adv-x="1150" 
d="M604 1348q-84 0 -145 -64l-92 86q42 43 111 70.5t140 27.5q97 0 150 -44t53 -115q0 -62 -46.5 -103.5t-135.5 -60.5l-16 -53h-91q-40 35 -40 61q0 22 27 42t59 33.5t59 34.5t27 44q0 41 -60 41zM1063 512q0 -38 -6 -92h-729q23 -106 98.5 -166.5t185.5 -60.5
q156 0 250 116l160 -137q-67 -87 -174 -137.5t-248 -50.5q-221 0 -365.5 143t-144.5 373q0 228 138.5 371t349.5 143q219 0 352 -140.5t133 -361.5zM590 807q-96 0 -165 -53t-93 -150h499q-23 94 -84.5 148.5t-156.5 54.5z" />
    <glyph glyph-name="uni1EBC" unicode="&#x1ebc;" horiz-adv-x="1243" 
d="M817 1606q-34 0 -69.5 11t-57.5 22.5t-53 31.5q-70 45 -115 45q-76 0 -119 -106l-139 63q32 104 91.5 164.5t142.5 60.5q37 0 71 -9t53.5 -19.5t47.5 -28.5q3 -2 13 -8.5t13 -8.5t12 -7.5t13.5 -7.5t12.5 -6t13.5 -5.5t12.5 -3.5t14 -3t14 -1q74 0 117 106l139 -47
q-31 -114 -90.5 -178.5t-136.5 -64.5zM178 0v1454h916v-221h-668v-402h539v-221h-539v-389h711v-221h-959z" />
    <glyph glyph-name="uni1EBD" unicode="&#x1ebd;" horiz-adv-x="1150" 
d="M463 1243q-76 0 -119 -106l-139 63q32 105 91 165t142 60q37 0 71 -9t53.5 -19.5t47.5 -28.5q64 -41 93 -48q13 -3 26 -3q74 0 117 106l139 -47q-31 -114 -90.5 -178.5t-136.5 -64.5q-34 0 -69.5 11t-57.5 22.5t-53 31.5q-70 45 -115 45zM1063 512q0 -38 -6 -92h-729
q23 -106 98.5 -166.5t185.5 -60.5q156 0 250 116l160 -137q-67 -87 -174 -137.5t-248 -50.5q-221 0 -365.5 143t-144.5 373q0 228 138.5 371t349.5 143q219 0 352 -140.5t133 -361.5zM590 807q-96 0 -165 -53t-93 -150h499q-23 94 -84.5 148.5t-156.5 54.5z" />
    <glyph glyph-name="uni1EBE" unicode="&#x1ebe;" horiz-adv-x="1243" 
d="M1434 1954l-314 -297h-174l236 295zM651 1731l-112 -154h-224l232 301h205l241 -301h-225l-113 154h-4zM426 610v-389h711v-221h-959v1454h916v-221h-668v-402h539v-221h-539z" />
    <glyph glyph-name="uni1EBF" unicode="&#x1ebf;" horiz-adv-x="1150" 
d="M1319 1616l-313 -297h-175l236 297h252zM594 1288l-113 -153h-223l231 301h205l242 -301h-225l-113 153h-4zM578 1014q219 0 352 -140.5t133 -361.5q0 -38 -6 -92h-729q23 -106 98.5 -166.5t185.5 -60.5q156 0 250 116l160 -137q-67 -87 -174 -137.5t-248 -50.5
q-221 0 -365.5 143t-144.5 373q0 228 138.5 371t349.5 143zM590 807q-96 0 -165 -53t-93 -150h499q-23 94 -84.5 148.5t-156.5 54.5z" />
    <glyph glyph-name="uni1EC0" unicode="&#x1ec0;" horiz-adv-x="1243" 
d="M1235 1657h-172l-254 297h252zM651 1731l-112 -154h-224l232 301h205l241 -301h-225l-113 154h-4zM426 610v-389h711v-221h-959v1454h916v-221h-668v-402h539v-221h-539z" />
    <glyph glyph-name="uni1EC1" unicode="&#x1ec1;" horiz-adv-x="1150" 
d="M1081 1319h-174l-254 297h254zM594 1288l-113 -153h-223l231 301h205l242 -301h-225l-113 153h-4zM578 1014q219 0 352 -140.5t133 -361.5q0 -38 -6 -92h-729q23 -106 98.5 -166.5t185.5 -60.5q156 0 250 116l160 -137q-67 -87 -174 -137.5t-248 -50.5q-221 0 -365.5 143
t-144.5 373q0 228 138.5 371t349.5 143zM590 807q-96 0 -165 -53t-93 -150h499q-23 94 -84.5 148.5t-156.5 54.5z" />
    <glyph glyph-name="uni1EC2" unicode="&#x1ec2;" horiz-adv-x="1243" 
d="M1114 1970q90 0 141.5 -44.5t51.5 -115.5q0 -61 -44.5 -102.5t-127.5 -60.5l-17 -54h-90q-41 33 -41 64q0 21 25.5 40.5t55.5 33t55.5 34t25.5 43.5q0 41 -49 41q-86 0 -146 -63l-92 88q40 42 110.5 69t141.5 27zM651 1731l-112 -154h-224l232 301h205l241 -301h-225
l-113 154h-4zM426 610v-389h711v-221h-959v1454h916v-221h-668v-402h539v-221h-539z" />
    <glyph glyph-name="uni1EC3" unicode="&#x1ec3;" horiz-adv-x="1150" 
d="M965 1642q90 0 142 -45t52 -114q0 -62 -45.5 -104.5t-126.5 -61.5l-18 -51h-90q-39 31 -39 61q0 21 25 41t55.5 33.5t55.5 35t25 44.5q0 19 -14 30t-37 11q-82 0 -145 -66l-92 88q42 42 112.5 70t139.5 28zM592 1288l-113 -153h-223l231 301h205l242 -301h-225l-113 153
h-4zM578 1014q219 0 352 -140.5t133 -361.5q0 -38 -6 -92h-729q23 -106 98.5 -166.5t185.5 -60.5q156 0 250 116l160 -137q-67 -87 -174 -137.5t-248 -50.5q-221 0 -365.5 143t-144.5 373q0 228 138.5 371t349.5 143zM590 807q-96 0 -165 -53t-93 -150h499
q-23 94 -84.5 148.5t-156.5 54.5z" />
    <glyph glyph-name="uni1EC4" unicode="&#x1ec4;" horiz-adv-x="1243" 
d="M537 1868q-40 0 -82 -72l-117 41q25 69 73 111.5t105 42.5q16 0 33 -2.5t27.5 -5t27.5 -9t22 -9t24 -11.5t20 -10q56 -27 84 -27q63 0 100 72l115 -31q-25 -77 -75.5 -121.5t-115.5 -44.5q-13 0 -27 2t-23.5 4.5t-24.5 8t-21 8t-22.5 9.5t-20.5 9q-68 35 -102 35z
M647 1649l-123 -140h-211l232 250h205l241 -250h-211l-125 140h-8zM426 221h711v-221h-959v1454h916v-221h-668v-402h539v-221h-539v-389z" />
    <glyph glyph-name="uni1EC5" unicode="&#x1ec5;" horiz-adv-x="1150" 
d="M477 1573q-25 0 -51.5 -29t-46.5 -78l-139 64q32 102 88 163.5t125 61.5q13 0 24.5 -1t23 -3.5t19.5 -4t19 -6t15.5 -6.5t16 -8.5t14 -8t15 -10t14.5 -9.5q64 -41 93 -48q13 -3 26 -3q74 0 117 106l139 -47q-31 -114 -90.5 -179t-136.5 -65q-34 0 -70 11.5t-57 22.5
t-53 32l-21 14t-20.5 13t-17.5 8.5t-22.5 7.5t-23.5 2zM489 1436h205l242 -301h-225l-113 153h-4l-113 -153h-223zM1063 512q0 -38 -6 -92h-729q23 -106 98.5 -166.5t185.5 -60.5q156 0 250 116l160 -137q-67 -87 -174 -137.5t-248 -50.5q-221 0 -365.5 143t-144.5 373
q0 228 138.5 371t349.5 143q219 0 352 -140.5t133 -361.5zM590 807q-96 0 -165 -53t-93 -150h499q-23 94 -84.5 148.5t-156.5 54.5z" />
    <glyph glyph-name="uni1EC6" unicode="&#x1ec6;" horiz-adv-x="1243" 
d="M651 1761l-112 -153h-224l232 301h205l241 -301h-225l-113 153h-4zM426 221h711v-221h-959v1454h916v-221h-668v-402h539v-221h-539v-389zM670 -199q64 0 108.5 -45t44.5 -108q0 -62 -44.5 -107t-108.5 -45t-110 45t-46 107q0 63 46 108t110 45z" />
    <glyph glyph-name="uni1EC7" unicode="&#x1ec7;" horiz-adv-x="1150" 
d="M592 1288l-113 -153h-223l231 301h205l242 -301h-225l-113 153h-4zM1063 512q0 -38 -6 -92h-729q23 -106 98.5 -166.5t185.5 -60.5q156 0 250 116l160 -137q-67 -87 -174 -137.5t-248 -50.5q-221 0 -365.5 143t-144.5 373q0 228 138.5 371t349.5 143q219 0 352 -140.5
t133 -361.5zM590 807q-96 0 -165 -53t-93 -150h499q-23 94 -84.5 148.5t-156.5 54.5zM606 -199q64 0 109 -45t45 -108q0 -62 -45 -107t-109 -45t-109.5 45t-45.5 107q0 63 45.5 108t109.5 45z" />
    <glyph glyph-name="uni1EC8" unicode="&#x1ec8;" horiz-adv-x="622" 
d="M244 1565q-15 13 -22 20t-13 18t-6 23q0 22 27 42t59 33.5t59 34.5t27 44q0 41 -60 41q-84 0 -145 -64l-92 86q42 43 111.5 71t140.5 28q97 0 149.5 -44.5t52.5 -115.5q0 -62 -46.5 -103.5t-135.5 -60.5l-16 -53h-90zM186 0v1454h248v-1454h-248z" />
    <glyph glyph-name="uni1EC9" unicode="&#x1ec9;" horiz-adv-x="557" 
d="M215 1092q-15 13 -22 20t-13 18t-6 23q0 22 27 42t59 33.5t59 34.5t27 44q0 41 -59 41q-85 0 -146 -64l-92 86q42 43 111.5 70.5t140.5 27.5q97 0 150 -44t53 -115q0 -62 -46.5 -103.5t-135.5 -60.5l-17 -53h-90zM164 0v999h229v-999h-229z" />
    <glyph glyph-name="uni1ECA" unicode="&#x1eca;" horiz-adv-x="622" 
d="M186 0v1454h248v-1454h-248zM315 -199q64 0 109 -45t45 -108q0 -62 -45 -107t-109 -45t-109.5 45t-45.5 107q0 63 45.5 108t109.5 45z" />
    <glyph glyph-name="uni1ECB" unicode="&#x1ecb;" horiz-adv-x="557" 
d="M279 1147q-64 0 -109 45t-45 108q0 62 45 107t109 45t109.5 -45t45.5 -107q0 -63 -45.5 -108t-109.5 -45zM164 0v999h229v-999h-229zM279 -199q64 0 108.5 -45t44.5 -108q0 -62 -44.5 -107t-108.5 -45t-110 45t-46 107q0 63 46 108t110 45z" />
    <glyph glyph-name="uni1ECC" unicode="&#x1ecc;" horiz-adv-x="1693" 
d="M848 -16q-214 0 -382.5 96t-260.5 265.5t-92 381.5t92 381.5t260.5 265.5t382.5 96q209 0 375.5 -92.5t262 -262.5t95.5 -388q0 -163 -55.5 -302t-153 -235.5t-233 -151t-291.5 -54.5zM848 215q202 0 338.5 145.5t136.5 366.5q0 222 -136 367t-339 145
q-139 0 -249.5 -68.5t-170 -185t-59.5 -258.5t59.5 -258.5t170 -185t249.5 -68.5zM848 -199q64 0 108.5 -45t44.5 -108q0 -62 -44.5 -107t-108.5 -45t-110 45t-46 107q0 63 46 108t110 45z" />
    <glyph glyph-name="uni1ECD" unicode="&#x1ecd;" horiz-adv-x="1228" 
d="M614 -16q-233 0 -378.5 145.5t-145.5 368.5q0 147 64.5 264t184.5 184.5t275 67.5q231 0 378 -143.5t147 -372.5q0 -227 -147 -370.5t-378 -143.5zM614 193q123 0 207 86t84 219q0 136 -83 222.5t-208 86.5q-129 0 -209.5 -88t-80.5 -221q0 -129 81.5 -217t208.5 -88z
M614 -199q64 0 109 -45t45 -108q0 -62 -45 -107t-109 -45t-109.5 45t-45.5 107q0 63 45.5 108t109.5 45z" />
    <glyph glyph-name="uni1ECE" unicode="&#x1ece;" horiz-adv-x="1693" 
d="M786 1565q-15 13 -22 20t-13 18t-6 23q0 22 27 42t59.5 33.5t59.5 34.5t27 44q0 41 -60 41q-84 0 -145 -64l-92 86q42 43 111 71t140 28q97 0 150 -44.5t53 -115.5q0 -62 -46.5 -103.5t-135.5 -60.5l-16 -53h-91zM848 -16q-214 0 -382.5 96t-260.5 265.5t-92 381.5
t92 381.5t260.5 265.5t382.5 96q209 0 375.5 -92.5t262 -262.5t95.5 -388q0 -163 -55.5 -302t-153 -235.5t-233 -151t-291.5 -54.5zM848 215q202 0 338.5 145.5t136.5 366.5q0 222 -136 367t-339 145q-139 0 -249.5 -68.5t-170 -185t-59.5 -258.5t59.5 -258.5t170 -185
t249.5 -68.5z" />
    <glyph glyph-name="uni1ECF" unicode="&#x1ecf;" horiz-adv-x="1228" 
d="M551 1092q-15 13 -22 20t-13 18t-6 23q0 22 27 42t59 33.5t59 34.5t27 44q0 41 -59 41q-85 0 -146 -64l-92 86q42 43 111.5 70.5t140.5 27.5q97 0 150 -44t53 -115q0 -61 -47 -103t-136 -61l-16 -53h-90zM614 -16q-233 0 -378.5 145.5t-145.5 368.5q0 147 64.5 264
t184.5 184.5t275 67.5q231 0 378 -143.5t147 -372.5q0 -227 -147 -370.5t-378 -143.5zM614 193q123 0 207 86t84 219q0 136 -83 222.5t-208 86.5q-129 0 -209.5 -88t-80.5 -221q0 -129 81.5 -217t208.5 -88z" />
    <glyph glyph-name="uni1ED0" unicode="&#x1ed0;" horiz-adv-x="1693" 
d="M1628 1954l-313 -297h-174l235 295zM846 1731l-113 -154h-223l231 301h205l242 -301h-225l-113 154h-4zM848 1470q209 0 375.5 -92.5t262 -262.5t95.5 -388q0 -163 -55.5 -302t-153 -235.5t-233 -151t-291.5 -54.5q-214 0 -382.5 96t-260.5 265.5t-92 381.5t92 381.5
t260.5 265.5t382.5 96zM848 215q202 0 338.5 145.5t136.5 366.5q0 222 -136 367t-339 145q-139 0 -249.5 -68.5t-170 -185t-59.5 -258.5t59.5 -258.5t170 -185t249.5 -68.5z" />
    <glyph glyph-name="uni1ED1" unicode="&#x1ed1;" horiz-adv-x="1228" 
d="M1337 1616l-313 -297h-174l235 297h252zM612 1288l-112 -153h-224l232 301h205l241 -301h-225l-113 153h-4zM614 1014q231 0 378 -143.5t147 -372.5q0 -227 -147 -370.5t-378 -143.5q-233 0 -378.5 145.5t-145.5 368.5q0 147 64.5 264t184.5 184.5t275 67.5zM614 193
q123 0 207 86t84 219q0 136 -83 222.5t-208 86.5q-129 0 -209.5 -88t-80.5 -221q0 -129 81.5 -217t208.5 -88z" />
    <glyph glyph-name="uni1ED2" unicode="&#x1ed2;" horiz-adv-x="1693" 
d="M1430 1657h-173l-253 297h251zM846 1731l-113 -154h-223l231 301h205l242 -301h-225l-113 154h-4zM848 1470q209 0 375.5 -92.5t262 -262.5t95.5 -388q0 -163 -55.5 -302t-153 -235.5t-233 -151t-291.5 -54.5q-214 0 -382.5 96t-260.5 265.5t-92 381.5t92 381.5
t260.5 265.5t382.5 96zM848 215q202 0 338.5 145.5t136.5 366.5q0 222 -136 367t-339 145q-139 0 -249.5 -68.5t-170 -185t-59.5 -258.5t59.5 -258.5t170 -185t249.5 -68.5z" />
    <glyph glyph-name="uni1ED3" unicode="&#x1ed3;" horiz-adv-x="1228" 
d="M1100 1319h-174l-254 297h254zM612 1288l-112 -153h-224l232 301h205l241 -301h-225l-113 153h-4zM614 1014q231 0 378 -143.5t147 -372.5q0 -227 -147 -370.5t-378 -143.5q-233 0 -378.5 145.5t-145.5 368.5q0 147 64.5 264t184.5 184.5t275 67.5zM614 193q123 0 207 86
t84 219q0 136 -83 222.5t-208 86.5q-129 0 -209.5 -88t-80.5 -221q0 -129 81.5 -217t208.5 -88z" />
    <glyph glyph-name="uni1ED4" unicode="&#x1ed4;" horiz-adv-x="1693" 
d="M1294 1849q-85 0 -145 -63l-92 88q40 42 110.5 69t141.5 27q90 0 141 -44.5t51 -115.5q0 -61 -44.5 -102.5t-127.5 -60.5l-16 -54h-90q-41 33 -41 64q0 21 25 40.5t55.5 33t55.5 34t25 43.5q0 41 -49 41zM846 1731l-113 -154h-223l231 301h205l242 -301h-225l-113 154h-4
zM848 1470q209 0 375.5 -92.5t262 -262.5t95.5 -388q0 -163 -55.5 -302t-153 -235.5t-233 -151t-291.5 -54.5q-214 0 -382.5 96t-260.5 265.5t-92 381.5t92 381.5t260.5 265.5t382.5 96zM848 215q202 0 338.5 145.5t136.5 366.5q0 222 -136 367t-339 145
q-139 0 -249.5 -68.5t-170 -185t-59.5 -258.5t59.5 -258.5t170 -185t249.5 -68.5z" />
    <glyph glyph-name="uni1ED5" unicode="&#x1ed5;" horiz-adv-x="1228" 
d="M969 1522q-83 0 -146 -66l-92 88q42 42 112.5 70t139.5 28q90 0 142.5 -45t52.5 -114q0 -62 -45.5 -104.5t-126.5 -61.5l-19 -51h-90q-39 31 -39 61q0 21 25.5 41t55.5 33.5t55.5 35t25.5 44.5q0 19 -14 30t-37 11zM610 1288l-112 -153h-224l232 301h205l241 -301h-225
l-113 153h-4zM614 1014q231 0 378 -143.5t147 -372.5q0 -227 -147 -370.5t-378 -143.5q-233 0 -378.5 145.5t-145.5 368.5q0 147 64.5 264t184.5 184.5t275 67.5zM614 193q123 0 207 86t84 219q0 136 -83 222.5t-208 86.5q-129 0 -209.5 -88t-80.5 -221q0 -129 81.5 -217
t208.5 -88z" />
    <glyph glyph-name="uni1ED6" unicode="&#x1ed6;" horiz-adv-x="1693" 
d="M731 1868q-40 0 -82 -72l-117 41q25 69 73.5 111.5t105.5 42.5q16 0 32.5 -2.5t27.5 -5t27 -9t22.5 -9t23.5 -11t20 -10.5q56 -27 84 -27q64 0 101 72l114 -31q-25 -77 -75 -121.5t-115 -44.5q-13 0 -27 2t-23.5 4.5t-24.5 8t-21 8t-22.5 9.5t-20.5 9q-68 35 -103 35z
M842 1649l-123 -140h-211l231 250h205l242 -250h-211l-125 140h-8zM848 1470q209 0 375.5 -92.5t262 -262.5t95.5 -388q0 -163 -55.5 -302t-153 -235.5t-233 -151t-291.5 -54.5q-214 0 -382.5 96t-260.5 265.5t-92 381.5t92 381.5t260.5 265.5t382.5 96zM848 215
q202 0 338.5 145.5t136.5 366.5q0 222 -136 367t-339 145q-139 0 -249.5 -68.5t-170 -185t-59.5 -258.5t59.5 -258.5t170 -185t249.5 -68.5z" />
    <glyph glyph-name="uni1ED7" unicode="&#x1ed7;" horiz-adv-x="1228" 
d="M496 1573q-25 0 -52 -29t-47 -78l-139 64q32 102 88 163.5t125 61.5q12 0 23 -1t20 -2t19.5 -4t16 -4.5t16 -6.5t14 -6.5t14 -8t12.5 -7.5t14 -8.5t13 -8.5q64 -41 93 -48q13 -3 26 -3q73 0 116 106l140 -47q-31 -114 -91 -179t-137 -65q-34 0 -70 11.5t-57 22.5t-53 32
q-7 4 -21 14t-20 13.5t-17.5 8.5t-22 7t-23.5 2zM508 1436h205l241 -301h-225l-113 153h-4l-112 -153h-224zM614 1014q231 0 378 -143.5t147 -372.5q0 -227 -147 -370.5t-378 -143.5q-233 0 -378.5 145.5t-145.5 368.5q0 147 64.5 264t184.5 184.5t275 67.5zM614 193
q123 0 207 86t84 219q0 136 -83 222.5t-208 86.5q-129 0 -209.5 -88t-80.5 -221q0 -129 81.5 -217t208.5 -88z" />
    <glyph glyph-name="uni1ED8" unicode="&#x1ed8;" horiz-adv-x="1693" 
d="M846 1761l-113 -153h-223l231 301h205l242 -301h-225l-113 153h-4zM848 1470q209 0 375.5 -92.5t262 -262.5t95.5 -388q0 -163 -55.5 -302t-153 -235.5t-233 -151t-291.5 -54.5q-214 0 -382.5 96t-260.5 265.5t-92 381.5t92 381.5t260.5 265.5t382.5 96zM848 215
q202 0 338.5 145.5t136.5 366.5q0 222 -136 367t-339 145q-139 0 -249.5 -68.5t-170 -185t-59.5 -258.5t59.5 -258.5t170 -185t249.5 -68.5zM848 -199q64 0 108.5 -45t44.5 -108q0 -62 -44.5 -107t-108.5 -45t-110 45t-46 107q0 63 46 108t110 45z" />
    <glyph glyph-name="uni1ED9" unicode="&#x1ed9;" horiz-adv-x="1228" 
d="M610 1288l-112 -153h-224l232 301h205l241 -301h-225l-113 153h-4zM614 1014q231 0 378 -143.5t147 -372.5q0 -227 -147 -370.5t-378 -143.5q-233 0 -378.5 145.5t-145.5 368.5q0 147 64.5 264t184.5 184.5t275 67.5zM614 193q123 0 207 86t84 219q0 136 -83 222.5
t-208 86.5q-129 0 -209.5 -88t-80.5 -221q0 -129 81.5 -217t208.5 -88zM614 -199q64 0 109 -45t45 -108q0 -62 -45 -107t-109 -45t-109.5 45t-45.5 107q0 63 45.5 108t109.5 45z" />
    <glyph glyph-name="uni1EDA" unicode="&#x1eda;" horiz-adv-x="1781" 
d="M1229 1909l-254 -297h-234l236 295zM1499 1585h234v-145q0 -140 -57.5 -235.5t-168.5 -133.5q74 -157 74 -344q0 -163 -55.5 -302t-153 -235.5t-233 -151t-291.5 -54.5q-214 0 -382.5 96t-260.5 265.5t-92 381.5t92 381.5t260.5 265.5t382.5 96q176 0 323 -66.5
t248 -189.5q24 11 40 31t24 37.5t11.5 53t4 54t0.5 64.5v131zM848 215q202 0 338.5 145.5t136.5 366.5q0 222 -136 367t-339 145q-139 0 -249.5 -68.5t-170 -185t-59.5 -258.5t59.5 -258.5t170 -185t249.5 -68.5z" />
    <glyph glyph-name="uni1EDB" unicode="&#x1edb;" horiz-adv-x="1394" 
d="M979 1436l-254 -297h-233l235 295zM1137 1157h233v-145q0 -145 -63 -243.5t-181 -131.5l-2 -4q15 -81 15 -135q0 -227 -147 -370.5t-378 -143.5q-233 0 -378.5 145.5t-145.5 368.5q0 147 64.5 264t184.5 184.5t275 67.5q146 0 262 -60.5t183 -167.5q19 10 33.5 23.5
t22.5 34.5t13 36.5t6.5 46.5t2 46t0.5 53v131zM614 193q123 0 207 86t84 219q0 136 -83 222.5t-208 86.5q-129 0 -209.5 -88t-80.5 -221q0 -129 81.5 -217t208.5 -88z" />
    <glyph glyph-name="uni1EDC" unicode="&#x1edc;" horiz-adv-x="1781" 
d="M965 1612h-234l-254 297l252 -2zM1499 1585h234v-145q0 -140 -57.5 -235.5t-168.5 -133.5q74 -157 74 -344q0 -163 -55.5 -302t-153 -235.5t-233 -151t-291.5 -54.5q-214 0 -382.5 96t-260.5 265.5t-92 381.5t92 381.5t260.5 265.5t382.5 96q176 0 323 -66.5t248 -189.5
q24 11 40 31t24 37.5t11.5 53t4 54t0.5 64.5v131zM848 215q202 0 338.5 145.5t136.5 366.5q0 222 -136 367t-339 145q-139 0 -249.5 -68.5t-170 -185t-59.5 -258.5t59.5 -258.5t170 -185t249.5 -68.5z" />
    <glyph glyph-name="uni1EDD" unicode="&#x1edd;" horiz-adv-x="1394" 
d="M758 1139h-234l-254 297l252 -2zM1137 1157h233v-145q0 -145 -63 -243.5t-181 -131.5l-2 -4q15 -81 15 -135q0 -227 -147 -370.5t-378 -143.5q-233 0 -378.5 145.5t-145.5 368.5q0 147 64.5 264t184.5 184.5t275 67.5q146 0 262 -60.5t183 -167.5q19 10 33.5 23.5
t22.5 34.5t13 36.5t6.5 46.5t2 46t0.5 53v131zM614 193q123 0 207 86t84 219q0 136 -83 222.5t-208 86.5q-129 0 -209.5 -88t-80.5 -221q0 -129 81.5 -217t208.5 -88z" />
    <glyph glyph-name="uni1EDE" unicode="&#x1ede;" horiz-adv-x="1781" 
d="M858 1821q-84 0 -145 -64l-92 86q42 43 111 71t140 28q97 0 150 -44.5t53 -115.5q0 -62 -46.5 -103.5t-135.5 -60.5l-16 -53h-91q-15 13 -22 20t-13 18t-6 23q0 22 27 42t59.5 33.5t59.5 34.5t27 44q0 41 -60 41zM1499 1585h234v-145q0 -140 -57.5 -235.5t-168.5 -133.5
q74 -157 74 -344q0 -163 -55.5 -302t-153 -235.5t-233 -151t-291.5 -54.5q-214 0 -382.5 96t-260.5 265.5t-92 381.5t92 381.5t260.5 265.5t382.5 96q176 0 323 -66.5t248 -189.5q24 11 40 31t24 37.5t11.5 53t4 54t0.5 64.5v131zM848 215q202 0 338.5 145.5t136.5 366.5
q0 222 -136 367t-339 145q-139 0 -249.5 -68.5t-170 -185t-59.5 -258.5t59.5 -258.5t170 -185t249.5 -68.5z" />
    <glyph glyph-name="uni1EDF" unicode="&#x1edf;" horiz-adv-x="1394" 
d="M623 1348q-85 0 -146 -64l-92 86q42 43 111.5 70.5t140.5 27.5q97 0 150 -44t53 -115q0 -61 -47 -103t-136 -61l-16 -53h-90q-15 13 -22 20t-13 18t-6 23q0 22 27 42t59 33.5t59 34.5t27 44q0 41 -59 41zM1137 1157h233v-145q0 -145 -63 -243.5t-181 -131.5l-2 -4
q15 -81 15 -135q0 -227 -147 -370.5t-378 -143.5q-233 0 -378.5 145.5t-145.5 368.5q0 147 64.5 264t184.5 184.5t275 67.5q146 0 262 -60.5t183 -167.5q19 10 33.5 23.5t22.5 34.5t13 36.5t6.5 46.5t2 46t0.5 53v131zM614 193q123 0 207 86t84 219q0 136 -83 222.5
t-208 86.5q-129 0 -209.5 -88t-80.5 -221q0 -129 81.5 -217t208.5 -88z" />
    <glyph glyph-name="uni1EE0" unicode="&#x1ee0;" horiz-adv-x="1781" 
d="M717 1716q-76 0 -119 -106l-139 63q32 105 91 165t142 60q37 0 71 -9t53.5 -19.5t47.5 -28.5q64 -41 93 -48q13 -3 26 -3q74 0 117 106l139 -47q-31 -114 -90.5 -178.5t-136.5 -64.5q-78 0 -181 65q-70 45 -114 45zM1499 1585h234v-145q0 -140 -57.5 -235.5
t-168.5 -133.5q74 -157 74 -344q0 -163 -55.5 -302t-153 -235.5t-233 -151t-291.5 -54.5q-214 0 -382.5 96t-260.5 265.5t-92 381.5t92 381.5t260.5 265.5t382.5 96q176 0 323 -66.5t248 -189.5q24 11 40 31t24 37.5t11.5 53t4 54t0.5 64.5v131zM848 215q202 0 338.5 145.5
t136.5 366.5q0 222 -136 367t-339 145q-139 0 -249.5 -68.5t-170 -185t-59.5 -258.5t59.5 -258.5t170 -185t249.5 -68.5z" />
    <glyph glyph-name="uni1EE1" unicode="&#x1ee1;" horiz-adv-x="1394" 
d="M481 1243q-76 0 -119 -106l-139 63q32 104 91.5 164.5t142.5 60.5q37 0 71 -9t53.5 -19.5t47.5 -28.5q64 -41 93 -48q13 -3 26 -3q73 0 116 106l140 -47q-31 -114 -91 -178.5t-137 -64.5q-34 0 -69.5 11t-57.5 22.5t-53 31.5q-70 45 -115 45zM1137 1157h233v-145
q0 -145 -63 -243.5t-181 -131.5l-2 -4q15 -81 15 -135q0 -227 -147 -370.5t-378 -143.5q-233 0 -378.5 145.5t-145.5 368.5q0 147 64.5 264t184.5 184.5t275 67.5q146 0 262 -60.5t183 -167.5q19 10 33.5 23.5t22.5 34.5t13 36.5t6.5 46.5t2 46t0.5 53v131zM614 193
q123 0 207 86t84 219q0 136 -83 222.5t-208 86.5q-129 0 -209.5 -88t-80.5 -221q0 -129 81.5 -217t208.5 -88z" />
    <glyph glyph-name="uni1EE2" unicode="&#x1ee2;" horiz-adv-x="1781" 
d="M1499 1585h234v-145q0 -140 -57.5 -235.5t-168.5 -133.5q74 -157 74 -344q0 -163 -55.5 -302t-153 -235.5t-233 -151t-291.5 -54.5q-214 0 -382.5 96t-260.5 265.5t-92 381.5t92 381.5t260.5 265.5t382.5 96q176 0 323 -66.5t248 -189.5q24 11 40 31t24 37.5t11.5 53
t4 54t0.5 64.5v131zM848 215q202 0 338.5 145.5t136.5 366.5q0 222 -136 367t-339 145q-139 0 -249.5 -68.5t-170 -185t-59.5 -258.5t59.5 -258.5t170 -185t249.5 -68.5zM848 -199q64 0 108.5 -45t44.5 -108q0 -62 -44.5 -107t-108.5 -45t-110 45t-46 107q0 63 46 108
t110 45z" />
    <glyph glyph-name="uni1EE3" unicode="&#x1ee3;" horiz-adv-x="1394" 
d="M1137 1157h233v-145q0 -145 -63 -243.5t-181 -131.5l-2 -4q15 -81 15 -135q0 -227 -147 -370.5t-378 -143.5q-233 0 -378.5 145.5t-145.5 368.5q0 147 64.5 264t184.5 184.5t275 67.5q146 0 262 -60.5t183 -167.5q19 10 33.5 23.5t22.5 34.5t13 36.5t6.5 46.5t2 46
t0.5 53v131zM614 193q123 0 207 86t84 219q0 136 -83 222.5t-208 86.5q-129 0 -209.5 -88t-80.5 -221q0 -129 81.5 -217t208.5 -88zM614 -199q64 0 109 -45t45 -108q0 -62 -45 -107t-109 -45t-109.5 45t-45.5 107q0 63 45.5 108t109.5 45z" />
    <glyph glyph-name="uni1EE4" unicode="&#x1ee4;" horiz-adv-x="1472" 
d="M735 -16q-262 0 -419.5 162.5t-157.5 451.5v856h245v-838q0 -177 89 -288t243 -111q149 0 241.5 107.5t92.5 291.5v838h248v-856q0 -284 -155.5 -449t-426.5 -165zM735 -199q64 0 109 -45t45 -108q0 -62 -45 -107t-109 -45t-109.5 45t-45.5 107q0 63 45.5 108t109.5 45z
" />
    <glyph glyph-name="uni1EE5" unicode="&#x1ee5;" horiz-adv-x="1183" 
d="M813 999h229v-999h-229v131q-59 -71 -139.5 -109t-169.5 -38q-176 0 -275.5 97t-99.5 310v608h229v-546q0 -145 46.5 -202.5t152.5 -57.5t181 86.5t75 240.5v479zM598 -199q64 0 109 -45t45 -108q0 -62 -45 -107t-109 -45t-110 45t-46 107q0 63 46 108t110 45z" />
    <glyph glyph-name="uni1EE6" unicode="&#x1ee6;" horiz-adv-x="1472" 
d="M672 1565q-15 13 -22 20t-13 18t-6 23q0 22 27 42t59 33.5t59 34.5t27 44q0 41 -60 41q-84 0 -145 -64l-92 86q42 43 111.5 71t140.5 28q97 0 150 -44.5t53 -115.5q0 -61 -47 -103t-136 -61l-16 -53h-90zM735 -16q-262 0 -419.5 162.5t-157.5 451.5v856h245v-838
q0 -177 89 -288t243 -111q149 0 241.5 107.5t92.5 291.5v838h248v-856q0 -284 -155.5 -449t-426.5 -165z" />
    <glyph glyph-name="uni1EE7" unicode="&#x1ee7;" horiz-adv-x="1183" 
d="M596 1348q-84 0 -145 -64l-93 86q42 43 111.5 70.5t140.5 27.5q97 0 150 -44t53 -115q0 -62 -46.5 -103.5t-135.5 -60.5l-17 -53h-90q-15 13 -22 20t-13 18t-6 23q0 22 27 42t59 33.5t59 34.5t27 44q0 41 -59 41zM813 999h229v-999h-229v131q-59 -71 -139.5 -109
t-169.5 -38q-176 0 -275.5 97t-99.5 310v608h229v-546q0 -145 46.5 -202.5t152.5 -57.5t181 86.5t75 240.5v479z" />
    <glyph glyph-name="uni1EE8" unicode="&#x1ee8;" horiz-adv-x="1677" 
d="M1065 1909l-254 -297h-233l235 295zM1440 1585h233v-145q0 -177 -92 -282t-264 -109v-451q0 -284 -155.5 -449t-426.5 -165q-262 0 -419.5 162.5t-157.5 451.5v856h245v-838q0 -177 89 -288t243 -111q149 0 241.5 107.5t92.5 291.5v838h248v-254q26 5 45.5 16t32.5 22
t22 31.5t13.5 35t6.5 43t2.5 45t0.5 50.5v11v131z" />
    <glyph glyph-name="uni1EE9" unicode="&#x1ee9;" horiz-adv-x="1406" 
d="M956 1436l-254 -297h-233l236 295zM1151 1157h233v-145q0 -174 -88 -278t-254 -113v-621h-229v131q-59 -71 -139.5 -109t-169.5 -38q-176 0 -275.5 97t-99.5 310v608h229v-546q0 -145 46.5 -202.5t152.5 -57.5t181 86.5t75 240.5v479h229v-225q27 8 46 20t31 31.5
t18.5 36t9.5 47t3.5 49t0.5 56.5v12v131z" />
    <glyph glyph-name="uni1EEA" unicode="&#x1eea;" horiz-adv-x="1677" 
d="M893 1612h-234l-253 297l251 -2zM1440 1585h233v-145q0 -177 -92 -282t-264 -109v-451q0 -284 -155.5 -449t-426.5 -165q-262 0 -419.5 162.5t-157.5 451.5v856h245v-838q0 -177 89 -288t243 -111q149 0 241.5 107.5t92.5 291.5v838h248v-254q26 5 45.5 16t32.5 22
t22 31.5t13.5 35t6.5 43t2.5 45t0.5 50.5v11v131z" />
    <glyph glyph-name="uni1EEB" unicode="&#x1eeb;" horiz-adv-x="1406" 
d="M754 1139h-234l-254 297l252 -2zM1151 1157h233v-145q0 -174 -88 -278t-254 -113v-621h-229v131q-59 -71 -139.5 -109t-169.5 -38q-176 0 -275.5 97t-99.5 310v608h229v-546q0 -145 46.5 -202.5t152.5 -57.5t181 86.5t75 240.5v479h229v-225q27 8 46 20t31 31.5t18.5 36
t9.5 47t3.5 49t0.5 56.5v12v131z" />
    <glyph glyph-name="uni1EEC" unicode="&#x1eec;" horiz-adv-x="1677" 
d="M743 1821q-84 0 -145 -64l-92 86q42 43 111.5 71t140.5 28q97 0 150 -44.5t53 -115.5q0 -61 -47 -103t-136 -61l-16 -53h-90q-15 13 -22 20t-13 18t-6 23q0 22 27 42t59 33.5t59 34.5t27 44q0 41 -60 41zM1440 1585h233v-145q0 -177 -92 -282t-264 -109v-451
q0 -284 -155.5 -449t-426.5 -165q-262 0 -419.5 162.5t-157.5 451.5v856h245v-838q0 -177 89 -288t243 -111q149 0 241.5 107.5t92.5 291.5v838h248v-254q26 5 45.5 16t32.5 22t22 31.5t13.5 35t6.5 43t2.5 45t0.5 50.5v11v131z" />
    <glyph glyph-name="uni1EED" unicode="&#x1eed;" horiz-adv-x="1406" 
d="M596 1348q-84 0 -145 -64l-93 86q42 43 111.5 70.5t140.5 27.5q97 0 150 -44t53 -115q0 -62 -46.5 -103.5t-135.5 -60.5l-17 -53h-90q-15 13 -22 20t-13 18t-6 23q0 22 27 42t59 33.5t59 34.5t27 44q0 41 -59 41zM1151 1157h233v-145q0 -174 -88 -278t-254 -113v-621
h-229v131q-59 -71 -139.5 -109t-169.5 -38q-176 0 -275.5 97t-99.5 310v608h229v-546q0 -145 46.5 -202.5t152.5 -57.5t181 86.5t75 240.5v479h229v-225q27 8 46 20t31 31.5t18.5 36t9.5 47t3.5 49t0.5 56.5v12v131z" />
    <glyph glyph-name="uni1EEE" unicode="&#x1eee;" horiz-adv-x="1677" 
d="M602 1716q-76 0 -119 -106l-139 63q32 104 91.5 164.5t142.5 60.5q37 0 71 -9t53.5 -19.5t47.5 -28.5q3 -2 13 -8.5t13 -8.5t12 -7.5t13.5 -7.5t12.5 -6t13.5 -5.5t12.5 -3.5t14 -3t14 -1q74 0 117 106l139 -47q-31 -114 -90.5 -178.5t-136.5 -64.5q-34 0 -69.5 11
t-57.5 22.5t-53 31.5q-70 45 -115 45zM1440 1585h233v-145q0 -177 -92 -282t-264 -109v-451q0 -284 -155.5 -449t-426.5 -165q-262 0 -419.5 162.5t-157.5 451.5v856h245v-838q0 -177 89 -288t243 -111q149 0 241.5 107.5t92.5 291.5v838h248v-254q26 5 45.5 16t32.5 22
t22 31.5t13.5 35t6.5 43t2.5 45t0.5 50.5v11v131z" />
    <glyph glyph-name="uni1EEF" unicode="&#x1eef;" horiz-adv-x="1406" 
d="M455 1243q-76 0 -119 -106l-139 63q32 105 91 165t142 60q37 0 71 -9t53.5 -19.5t47.5 -28.5q64 -41 93 -48q13 -3 26 -3q74 0 117 106l139 -47q-31 -114 -90.5 -178.5t-136.5 -64.5q-78 0 -181 65q-70 45 -114 45zM1151 1157h233v-145q0 -174 -88 -278t-254 -113v-621
h-229v131q-59 -71 -139.5 -109t-169.5 -38q-176 0 -275.5 97t-99.5 310v608h229v-546q0 -145 46.5 -202.5t152.5 -57.5t181 86.5t75 240.5v479h229v-225q27 8 46 20t31 31.5t18.5 36t9.5 47t3.5 49t0.5 56.5v12v131z" />
    <glyph glyph-name="uni1EF0" unicode="&#x1ef0;" horiz-adv-x="1677" 
d="M1440 1585h233v-145q0 -177 -92 -282t-264 -109v-451q0 -284 -155.5 -449t-426.5 -165q-262 0 -419.5 162.5t-157.5 451.5v856h245v-838q0 -177 89 -288t243 -111q149 0 241.5 107.5t92.5 291.5v838h248v-254q26 5 45.5 16t32.5 22t22 31.5t13.5 35t6.5 43t2.5 45
t0.5 50.5v11v131zM735 -199q64 0 109 -45t45 -108q0 -62 -45 -107t-109 -45t-109.5 45t-45.5 107q0 63 45.5 108t109.5 45z" />
    <glyph glyph-name="uni1EF1" unicode="&#x1ef1;" horiz-adv-x="1406" 
d="M1151 1157h233v-145q0 -174 -88 -278t-254 -113v-621h-229v131q-59 -71 -139.5 -109t-169.5 -38q-176 0 -275.5 97t-99.5 310v608h229v-546q0 -145 46.5 -202.5t152.5 -57.5t181 86.5t75 240.5v479h229v-225q27 8 46 20t31 31.5t18.5 36t9.5 47t3.5 49t0.5 56.5v12v131z
M598 -199q64 0 109 -45t45 -108q0 -62 -45 -107t-109 -45t-110 45t-46 107q0 63 46 108t110 45z" />
    <glyph glyph-name="Ygrave" unicode="&#x1ef2;" horiz-adv-x="1280" 
d="M774 1612h-233l-254 297l252 -2zM965 1454h286l-489 -811v-643h-248v643l-485 811h282l326 -563h4z" />
    <glyph glyph-name="ygrave" unicode="&#x1ef3;" horiz-adv-x="1095" 
d="M698 1139h-233l-254 297l252 -2zM815 999h240l-549 -1405h-242l180 463l-405 942h242l276 -675z" />
    <glyph glyph-name="uni1EF4" unicode="&#x1ef4;" horiz-adv-x="1280" 
d="M514 0v643l-485 811h282l326 -563h4l324 563h286l-489 -811v-643h-248zM639 -199q64 0 109 -45t45 -108q0 -62 -45 -107t-109 -45t-110 45t-46 107q0 63 46 108t110 45z" />
    <glyph glyph-name="uni1EF5" unicode="&#x1ef5;" horiz-adv-x="1095" 
d="M815 999h240l-549 -1405h-242l180 463l-405 942h242l276 -675zM825 -199q64 0 109 -45t45 -108q0 -62 -45 -107t-109 -45t-109.5 45t-45.5 107q0 63 45.5 108t109.5 45z" />
    <glyph glyph-name="uni1EF6" unicode="&#x1ef6;" horiz-adv-x="1280" 
d="M651 1821q-84 0 -145 -64l-92 86q42 43 111.5 71t140.5 28q97 0 149.5 -44.5t52.5 -115.5q0 -62 -46.5 -103.5t-135.5 -60.5l-16 -53h-90q-15 13 -22 20t-13 18t-6 23q0 22 27 42t59 33.5t59 34.5t27 44q0 41 -60 41zM965 1454h286l-489 -811v-643h-248v643l-485 811h282
l326 -563h4z" />
    <glyph glyph-name="uni1EF7" unicode="&#x1ef7;" horiz-adv-x="1095" 
d="M557 1348q-84 0 -145 -64l-93 86q42 43 111.5 70.5t140.5 27.5q97 0 150 -44t53 -115q0 -62 -46.5 -103.5t-135.5 -60.5l-17 -53h-90q-15 13 -22 20t-13 18t-6 23q0 22 27 42t59 33.5t59 34.5t27 44q0 41 -59 41zM815 999h240l-549 -1405h-242l180 463l-405 942h242
l276 -675z" />
    <glyph glyph-name="uni1EF8" unicode="&#x1ef8;" horiz-adv-x="1280" 
d="M510 1716q-76 0 -119 -106l-139 63q32 105 91 165t142 60q37 0 71 -9t53.5 -19.5t47.5 -28.5q64 -41 93 -48q13 -3 26 -3q74 0 117 106l139 -47q-31 -114 -90.5 -178.5t-136.5 -64.5q-34 0 -69.5 11t-57.5 22.5t-53 31.5q-70 45 -115 45zM965 1454h286l-489 -811v-643
h-248v643l-485 811h282l326 -563h4z" />
    <glyph glyph-name="uni1EF9" unicode="&#x1ef9;" horiz-adv-x="1095" 
d="M416 1243q-76 0 -119 -106l-139 63q32 105 91 165t142 60q37 0 71 -9t53.5 -19.5t47.5 -28.5q64 -41 93 -48q13 -3 26 -3q74 0 117 106l139 -47q-31 -114 -90.5 -178.5t-136.5 -64.5q-78 0 -181 65q-70 45 -114 45zM815 999h240l-549 -1405h-242l180 463l-405 942h242
l276 -675z" />
    <glyph glyph-name="uni2002" unicode="&#x2002;" horiz-adv-x="956" 
 />
    <glyph glyph-name="uni2003" unicode="&#x2003;" horiz-adv-x="1912" 
 />
    <glyph glyph-name="uni2009" unicode="&#x2009;" horiz-adv-x="59" 
 />
    <glyph glyph-name="endash" unicode="&#x2013;" horiz-adv-x="1173" 
d="M109 508v205h956v-205h-956z" />
    <glyph glyph-name="emdash" unicode="&#x2014;" horiz-adv-x="2129" 
d="M109 508v205h1912v-205h-1912z" />
    <glyph glyph-name="uni2015" unicode="&#x2015;" horiz-adv-x="2455" 
d="M109 508v205h2238v-205h-2238z" />
    <glyph glyph-name="quoteleft" unicode="&#x2018;" horiz-adv-x="440" 
d="M375 1452l-64 -518h-245l122 518h187z" />
    <glyph glyph-name="quoteright" unicode="&#x2019;" horiz-adv-x="440" 
d="M66 936l63 518h246l-123 -518h-186z" />
    <glyph glyph-name="quotesinglbase" unicode="&#x201a;" horiz-adv-x="487" 
d="M55 -270l66 518h246l-144 -518h-168z" />
    <glyph glyph-name="quotedblleft" unicode="&#x201c;" horiz-adv-x="792" 
d="M375 1454l-64 -518h-245l122 518h187zM727 1454l-63 -518h-246l123 518h186z" />
    <glyph glyph-name="quotedblright" unicode="&#x201d;" horiz-adv-x="792" 
d="M66 936l63 518h246l-123 -518h-186zM418 936l63 518h246l-123 -518h-186z" />
    <glyph glyph-name="quotedblbase" unicode="&#x201e;" horiz-adv-x="841" 
d="M57 -160l64 518h246l-123 -518h-187zM410 -160l63 518h246l-123 -518h-186z" />
    <glyph glyph-name="dagger" unicode="&#x2020;" horiz-adv-x="819" 
d="M412 479l-70 119l8 264l-2 223h-39l-196 -10v139l196 -8h39l-6 199h141l-10 -199h39l197 11v-142l-197 10h-41v-223l12 -264z" />
    <glyph glyph-name="daggerdbl" unicode="&#x2021;" horiz-adv-x="819" 
d="M342 113l6 194h-39l-196 -8v139l194 -8h43v143l-8 189l8 188v135h-41l-196 -8v137l194 -10h41l-8 201h141l-10 -201h39l199 10v-137l-199 8h-39v-135l10 -188l-12 -189l2 -143h39l199 8v-137l-199 6h-39l10 -194h-139z" />
    <glyph glyph-name="bullet" unicode="&#x2022;" horiz-adv-x="872" 
d="M436 420q-95 0 -162 66t-67 161t67 162.5t162 67.5t163.5 -67.5t68.5 -162.5t-68 -161t-164 -66z" />
    <glyph glyph-name="ellipsis" unicode="&#x2026;" horiz-adv-x="2048" 
d="M342 -16q-65 0 -110.5 44t-45.5 107t46 108.5t110 45.5q63 0 108.5 -45.5t45.5 -108.5t-45.5 -107t-108.5 -44zM1024 -16q-65 0 -110.5 44t-45.5 107t46 108.5t110 45.5q63 0 108.5 -45.5t45.5 -108.5t-45.5 -107t-108.5 -44zM1708 -16q-65 0 -110.5 44t-45.5 107
t46 108.5t110 45.5q63 0 108.5 -45.5t45.5 -108.5t-45.5 -107t-108.5 -44z" />
    <glyph glyph-name="perthousand" unicode="&#x2030;" horiz-adv-x="3016" 
d="M821 -45l-184 80l643 1450l184 -80zM506 657q-174 0 -294 113.5t-120 294.5q0 171 115.5 288t298.5 117q173 0 292.5 -113t119.5 -292q0 -171 -115.5 -289.5t-296.5 -118.5zM506 831q97 0 158 67t61 165q0 101 -62.5 165t-156.5 64q-95 0 -155 -66t-60 -163
q0 -101 62 -166.5t153 -65.5zM1589 -16q-173 0 -292 114t-119 293q0 171 115 288.5t296 117.5q174 0 294 -113.5t120 -292.5q0 -171 -116 -289t-298 -118zM2511 -16q-174 0 -294 114t-120 293q0 171 116 288.5t298 117.5q173 0 292 -113.5t119 -292.5q0 -171 -115 -289
t-296 -118zM1591 160q97 0 158 66t61 163q0 101 -63 165t-156 64q-97 0 -158 -66t-61 -163q0 -101 63 -165t156 -64zM2511 160q97 0 158 66t61 163q0 101 -63 165t-156 64q-96 0 -156.5 -66t-60.5 -163q0 -101 62.5 -165t154.5 -64z" />
    <glyph glyph-name="guilsinglleft" unicode="&#x2039;" horiz-adv-x="630" 
d="M571 948l-249 -436l251 -444h-227l-252 444l248 436h229z" />
    <glyph glyph-name="guilsinglright" unicode="&#x203a;" horiz-adv-x="620" 
d="M59 68l250 436l-252 444h228l252 -444l-248 -436h-230z" />
    <glyph glyph-name="uni203D" unicode="&#x203d;" horiz-adv-x="948" 
d="M438 1524q84 0 159 -25.5t135 -73t95 -124.5t35 -173q0 -112 -47 -193t-133 -165q-15 -15 -49 -45t-49.5 -46t-36.5 -40t-30.5 -46t-10.5 -44l-6 -90h-189l-41 684h260l-12 -221h2q42 49 63 89t21 87q0 98 -50.5 148t-133.5 50q-60 0 -119 -32t-96 -88l-172 159
q71 90 175.5 139.5t229.5 49.5zM403 289q63 0 108.5 -45.5t45.5 -108.5t-45.5 -107t-108.5 -44q-65 0 -110 44t-45 107t45.5 108.5t109.5 45.5z" />
    <glyph glyph-name="uni2042" unicode="&#x2042;" horiz-adv-x="1714" 
d="M776 791l8 221l-184 -117l-74 127l195 98l-197 105l76 127l184 -117l-8 219h146l-11 -219l189 115l71 -125l-194 -103l194 -100l-71 -127l-185 117l7 -221h-146zM344 104l8 222l-184 -117l-74 127l195 98l-197 105l76 127l184 -117l-8 219h145l-10 -219l189 115l71 -125
l-194 -103l194 -100l-71 -127l-185 117l6 -222h-145zM1227 104l8 222l-184 -117l-74 127l194 98l-196 105l76 127l184 -117l-8 219h145l-10 -219l188 115l72 -125l-195 -103l195 -100l-72 -127l-184 117l6 -222h-145z" />
    <glyph glyph-name="fraction" unicode="&#x2044;" horiz-adv-x="456" 
d="M33 -45l-185 80l641 1450l187 -80z" />
    <glyph glyph-name="uni2051" unicode="&#x2051;" horiz-adv-x="833" 
d="M344 791l8 221l-184 -117l-74 127l195 98l-197 105l76 127l184 -117l-8 219h145l-10 -219l189 115l71 -125l-194 -103l194 -100l-71 -127l-185 117l6 -221h-145zM344 63l8 222l-184 -117l-74 127l195 98l-197 105l76 127l184 -117l-8 219h145l-10 -219l189 115l71 -125
l-194 -103l194 -100l-71 -127l-185 117l6 -222h-145z" />
    <glyph glyph-name="uni2070" unicode="&#x2070;" horiz-adv-x="843" 
d="M422 877q-169 0 -267 119t-98 319q0 206 100.5 322t264.5 116q168 0 265 -118.5t97 -319.5q0 -204 -99 -321t-263 -117zM422 1057q78 0 123 67.5t45 190.5q0 124 -45.5 192t-122.5 68q-79 0 -124.5 -68t-45.5 -192q0 -123 46 -190.5t124 -67.5z" />
    <glyph glyph-name="uni2074" unicode="&#x2074;" horiz-adv-x="739" 
d="M387 893v131h-354v119l395 594h150v-547h116v-166h-116v-131h-191zM244 1178h157v247z" />
    <glyph glyph-name="uni2075" unicode="&#x2075;" horiz-adv-x="718" 
d="M393 1436q113 0 192 -75.5t79 -191.5q0 -130 -90.5 -210t-227.5 -80q-195 0 -309 131l141 116q55 -71 150 -71q58 0 98.5 31.5t40.5 84.5q0 61 -38.5 92t-96.5 31q-69 0 -121 -49l-105 39l27 453h485v-174h-323l-10 -146q65 19 108 19z" />
    <glyph glyph-name="uni2076" unicode="&#x2076;" horiz-adv-x="747" 
d="M428 1434q107 0 183.5 -72.5t76.5 -194.5q0 -124 -90 -205t-221 -81q-134 0 -227 97.5t-93 250.5q0 196 127.5 347t341.5 191l54 -153q-126 -32 -201 -85.5t-109 -135.5l2 -2q67 43 156 43zM377 1049q57 0 95 34t38 88q0 52 -35 84.5t-94 32.5q-86 0 -141 -71v-7
q0 -75 39 -118t98 -43z" />
    <glyph glyph-name="uni2077" unicode="&#x2077;" horiz-adv-x="671" 
d="M61 1737h549v-129l-291 -736l-192 37l270 652h-336v176z" />
    <glyph glyph-name="uni2078" unicode="&#x2078;" horiz-adv-x="759" 
d="M545 1352q67 -27 112 -86t45 -140q0 -112 -93 -179.5t-228 -67.5q-139 0 -230.5 67.5t-91.5 179.5q0 81 44 140t110 86q-41 19 -72.5 67.5t-31.5 106.5q0 106 77 164.5t195 58.5q117 0 192.5 -59t75.5 -164q0 -59 -31 -107.5t-73 -66.5zM379 1597q-44 1 -73.5 -25
t-29.5 -65t29 -63.5t74 -24.5q46 0 75 24t29 64t-29 65t-75 25zM381 1040q57 0 93 31.5t36 79.5q0 47 -36.5 80t-92.5 33q-56 -1 -92.5 -34t-36.5 -79q0 -49 36.5 -80t92.5 -31z" />
    <glyph glyph-name="uni2079" unicode="&#x2079;" horiz-adv-x="745" 
d="M373 1749q133 0 225 -97t92 -251q0 -128 -54.5 -241.5t-161.5 -194t-247 -103.5l-51 154q239 56 303 219l-4 4q-70 -43 -156 -43q-107 0 -184.5 72t-77.5 194q0 124 92 205.5t224 81.5zM238 1458q0 -51 35.5 -84t93.5 -33q87 0 141 70v8q0 76 -39 119t-98 43
q-57 0 -95 -34.5t-38 -88.5z" />
    <glyph glyph-name="uni207A" unicode="&#x207a;" horiz-adv-x="722" 
d="M639 1374v-155h-199v-203h-164v203h-198v155h198v205l164 -2v-203h199z" />
    <glyph glyph-name="uni207B" unicode="&#x207b;" horiz-adv-x="735" 
d="M86 1212v168h563v-168h-563z" />
    <glyph glyph-name="uni207C" unicode="&#x207c;" horiz-adv-x="774" 
d="M106 1368v150h562v-150h-562zM106 1034v152h562v-152h-562z" />
    <glyph glyph-name="uni207D" unicode="&#x207d;" horiz-adv-x="436" 
d="M242 754q-150 271 -150 559q0 155 43 302t117 257l135 -57q-52 -79 -91.5 -219.5t-39.5 -282.5q0 -277 127 -508z" />
    <glyph glyph-name="uni207E" unicode="&#x207e;" horiz-adv-x="436" 
d="M195 754l-142 51q127 231 127 508q0 142 -39.5 282.5t-91.5 219.5l135 57q74 -110 117 -257t43 -302q0 -289 -149 -559z" />
    <glyph glyph-name="uni207F" unicode="&#x207f;" horiz-adv-x="745" 
d="M449 475q108 0 168.5 -63t60.5 -197v-350h-170v305q0 152 -121 152q-67 0 -105 -40.5t-38 -115.5v-301h-170v602h170v-78h2q80 86 203 86z" />
    <glyph glyph-name="uni2080" unicode="&#x2080;" horiz-adv-x="843" 
d="M422 -152q-169 0 -267 119.5t-98 319.5q0 206 100.5 322t264.5 116q168 0 265 -118.5t97 -319.5q0 -204 -99 -321.5t-263 -117.5zM422 29q78 0 123 67.5t45 190.5q0 124 -45.5 192t-122.5 68q-79 0 -124.5 -68t-45.5 -192q0 -123 46 -190.5t124 -67.5z" />
    <glyph glyph-name="uni2081" unicode="&#x2081;" horiz-adv-x="577" 
d="M268 -135v604l-137 -94l-94 147l274 187h150v-844h-193z" />
    <glyph glyph-name="uni2082" unicode="&#x2082;" horiz-adv-x="704" 
d="M334 39h311v-174h-590l-4 129l273 266q61 60 87.5 100.5t26.5 81.5q0 44 -29 72.5t-75 28.5q-38 0 -77.5 -21t-66.5 -65l-143 104q42 70 121 115t180 45q119 0 204 -70t85 -186q0 -77 -31.5 -139.5t-120.5 -143.5l-151 -137v-6z" />
    <glyph glyph-name="uni2083" unicode="&#x2083;" horiz-adv-x="718" 
d="M528 301q138 -63 138 -205q0 -112 -85 -179t-221 -67q-118 0 -204.5 55t-118.5 140l172 72q17 -50 49.5 -73.5t87.5 -23.5t87 28.5t32 74.5q0 45 -36 72.5t-99 27.5h-62v144h76q50 0 80.5 25t30.5 63q0 43 -30 69.5t-81 26.5q-82 0 -115 -76l-159 86q30 71 105 115.5
t173 44.5q125 0 207 -61t82 -168q0 -127 -109 -191z" />
    <glyph glyph-name="uni2084" unicode="&#x2084;" horiz-adv-x="739" 
d="M387 -135v131h-354v119l395 594h150v-547h116v-166h-116v-131h-191zM244 150h157v247z" />
    <glyph glyph-name="uni2085" unicode="&#x2085;" horiz-adv-x="718" 
d="M393 408q113 0 192 -75.5t79 -191.5q0 -130 -90.5 -210.5t-227.5 -80.5q-194 0 -309 132l141 116q55 -71 150 -71q58 0 98.5 31.5t40.5 84.5q0 61 -38.5 92t-96.5 31q-69 0 -121 -49l-105 39l27 453h485v-174h-323l-10 -146q65 19 108 19z" />
    <glyph glyph-name="uni2086" unicode="&#x2086;" horiz-adv-x="747" 
d="M428 406q107 0 183.5 -72.5t76.5 -194.5q0 -124 -90 -205t-221 -81q-134 0 -227 97.5t-93 250.5q0 196 127.5 347t341.5 191l54 -153q-126 -32 -201 -85.5t-109 -135.5l2 -3q68 44 156 44zM377 20q57 0 95 34.5t38 88.5q0 52 -35 84.5t-94 32.5q-85 0 -141 -72v-6
q0 -76 39 -119t98 -43z" />
    <glyph glyph-name="uni2087" unicode="&#x2087;" horiz-adv-x="671" 
d="M61 709h549v-129l-291 -736l-192 37l270 651h-336v177z" />
    <glyph glyph-name="uni2088" unicode="&#x2088;" horiz-adv-x="759" 
d="M545 324q67 -27 112 -86t45 -140q0 -112 -93 -180t-228 -68q-139 0 -230.5 68t-91.5 180q0 81 44 140t110 86q-41 19 -72.5 67.5t-31.5 106.5q0 106 77 164.5t195 58.5q117 0 192.5 -59t75.5 -164q0 -59 -31 -107.5t-73 -66.5zM379 569q-44 1 -73.5 -25t-29.5 -65
t29 -63.5t74 -24.5q46 0 75 24t29 64t-29 65t-75 25zM381 12q57 0 93 31.5t36 79.5q0 47 -36.5 80t-92.5 33q-56 -1 -92.5 -34t-36.5 -79q0 -49 36.5 -80t92.5 -31z" />
    <glyph glyph-name="uni2089" unicode="&#x2089;" horiz-adv-x="745" 
d="M373 721q133 0 225 -97t92 -251q0 -128 -54.5 -241.5t-161.5 -194t-247 -103.5l-51 154q239 56 303 219l-4 4q-70 -43 -156 -43q-107 0 -184.5 72t-77.5 194q0 124 92 205.5t224 81.5zM238 430q0 -51 35.5 -84t93.5 -33q87 0 141 70v8q0 76 -39 119t-98 43
q-57 0 -95 -34.5t-38 -88.5z" />
    <glyph glyph-name="uni208A" unicode="&#x208a;" horiz-adv-x="720" 
d="M641 334v-156h-199v-203h-163v203h-201v156h201v203h163v-203h199z" />
    <glyph glyph-name="uni208B" unicode="&#x208b;" horiz-adv-x="739" 
d="M88 170v168h561v-168h-561z" />
    <glyph glyph-name="uni208C" unicode="&#x208c;" horiz-adv-x="768" 
d="M102 360v150h564v-150h-564zM102 27v149h564v-149h-564z" />
    <glyph glyph-name="uni208D" unicode="&#x208d;" horiz-adv-x="454" 
d="M244 -283q-150 275 -150 559q0 155 43.5 303t118.5 259l141 -64q-50 -74 -89.5 -216t-39.5 -282q0 -146 36.5 -276.5t88.5 -226.5z" />
    <glyph glyph-name="uni208E" unicode="&#x208e;" horiz-adv-x="454" 
d="M211 -283l-150 56q52 96 88.5 226.5t36.5 276.5q0 140 -39.5 282t-89.5 216l142 64q75 -111 118 -258.5t43 -303.5q0 -286 -149 -559z" />
    <glyph glyph-name="uni2090" unicode="&#x2090;" horiz-adv-x="808" 
d="M557 465h162v-600h-162v69h-2q-75 -81 -201 -81q-132 0 -212.5 86t-80.5 225q0 137 79 224t206 87q126 0 209 -92h2v82zM393 6q67 0 113.5 44.5t46.5 113.5t-45.5 114.5t-114.5 45.5q-70 0 -118 -45t-48 -115q0 -69 47 -113.5t119 -44.5z" />
    <glyph glyph-name="uni2091" unicode="&#x2091;" horiz-adv-x="741" 
d="M686 168q0 -43 -4 -55h-442q14 -51 56.5 -81t102.5 -30q87 0 144 61l119 -98q-44 -50 -115 -81t-162 -31q-141 0 -232.5 87t-91.5 224q0 133 91 221t229 88q132 0 218.5 -86.5t86.5 -218.5zM381 328q-103 0 -139 -92h272q-33 92 -133 92z" />
    <glyph glyph-name="uni2092" unicode="&#x2092;" horiz-adv-x="761" 
d="M381 -147q-142 0 -233 88t-91 223t91 222t233 87q141 0 232.5 -86t91.5 -223t-91.5 -224t-232.5 -87zM381 4q64 0 106.5 45t42.5 115t-42 115t-107 45q-66 0 -108 -45.5t-42 -114.5q0 -68 42.5 -114t107.5 -46z" />
    <glyph glyph-name="uni2093" unicode="&#x2093;" horiz-adv-x="651" 
d="M455 -135l-127 166h-4l-129 -166h-189l219 309l-215 293h197l117 -164h2l118 164h195l-219 -293l223 -309h-188z" />
    <glyph glyph-name="dong" unicode="&#x20ab;" horiz-adv-x="1247" 
d="M1247 1307v-156h-127v-1151h-219v133h-4q-115 -149 -324 -149q-210 0 -347.5 141.5t-137.5 370.5q0 148 63.5 267t173.5 185t246 66q201 0 318 -135h4v272h-223v156h223v200h227v-200h127zM608 193q125 0 209 84t84 217q0 135 -81.5 224t-209.5 89q-123 0 -205.5 -86
t-82.5 -227q0 -132 80 -216.5t206 -84.5zM147 -328v209h969v-209h-969z" />
    <glyph glyph-name="Euro" unicode="&#x20ac;" horiz-adv-x="1232" 
d="M1044 287l134 -178q-178 -123 -392 -123q-143 0 -269 54.5t-222 167.5t-135 269h-137v144h116q-2 18 -2 59q0 42 2 65h-116v144h141q56 220 220 354.5t402 134.5q210 0 381 -118l-139 -177q-112 76 -242 76q-121 0 -218.5 -72.5t-143.5 -197.5h491v-144h-524
q-4 -40 -4 -65q0 -41 2 -59h526v-144h-493q47 -126 145.5 -198t218.5 -72q145 0 258 80z" />
    <glyph glyph-name="uni20BA" unicode="&#x20ba;" horiz-adv-x="1153" 
d="M926 516l198 -78q-88 -240 -220 -339t-331 -99h-387v381l-143 -72l-66 146l209 102v139l-143 -69l-63 143l206 102v582h248v-459l232 115l63 -145l-295 -146v-139l232 115l63 -146l-295 -145v-303h113q147 0 230.5 70t148.5 245z" />
    <glyph glyph-name="uni2113" unicode="&#x2113;" horiz-adv-x="946" 
d="M825 244l74 -51q-65 -103 -156 -156t-198 -53q-158 0 -245.5 79.5t-102.5 221.5q-20 -14 -57.5 -43.5t-55.5 -42.5l-47 63q21 18 75.5 60.5t80.5 64.5l4 541q1 100 18 179t46.5 132t72 87.5t91.5 49.5t107 15q111 0 172.5 -83t61.5 -216q0 -160 -97.5 -320.5
t-279.5 -329.5v-45q0 -88 18 -151t48.5 -94.5t63 -44.5t69.5 -13q68 0 130.5 44t106.5 106zM555 1274q-70 0 -119 -79.5t-49 -256.5l2 -387q293 303 293 528q0 195 -127 195z" />
    <glyph glyph-name="uni2116" unicode="&#x2116;" horiz-adv-x="2291" 
d="M1847 840q-142 0 -231.5 88t-89.5 225q0 134 89.5 221.5t231.5 87.5q140 0 232 -86.5t92 -222.5q0 -138 -91.5 -225.5t-232.5 -87.5zM1139 410v1044h245v-1454h-251l-707 1030v-1030h-248v1454h246l711 -1044h4zM1847 1313q-65 0 -106 -45.5t-41 -114.5q0 -70 41 -116
t106 -46q64 0 107 46t43 116q0 69 -42.5 114.5t-107.5 45.5zM1546 571v164h623v-164h-623z" />
    <glyph glyph-name="trademark" unicode="&#x2122;" horiz-adv-x="1413" 
d="M223 793v530h-176v131h502v-131h-178v-530h-148zM641 793v661h150l190 -362l188 362h150v-661h-145v391l-148 -264h-94l-150 264v-391h-141z" />
    <glyph glyph-name="uni2126" unicode="&#x2126;" horiz-adv-x="1581" 
d="M1206 225v-4h248v-221h-561v221q324 238 324 567q0 200 -118 325.5t-308 125.5q-190 -1 -307 -126t-117 -325q0 -331 321 -567v-221h-559v221h246v4q-126 106 -196 252.5t-70 315.5q0 192 84.5 345.5t241 242.5t356.5 89t356.5 -89t241 -242.5t84.5 -345.5
q0 -169 -70 -315.5t-197 -252.5z" />
    <glyph glyph-name="estimated" unicode="&#x212e;" horiz-adv-x="1628" 
d="M813 -20q-196 0 -357 88.5t-252 239t-91 329.5q0 185 94 336t254 236t352 85q198 0 360 -88.5t253.5 -239t91.5 -329.5v-19h-1065v-458q73 -54 170.5 -83.5t191.5 -29.5q131 0 241.5 45t186.5 127h113q-92 -111 -238 -175t-305 -64zM453 696h721v424q-68 52 -164 78.5
t-195 26.5q-101 0 -197.5 -29t-164.5 -84v-416z" />
    <glyph glyph-name="oneeighth" unicode="&#x215b;" horiz-adv-x="1724" 
d="M1053 1485l186 -80l-643 -1450l-184 80zM461 612h-193v605l-137 -95l-94 148l274 186h150v-844zM1509 459q67 -27 112.5 -86t45.5 -140q0 -112 -93 -179.5t-228 -67.5q-139 0 -230.5 67.5t-91.5 179.5q0 81 44 140t110 86q-41 19 -73 67.5t-32 106.5q0 106 77.5 164.5
t195.5 58.5q117 0 192.5 -59t75.5 -164q0 -59 -31.5 -107.5t-73.5 -66.5zM1343 705q-44 1 -73 -25.5t-29 -65.5t28.5 -63.5t73.5 -24.5q46 0 75.5 24.5t29.5 63.5q0 40 -29.5 65.5t-75.5 25.5zM1346 147q57 0 93 31.5t36 79.5q0 47 -36.5 80t-92.5 33q-56 -1 -92.5 -34
t-36.5 -79q0 -49 36.5 -80t92.5 -31z" />
    <glyph glyph-name="threeeighths" unicode="&#x215c;" horiz-adv-x="1822" 
d="M1153 1485l186 -80l-643 -1450l-184 80zM666 844q0 -112 -85 -179t-221 -67q-118 0 -204.5 55t-118.5 140l172 71q17 -50 49.5 -73t87.5 -23t87 28t32 74q0 45 -36 73t-99 28h-62v143h76q50 0 80.5 25t30.5 63q0 43 -30 69.5t-81 26.5q-82 0 -115 -75l-159 86
q30 71 105 115t173 44q125 0 207 -61t82 -168q0 -126 -109 -190q138 -63 138 -205zM1608 459q67 -27 112 -86t45 -140q0 -112 -93 -179.5t-228 -67.5q-139 0 -230.5 67.5t-91.5 179.5q0 81 44 140t110 86q-41 19 -73 67.5t-32 106.5q0 106 77.5 164.5t195.5 58.5
q117 0 192.5 -59t75.5 -164q0 -59 -31 -107.5t-73 -66.5zM1442 705q-44 1 -73.5 -25.5t-29.5 -65.5t29 -63.5t74 -24.5q46 0 75 24t29 64t-29 65.5t-75 25.5zM1444 147q57 0 93 31.5t36 79.5q0 47 -36.5 80t-92.5 33q-56 -1 -92.5 -34t-36.5 -79q0 -49 36.5 -80t92.5 -31z
" />
    <glyph glyph-name="fiveeighths" unicode="&#x215d;" horiz-adv-x="1814" 
d="M1143 1485l186 -80l-643 -1450l-184 80zM664 889q0 -130 -90.5 -210.5t-227.5 -80.5q-195 0 -309 131l141 117q56 -72 150 -72q58 0 98.5 31.5t40.5 85.5q0 61 -38.5 92t-96.5 31q-69 0 -121 -49l-105 39l27 452h485v-174h-323l-10 -145q62 18 108 18q113 0 192 -75
t79 -191zM1599 459q67 -27 112.5 -86t45.5 -140q0 -112 -93 -179.5t-228 -67.5q-139 0 -230.5 67.5t-91.5 179.5q0 81 44 140t110 86q-41 19 -73 67.5t-32 106.5q0 106 77.5 164.5t195.5 58.5q117 0 192.5 -59t75.5 -164q0 -59 -31.5 -107.5t-73.5 -66.5zM1434 705
q-44 1 -73.5 -25.5t-29.5 -65.5t29 -63.5t74 -24.5q46 0 75 24t29 64t-29 65.5t-75 25.5zM1436 147q57 0 93 31.5t36 79.5q0 47 -36.5 80t-92.5 33q-56 -1 -92.5 -34t-36.5 -79q0 -49 36.5 -80t92.5 -31z" />
    <glyph glyph-name="seveneighths" unicode="&#x215e;" horiz-adv-x="1683" 
d="M1012 1485l186 -80l-643 -1450l-184 80zM610 1456v-129l-291 -735l-192 37l270 651h-336v176h549zM1468 459q67 -27 112.5 -86t45.5 -140q0 -112 -93 -179.5t-228 -67.5q-139 0 -230.5 67.5t-91.5 179.5q0 81 44 140t110 86q-41 19 -73 67.5t-32 106.5q0 106 77.5 164.5
t195.5 58.5q117 0 192.5 -59t75.5 -164q0 -59 -31.5 -107.5t-73.5 -66.5zM1303 705q-44 1 -73.5 -25.5t-29.5 -65.5t29 -63.5t74 -24.5q46 0 75 24t29 64t-29 65.5t-75 25.5zM1305 147q57 0 93 31.5t36 79.5q0 47 -36.5 80t-92.5 33q-56 -1 -92.5 -34t-36.5 -79
q0 -49 36.5 -80t92.5 -31z" />
    <glyph glyph-name="arrowleft" unicode="&#x2190;" horiz-adv-x="1280" 
d="M547 150l-547 397l547 399l-2 -293h641v-213h-641z" />
    <glyph glyph-name="arrowup" unicode="&#x2191;" horiz-adv-x="1159" 
d="M977 639l-291 2v-641h-213v641l-293 -2l400 547z" />
    <glyph glyph-name="arrowright" unicode="&#x2192;" horiz-adv-x="1280" 
d="M733 150l2 290h-641v213h641l-2 293l547 -399z" />
    <glyph glyph-name="arrowdown" unicode="&#x2193;" horiz-adv-x="1159" 
d="M977 547l-397 -547l-400 547l293 -2v641h213v-641z" />
    <glyph glyph-name="arrowboth" unicode="&#x2194;" horiz-adv-x="1724" 
d="M1724 547l-546 -397l2 290h-635l2 -290l-547 397l547 399l-2 -293h635l-2 293z" />
    <glyph glyph-name="arrowupdn" unicode="&#x2195;" horiz-adv-x="1157" 
d="M684 866v-637l293 2l-399 -546l-398 546l291 -2v637l-291 -2l398 547l399 -547z" />
    <glyph glyph-name="uni2196" unicode="&#x2196;" horiz-adv-x="1171" 
d="M248 344l-107 668l670 -105l-209 -207l453 -452l-152 -150l-452 453z" />
    <glyph glyph-name="uni2197" unicode="&#x2197;" horiz-adv-x="1171" 
d="M926 344l-203 207l-453 -453l-151 150l452 452l-209 207l670 105z" />
    <glyph glyph-name="uni2198" unicode="&#x2198;" horiz-adv-x="1171" 
d="M365 254l206 203l-452 452l149 152l453 -453l207 209l104 -670z" />
    <glyph glyph-name="uni2199" unicode="&#x2199;" horiz-adv-x="1171" 
d="M807 254l-668 -107l105 670l207 -209l452 453l150 -152l-453 -452z" />
    <glyph glyph-name="partialdiff" unicode="&#x2202;" horiz-adv-x="1202" 
d="M575 1421q92 0 168.5 -30t129.5 -79.5t94 -118.5t65.5 -142t40.5 -155.5t21.5 -153t5.5 -140.5q0 -153 -39 -272.5t-108.5 -194t-160 -113t-196.5 -38.5q-212 0 -354 129.5t-142 332.5q0 107 36.5 195.5t99 145t143 87.5t170.5 31q180 0 301 -92h2q-9 67 -23.5 121.5
t-39 106t-57.5 86.5t-81 56t-108 21q-57 0 -120 -17t-145 -47q-12 -5 -18 -7l-70 200q208 88 385 88zM598 213q116 0 191.5 89.5t76.5 240.5q-47 67 -119.5 109t-156.5 42q-110 0 -176 -63t-66 -178q0 -98 71 -169t179 -71z" />
    <glyph glyph-name="emptyset" unicode="&#x2205;" horiz-adv-x="1470" 
d="M1233 1044q133 -173 133 -393q0 -127 -49.5 -244.5t-133 -203.5t-201.5 -137.5t-249 -51.5q-218 0 -393 138l-98 -99l-97 97l99 98q-142 179 -142 403q0 127 49.5 244t133.5 203t202 137t248 51q231 0 402 -145l90 90l96 -96zM287 649q0 -148 88 -270l631 631
q-119 92 -271 92q-124 0 -227.5 -61t-162 -165t-58.5 -227zM733 199q123 0 227 61.5t163 165t59 225.5q0 141 -82 260l-629 -628q117 -84 262 -84z" />
    <glyph glyph-name="uni2206" unicode="&#x2206;" horiz-adv-x="1398" 
d="M821 1454l500 -1264v-190h-203h-1014h-26v190l495 1264h248zM356 221h682l-338 928h-4z" />
    <glyph glyph-name="product" unicode="&#x220f;" horiz-adv-x="1452" 
d="M178 -213v1667h1096v-1667h-248v1446h-600v-1446h-248z" />
    <glyph glyph-name="summation" unicode="&#x2211;" horiz-adv-x="1257" 
d="M1157 1454v-221h-723l408 -586l-408 -588h723v-223h-1051v176l453 635l-453 627v180h1051z" />
    <glyph glyph-name="minus" unicode="&#x2212;" horiz-adv-x="1173" 
d="M102 463v209h969v-209h-969z" />
    <glyph glyph-name="radical" unicode="&#x221a;" horiz-adv-x="1468" 
d="M1415 1683h174l-788 -1683h-160l-342 1024h-231v201h421l291 -899h4z" />
    <glyph glyph-name="infinity" unicode="&#x221e;" horiz-adv-x="1603" 
d="M1145 911q142 0 240 -98.5t98 -245.5q0 -151 -99.5 -247.5t-238.5 -96.5q-189 0 -344 195q-154 -195 -342 -195q-143 0 -240.5 99t-97.5 245q0 152 99 248t239 96q195 0 342 -194q157 194 344 194zM463 406q105 0 223 161q-57 78 -110.5 121t-112.5 43q-66 0 -111 -45.5
t-45 -118.5q0 -72 45 -116.5t111 -44.5zM1147 406q61 0 104 45t43 116q0 73 -43 118.5t-104 45.5q-115 0 -232 -164q121 -161 232 -161z" />
    <glyph glyph-name="integral" unicode="&#x222b;" horiz-adv-x="815" 
d="M100 -350q-61 -4 -155 8l24 176h19q20 0 36 1t30 5.5t24 7.5t19 13.5t15 17t12 23.5t9.5 27.5t8.5 35.5t8 41t8 49l161 1084q22 138 95.5 212.5t175.5 80.5q52 2 95.5 -3.5t70 -11.5t32.5 -6l-24 -164q-15 0 -35.5 1t-28.5 1q-21 0 -36.5 -1t-29.5 -5t-23.5 -7t-18.5 -13
t-15 -16t-12 -24t-9 -28t-8 -36.5t-7.5 -42.5t-8.5 -52l-163 -1083q-21 -135 -93 -209t-176 -82z" />
    <glyph glyph-name="uni2236" unicode="&#x2236;" horiz-adv-x="552" 
d="M268 827q-64 0 -109.5 44.5t-45.5 107.5t45.5 108.5t109.5 45.5q63 0 108.5 -45.5t45.5 -108.5t-45.5 -107.5t-108.5 -44.5zM268 102q-64 0 -109.5 44.5t-45.5 107.5t45.5 108.5t109.5 45.5q63 0 108.5 -45.5t45.5 -108.5t-45.5 -107.5t-108.5 -44.5z" />
    <glyph glyph-name="approxequal" unicode="&#x2248;" horiz-adv-x="1208" 
d="M838 641q-58 0 -130 25t-147 50t-141 25q-125 0 -242 -79l-65 159q36 39 116.5 82t167.5 43q70 0 144.5 -25t144 -50t127.5 -25q112 0 213 90l70 -162q-114 -133 -258 -133zM838 190q-47 0 -102.5 16t-100 34.5t-103.5 34.5t-112 16q-123 0 -242 -80l-65 158
q35 39 116 83t168 44q71 0 145.5 -26t143.5 -51.5t127 -25.5q113 0 213 92l70 -163q-46 -54 -112 -93t-146 -39z" />
    <glyph glyph-name="notequal" unicode="&#x2260;" horiz-adv-x="1210" 
d="M1090 696h-340l-119 -258h459v-209h-558l-106 -229l-154 59l80 170h-231v209h328l120 258h-448v209h545l114 246l154 -61l-86 -185h242v-209z" />
    <glyph glyph-name="lessequal" unicode="&#x2264;" horiz-adv-x="1202" 
d="M1065 324l-942 411v172l942 420v-231l-633 -273l633 -272v-227zM1071 0h-950v209h950v-209z" />
    <glyph glyph-name="greaterequal" unicode="&#x2265;" 
d="M137 324v227l633 272l-633 273v231l942 -420v-172zM131 0v209h950v-209h-950z" />
    <glyph glyph-name="filledbox" unicode="&#x25a0;" horiz-adv-x="1316" 
d="M92 0v1128h1131v-1128h-1131z" />
    <glyph glyph-name="uni25A1" unicode="&#x25a1;" horiz-adv-x="1316" 
d="M92 0v1128h1131v-1128h-1131zM276 184h760v760h-760v-760z" />
    <glyph glyph-name="triagup" unicode="&#x25b2;" horiz-adv-x="1314" 
d="M14 0l643 1188l641 -1188h-1284z" />
    </font>
</defs>
</svg>
